#TITLE:resonance;
#SUBTITLE:(TV Size);
#ARTIST:T.M. Revolution;
#TITLETRANSLIT:;
#SUBTITLETRANSLIT:;
#ARTISTTRANSLIT:;
#CREDIT:Mr. Kewing;
#BANNER:resonance.png;
#BACKGROUND:resonance-bg.png;
#LYRICSPATH:;
#CDTITLE:!Mr Kewing S1 (cdtitle).png;
#MUSIC:resonance.ogg;
#OFFSET:-0.003;
#SAMPLESTART:16.235;
#SAMPLELENGTH:11.880;
#SELECTABLE:YES;
#BPMS:0.000=165.000;
#STOPS:;
#BGCHANGES:0.000=resonance.avi=1.000=1=0=0,
243.000=resonance-bg.png=1.000=1=0=0,
99999=-nosongbg-=1.000=0=0=0 // don't automatically add -songbackground-
;

//---------------dance-single - ----------------
#NOTES:
     dance-single:
     :
     Hard:
     8:
     0.599,0.574,0.268,0.123,0.000: // measure 1
0000
0000
0001
0001
0000
1000
1000
0000
,  // measure 2
0100
0100
0000
0000
0000
0000
0020
0000
,  // measure 3
0000
0001
0001
0001
,  // measure 4
0031
0000
0001
0000
0100
0001
0000
1000
,  // measure 5
0001
1000
0000
0001
0100
0000
1000
0000
,  // measure 6
0100
0000
0001
0000
1000
0100
0000
0010
,  // measure 7
0100
0010
0000
0100
1000
0000
0010
0000
,  // measure 8
0100
0000
0110
0000
0010
1000
0000
0100
,  // measure 9
1000
0001
0000
1000
0010
0000
0001
0000
,  // measure 10
0010
0000
1000
0000
0001
0010
0000
0100
,  // measure 11
1000
0010
0000
0100
0001
1000
0100
0000
,  // measure 12
0110
0000
1001
0000
1000
0001
0100
0000
,  // measure 13
0010
0000
1000
0001
0010
0100
1000
0100
,  // measure 14
0010
0001
1000
0000
1000
0001
0100
0000
,  // measure 15
0100
0001
0010
0000
0001
1000
0010
0100
,  // measure 16
0010
1000
0001
0000
0001
1000
0100
0000
,  // measure 17
0010
0000
0001
1000
0010
0100
0001
0100
,  // measure 18
0010
1000
0001
0000
0001
1000
0100
0000
,  // measure 19
0100
1000
0010
0000
1000
0100
0010
0001
,  // measure 20
0100
0010
2010
0000
0001
0000
0010
0000
,  // measure 21
3100
2100
0001
0100
,  // measure 22
3010
0102
0010
1003
,  // measure 23
1100
0120
0001
1000
,  // measure 24
0031
0012
1000
0010
,  // measure 25
0103
0102
1000
0100
,  // measure 26
0013
2100
0010
3001
,  // measure 27
0101
0000
0120
0000
1000
0000
0001
0030
,  // measure 28
1000
0000
1100
0000
0010
0001
0000
0010
,  // measure 29
0100
1000
0001
0000
0100
0001
0000
0100
,  // measure 30
0010
1000
0001
0000
0010
0100
0000
1000
,  // measure 31
0100
0010
0001
1000
0001
0010
0000
0001
,  // measure 32
0100
0000
0101
0000
0010
1000
0000
0010
,  // measure 33
0100
0001
1000
0000
0100
1000
0000
0100
,  // measure 34
0010
0001
1000
0001
0010
0100
0000
1000
,  // measure 35
0010
0100
0001
1000
0001
0100
0010
0000
,  // measure 36
1001
0000
1000
0100
0000
0010
0000
1000
,  // measure 37
0010
0000
0100
1000
0000
0001
0100
0000
,  // measure 38
0010
0000
1010
0000
0000
1000
0000
0100
,  // measure 39
0010
0000
0011
0000
0000
0010
0100
0000
,  // measure 40
1000
0000
0001
0000
0100
0010
0000
0001
,  // measure 41
0010
0000
0100
0000
0001
1000
0100
0000
,  // measure 42
0010
0000
0001
0011
0000
1000
1001
0000
,  // measure 43
0010
1010
0000
0000
0200
0000
0000
0000
,  // measure 44
0300
0000
1001
0000
0001
1000
0100
0000
,  // measure 45
1000
0001
1000
0010
0100
0001
0100
0010
,  // measure 46
1000
0001
1000
0000
1000
0100
0010
0000
,  // measure 47
0010
0001
0100
0010
1000
0010
0100
0001
,  // measure 48
0010
0000
0110
0000
1000
0001
0100
0000
,  // measure 49
0001
1000
0001
0010
0100
1000
0100
0010
,  // measure 50
0001
1000
0001
0000
0001
0100
0010
0000
,  // measure 51
0010
1000
0100
0010
0001
0010
0100
1000
,  // measure 52
0010
0100
0110
0000
0001
1000
0100
0000
,  // measure 53
0010
0001
0010
0100
1000
0010
0001
0010
,  // measure 54
1000
0100
0010
0001
0010
0001
1000
0100
,  // measure 55
1000
0100
0010
0001
0100
1000
0100
0001
,  // measure 56
0010
0100
1000
0000
1000
0001
0100
0000
,  // measure 57
0010
1000
0010
0100
0001
0010
1000
0010
,  // measure 58
0001
0100
0010
1000
0100
1000
0001
0010
,  // measure 59
0001
0100
0010
1000
0100
0001
1000
0010
,  // measure 60
0001
0000
1000
0010
0100
0001
0000
1000
,  // measure 61
0100
0002
0000
0000
0000
0003
0000
0000
;

//---------------dance-single - ----------------
#NOTES:
     dance-single:
     :
     Easy:
     4:
     0.381,0.439,0.078,0.156,0.000:
0000
0000
0000
0000
,
1100
0000
0000
0020
,
0000
0002
0000
0000
,
0033
0001
0000
1000
,
0000
0010
0100
0010
,
1000
0001
0000
1000
,
0000
0100
0010
0100
,
1000
1001
0001
0100
,
0010
1000
0010
0001
,
0010
1000
0001
0010
,
0100
2000
0001
3001
,
1001
1000
0010
1000
,
0100
1000
0010
0001
,
0010
1000
0010
0100
,
0001
0100
1000
0100
,
0001
1000
0100
1000
,
0010
1000
0100
0001
,
0100
1000
0100
0010
,
0001
1000
0100
0001
,
0010
2000
0010
0010
,
3010
0020
0100
0100
,
0130
0200
0001
0301
,
0101
2001
0001
0001
,
3001
0002
0010
0010
,
0013
0020
0100
0100
,
0130
0200
1000
1300
,
1100
1002
1000
1000
,
1003
0100
1000
0100
,
0100
0010
0100
0010
,
0100
0100
0001
0100
,
0001
0001
0100
2000
,
0000
3010
0010
1000
,
0010
0100
0100
0010
,
0100
0010
0010
0001
,
0010
1000
0001
1000
,
0001
0000
1000
0000
0000
0100
0000
0000
,
1000
0010
0000
0100
,
0010
0000
1000
0000
0000
0100
0000
0000
,
0010
0100
0000
0100
,
1000
0000
0001
0000
0000
0100
0000
0000
,
0001
0010
0000
0100
,
0010
0000
0001
0000
0000
1000
0000
0000
,
0010
0000
0200
0000
,
0300
0001
0100
0010
,
1000
0100
0001
0100
,
1000
0010
0100
0001
,
1000
0001
0010
1000
,
0010
0001
0010
0100
,
1000
0010
0001
0010
,
1000
0100
0010
0001
,
1000
0001
0100
1000
,
0010
0001
0100
0001
,
0010
0100
0001
0100
,
1000
0100
0010
0001
,
1000
0010
0100
1000
,
0100
0001
0010
0001
,
0100
0010
0001
0010
,
1000
0010
0100
0001
,
1000
0100
0001
0010
,
1000
0000
0100
0000
0010
0001
0000
1000
,
0010
2000
0000
0000
0000
3000
0000
0000
;

//---------------dance-single - ----------------
#NOTES:
     dance-single:
     :
     Medium:
     7:
     0.518,0.473,0.212,0.145,0.000:
0000
0000
0001
0000
0000
1000
0000
0000
,
0100
0000
0000
0020
,
0000
0001
0001
0001
,
0031
0100
0010
1000
,
0100
0000
0010
0000
0001
0000
0010
1000
,
0010
0100
0010
0001
,
0100
0000
0010
0000
1000
0000
0010
0001
,
0010
0110
0100
0001
,
0010
0000
1000
0000
0001
0000
0100
1000
,
0100
1000
0010
0001
,
0100
0000
1000
0100
0010
0001
0100
0000
,
0110
0010
1000
0001
,
1000
0000
0100
0010
0001
0010
0001
0010
,
0100
0000
1000
0000
0001
0100
0001
0000
,
1000
0000
0001
0000
0010
0100
1000
0100
,
1000
0100
0010
0000
0001
0000
1000
0000
,
0001
0000
0100
0010
1000
0010
1000
0010
,
0100
0000
0001
0000
1000
0100
1000
0000
,
0001
0000
1000
0000
0010
0100
0001
1000
,
0001
0100
0020
0000
1000
0000
1000
0000
,
1030
0210
0001
0001
,
0301
2001
0010
3010
,
0110
1002
0010
0010
,
0013
0120
0001
0001
,
0031
0210
1000
1000
,
1300
1002
0010
0013
,
0110
2001
0010
0010
,
3010
0000
0110
0000
0100
0001
0000
0001
,
0100
0000
0001
0000
0010
0001
0000
0001
,
0010
0000
0100
0000
1000
0001
0000
0001
,
1000
0002
0100
0103
,
0001
0000
0010
0000
0100
1000
0000
1000
,
0010
0000
0100
0000
0010
1000
0000
1000
,
0100
0000
0001
0000
0100
1000
0000
1000
,
0010
0200
0001
0010
,
0301
0000
0011
0000
0000
0001
0000
0100
,
0001
0000
0001
0000
0000
0001
0000
0010
,
0100
0000
0100
0000
0000
0100
0000
1000
,
0001
0000
0001
0000
0000
0001
0100
0000
,
0010
0000
1010
0000
0000
1000
0000
0100
,
1000
0000
0100
0000
0100
0000
0100
0010
,
0001
0000
0011
0000
0000
1001
0000
0000
,
1010
0000
0200
0000
,
0300
0000
1001
0000
1000
0100
1000
0000
,
0001
0000
0100
0010
1000
0001
1000
0010
,
0100
0000
0001
0000
1000
0010
1000
0000
,
0001
0000
0010
0100
1000
0001
1000
0100
,
0010
0000
0001
0000
0001
0100
0001
0000
,
1000
0000
0100
0010
0001
1000
0001
0010
,
0100
0000
1000
0000
0001
0010
0001
0000
,
1000
0000
0010
0100
0001
1000
0001
0010
,
0100
0000
1001
0000
1000
0001
0100
0000
,
0010
0000
0100
0010
1000
0100
1000
0010
,
0100
0000
0001
0000
1000
0001
0010
0000
,
0100
0000
0010
0100
1000
0010
1000
0100
,
0010
0000
0001
0000
0001
1000
0010
0000
,
0001
0000
0010
0100
0001
0010
0001
0100
,
0010
0000
1000
0000
0001
1000
0100
0000
,
0001
0000
0100
0010
0001
0100
0010
1000
,
0100
0000
1000
0100
0010
0001
0000
1000
,
0010
0200
0000
0000
0000
0300
0000
0000
;

//---------------dance-single - ----------------
#NOTES:
     dance-single:
     :
     Beginner:
     2:
     0.215,0.235,0.145,0.000,0.000:
0000
0000
0000
0000
,
0000
0000
0000
0010
,
0000
0001
0000
0000
,
0000
1000
0000
0000
,
0001
0001
0000
1000
,
0000
0001
0000
0000
,
0100
0100
0000
0010
,
0000
0110
0000
0010
,
0000
0100
0000
0001
,
0000
1000
0000
0100
,
0000
0010
0010
0010
,
0000
0001
0000
1000
,
0000
0001
0001
0001
,
0000
0100
0000
0010
,
0000
1000
0000
0010
,
0000
1000
0000
0001
,
0000
1000
1000
1000
,
0000
0100
0000
0010
,
0000
0100
0100
0100
,
0000
1001
0000
0000
,
0000
1001
0000
0000
,
0000
0110
0000
0000
,
0110
0110
0000
0000
,
0000
1001
0000
0000
,
0000
1001
0000
0000
,
0000
0110
0000
0000
,
0110
1001
0000
0000
,
0000
1000
0000
0100
,
0000
0010
0000
0100
,
0000
1000
0000
0001
,
0000
0100
0000
0000
,
0000
0001
0000
0010
,
0000
0100
0000
0010
,
0000
0001
0000
0100
,
0000
0010
0000
0000
,
0000
0100
0000
0000
,
0100
0100
0000
0000
,
0001
0001
0000
0000
,
0010
0010
0000
0000
,
0100
0100
0000
0000
,
1000
1000
0000
0010
,
0010
0010
0000
0100
,
0100
0000
0000
0000
,
0000
1001
0000
1000
,
0000
0100
0100
0100
,
0000
0010
0000
0001
,
0000
0010
0010
0010
,
0000
0001
0000
1000
,
0000
0010
0010
0010
,
0000
0100
0000
0001
,
0000
0100
0100
0100
,
0100
0100
0000
0010
,
0000
1000
1000
1000
,
0000
0100
0000
0010
,
0000
0001
0001
0001
,
0000
0010
0000
0100
,
0000
1000
1000
1000
,
0000
0010
0000
0100
,
0000
0001
0001
0001
,
0000
0010
0000
0100
,
0000
0110
0000
0000
;
