#TITLE:fugue;
#SUBTITLE:;
#ARTIST:DR1010;
#TITLETRANSLIT:;
#SUBTITLETRANSLIT:;
#ARTISTTRANSLIT:;
#CREDIT:;
#BANNER:fugue.png;
#BACKGROUND:fugue-bg.png;
#LYRICSPATH:;
#CDTITLE:!Kewing DarkSun v3 (cdtitle).png.png;
#MUSIC:fugue.ogg;
#OFFSET:-0.027;
#SAMPLESTART:70.280;
#SAMPLELENGTH:12.000;
#SELECTABLE:YES;
#BPMS:0.000=140.000,164.002=160.000;
#STOPS:;
#BGCHANGES:;

//---------------dance-single - ----------------
#NOTES:
     dance-single:
     :
     Hard:
     9:
     0.523,0.508,0.124,0.023,0.008: // measure 1
0000
0000
0000
0000
,  // measure 2
0000
0000
0000
0000
,  // measure 3
0000
0000
0000
0000
,  // measure 4
0000
0000
0000
0000
,  // measure 5
1000
0000
0000
1000
0100
0000
0001
0000
,  // measure 6
0100
0000
0000
0010
0000
0100
0010
0000
,  // measure 7
0001
0000
0000
0001
0100
0000
1000
0000
,  // measure 8
0100
0001
0100
0010
0100
0000
0010
0000
,  // measure 9
0100
0100
0000
0001
0010
0000
1000
0000
,  // measure 10
0010
0010
0000
0001
1000
0000
1000
0000
,  // measure 11
0100
0100
0000
1000
0010
0000
0001
0000
,  // measure 12
0010
0010
0000
1000
0001
0000
0001
0000
,  // measure 13
1000
0100
0000
0100
0001
0000
0100
0000
,  // measure 14
0010
0001
0010
0100
0010
0000
0010
0000
,  // measure 15
0001
0100
0000
0100
1000
0000
0100
0000
,  // measure 16
0010
1000
0010
0100
0010
0000
0010
0000
,  // measure 17
1000
0001
0100
0000
1000
0100
0000
0001
,  // measure 18
1000
0100
0001
0000
0100
1000
0000
1001
,  // measure 19
0000
0001
1000
0100
0010
0001
0000
1001
,  // measure 20
0000
0001
1000
0010
0100
0001
0010
0100
,  // measure 21
0000
1000
0100
0000
0001
0100
0000
1000
,  // measure 22
0001
0100
1000
0000
0100
0001
0000
1001
,  // measure 23
0000
1000
0001
0100
0010
1000
0000
1001
,  // measure 24
0000
1000
0001
0010
0100
1000
0010
0100
,  // measure 25
0000
0100
0001
0100
0010
0100
0000
0110
,  // measure 26
0000
0100
1000
0100
0010
0100
0000
0110
,  // measure 27
0000
0100
0001
0100
1000
0100
0000
0110
,  // measure 28
0000
0100
0001
0010
0100
0000
0110
0000
,  // measure 29
0010
0100
1000
0100
0010
0100
0000
0110
,  // measure 30
0000
0100
0001
0100
1000
0100
0000
0110
,  // measure 31
0000
0100
0010
0100
0001
0100
0000
0110
,  // measure 32
0000
0100
1000
0010
0100
1000
0100
0001
,  // measure 33
1000
0100
0000
0010
0100
0000
1000
0000
,  // measure 34
0000
0000
0000
0000
0000
0000
0000
0000
1000
0010
1000
0000
0200
0000
0000
0000
,  // measure 35
1300
0010
0000
0010
0001
0000
1000
0000
,  // measure 36
0001
0010
0000
0010
1000
0000
1000
0000
,  // measure 37
0001
0100
0000
0010
0100
0000
0001
0000
,  // measure 38
0000
0000
0000
0000
0000
0000
0000
0000
0001
0010
0001
0000
0200
0000
0000
0000
,  // measure 39
0301
0010
0000
0010
1000
0000
0001
0000
,  // measure 40
1000
0010
0000
0010
0001
0000
0001
0000
,  // measure 41
0200
0000
0000
0000
,  // measure 42
0310
1000
0100
1000
0001
0010
0000
0100
,  // measure 43
1000
0010
1000
0001
0000
0100
0010
1000
,  // measure 44
0010
0001
0010
1000
0010
0100
0000
0001
,  // measure 45
0100
1000
0100
0001
0100
0010
1000
0100
,  // measure 46
0010
0001
0100
0001
1000
0010
0000
0100
,  // measure 47
0001
0010
0001
1000
0000
0100
0010
0001
,  // measure 48
0010
1000
0010
0001
0010
0100
0000
1000
,  // measure 49
0100
0001
0100
1000
0100
0010
0001
0100
,  // measure 50
0010
1000
0100
1000
0010
0000
0100
0001
,  // measure 51
0010
0001
0100
0010
1000
0010
0000
0010
,  // measure 52
0001
0010
1000
0001
1000
0100
0000
0110
,  // measure 53
0000
0010
1000
0010
0001
1000
0001
0100
,  // measure 54
0010
0001
0010
1000
0000
1000
0100
0000
,  // measure 55
0010
1000
0010
0001
0000
0001
0100
0000
,  // measure 56
0100
0001
1000
0100
0001
0100
0010
0000
,  // measure 57
0100
1000
0001
0100
1000
0100
0010
0000
,  // measure 58
1000
0100
0010
1000
0010
0001
0010
0100
,  // measure 59
0001
0100
1000
0100
0010
1000
0010
0001
,  // measure 60
0100
0010
1000
0010
0001
0010
0000
0110
,  // measure 61
0000
0100
0001
0000
0001
1000
0100
0010
,  // measure 62
0001
0100
0010
0001
0010
1000
0100
0010
,  // measure 63
1000
0010
0001
0100
0010
0001
0010
1000
,  // measure 64
0100
0010
0001
0010
1000
0010
0000
0110
,  // measure 65
0000
0100
1000
0000
0001
0100
0010
1000
,  // measure 66
0100
0010
1000
0010
0001
0100
1000
0100
,  // measure 67
0010
0001
0010
1000
0100
0001
0100
1000
,  // measure 68
0010
0100
0010
0001
1000
0100
0001
1000
,  // measure 69
0100
0010
0100
0001
1000
0010
0001
1000
,  // measure 70
0010
0100
1000
0100
0001
0010
1000
0010
,  // measure 71
0100
1000
0010
0001
0010
0100
1000
0100
,  // measure 72
0001
0010
0100
0010
1000
0001
0100
0010
,  // measure 73
0100
1000
0010
0100
1000
0001
0010
0100
,  // measure 74
0001
0010
0000
0010
1000
0000
0010
0000
,  // measure 75
0001
0000
1000
0001
0000
0001
0100
0010
,  // measure 76
1000
0100
0000
0100
0001
0000
1001
0000
,  // measure 77
0001
0010
0000
0010
1000
0000
0001
0000
,  // measure 78
1001
0000
0000
0000
;

//---------------dance-single - ----------------
#NOTES:
     dance-single:
     :
     Medium:
     7:
     0.376,0.388,0.070,0.039,0.000:
0000
0000
0000
0000
,
0000
0000
0000
0000
,
0000
0000
0000
0000
,
0000
0000
0000
0000
,
1000
0000
0000
1000
0000
0000
1000
0000
,
0010
0000
0100
0000
,
0001
0000
0000
0001
0000
0000
0001
0000
,
0010
0100
2000
0000
,
3001
0000
0000
0100
0000
0000
0001
0000
,
1000
0001
0010
0001
,
1000
0000
0000
0100
0000
0000
1000
0000
,
0001
1000
0010
1000
,
0001
0000
0000
0100
0000
0000
0010
0000
,
1000
0000
0000
0100
0000
0000
0010
0000
,
0001
0000
0000
1000
0000
0000
1000
0000
,
0010
0100
0002
0000
,
1003
0100
0010
0001
,
0010
0000
0100
0000
1000
0001
0000
0100
,
0000
0010
1000
0000
0001
0000
0010
0000
,
0100
0000
1000
0000
0100
1000
0100
1000
,
0000
0001
0100
0000
0010
0000
1000
0000
,
0010
0000
0100
0000
0001
1000
0000
0100
,
0000
0010
0001
0000
1000
0000
0010
0000
,
0100
0000
0001
0000
0100
0001
0100
0001
,
0000
1000
0100
0000
0010
0000
0001
0000
,
0100
0000
0001
0000
0010
0000
0001
1000
,
0000
1000
0001
0000
0010
0000
0100
1000
,
0000
1000
0100
0010
0001
0000
1001
0000
,
1000
0001
0100
0000
0010
0000
1000
0000
,
0100
0000
1000
0000
0010
0000
1000
0001
,
0000
0001
1000
0000
0010
0000
0100
0001
,
0000
0001
0100
0010
1000
0001
1000
0000
,
0100
0000
0000
0100
0000
0000
0010
0000
,
0000
0000
2000
3010
,
0001
0000
0000
0001
0000
0000
1000
0000
,
0010
0000
0000
0010
0000
0000
0010
0000
,
0100
0000
0000
0100
0000
0000
0010
0000
,
0000
0000
0002
0013
,
1000
0000
0000
1000
1000
0000
0010
0000
,
0100
0000
0000
0001
0001
0000
0010
0000
,
0200
0000
0000
0000
,
1300
0010
0100
0001
,
0011
0000
0010
0001
0000
0001
0100
0000
,
0001
0000
1000
0010
1000
0000
0001
0000
,
1000
0000
0001
0100
0001
0000
1000
0000
,
0001
0010
0100
1000
,
1010
0000
0010
1000
0000
1000
0100
0000
,
1000
0000
0001
0010
0001
0000
1000
0000
,
0001
0000
1000
0100
1000
0000
0001
0000
,
0100
0010
0000
0010
1000
0000
0001
0010
,
0000
0010
0100
0000
1000
0000
0001
0000
,
1000
0010
1000
0000
1100
0000
1000
0000
,
0001
0010
0001
0000
0101
0000
0100
0000
,
0010
0000
1000
0100
0000
0100
0010
0000
,
0011
0000
0001
0100
0000
0100
0010
0000
,
1010
1000
0010
0001
,
0010
0100
1000
0010
,
0001
0000
1000
0100
0000
0100
1000
0000
,
1000
0010
0000
0010
0100
0000
0100
0001
,
0010
0000
0001
0000
1000
0000
0100
1000
,
0010
0100
0010
0010
,
1000
0001
0100
0000
0100
0001
0000
0001
,
0010
0000
0010
0100
0000
0100
1000
0000
,
0010
1000
0100
0000
1000
0000
0001
0000
,
0010
0001
0100
0000
0001
0000
1000
0000
,
0010
1000
0000
0001
0100
0000
0001
0010
,
0000
0100
1000
0000
0001
0100
0000
0110
,
0000
0010
1000
0000
0010
0100
0001
0010
,
0000
0010
0001
0000
0010
0100
1000
0001
,
1000
0010
0000
0100
0010
0000
0001
0010
,
0000
0100
0010
0000
1000
0010
0100
0001
,
0000
1000
0001
0010
0100
1000
0000
0100
,
1000
0001
0100
0010
1000
0100
0010
0000
,
0001
1000
0000
0001
1000
0000
0010
0000
,
0010
0000
0000
0100
0000
0010
1000
0000
,
0001
1000
0000
0001
1000
0000
0100
0000
,
0010
0100
0000
0010
0100
0000
1000
0000
,
1001
0000
0000
0000
;

//---------------dance-single - ----------------
#NOTES:
     dance-single:
     :
     Easy:
     4:
     0.234,0.269,0.031,0.031,0.000:
0000
0000
0000
0000
,
0000
0000
0000
0000
,
0000
0000
0000
0000
,
0000
0000
0000
0000
,
1000
0000
0100
0000
,
0000
0000
0000
0000
,
0010
0000
0001
0000
,
0010
0010
0020
0000
,
0031
0000
1000
0000
,
0010
0000
0100
0000
,
0001
0000
0010
0000
,
1000
0000
0100
0000
,
0010
0000
1000
0000
,
0100
0100
0200
0000
,
0310
0000
0001
0000
,
0100
0100
0200
0000
,
0310
0000
1000
0000
,
0100
0000
0010
0001
,
0010
0000
0100
0000
,
0001
0000
0100
1000
,
0100
0000
1000
0000
,
0010
0000
0100
0001
,
0100
0000
0010
0000
,
0001
0010
1000
0010
,
1010
0000
1100
0000
,
0100
1000
0001
0000
,
0001
0100
0010
0000
,
0010
1000
1000
0001
,
0010
0000
0101
0000
,
0100
0001
1000
0000
,
1000
0100
0010
0000
,
0010
0001
1000
1000
,
0001
0000
0100
0000
,
0000
0000
1000
1000
,
0001
0000
0010
0000
,
0100
0000
0010
0000
,
1000
0000
0100
0000
,
0000
0000
0001
0001
,
1000
0000
0010
0000
,
0001
0000
0010
0000
,
0200
0000
0000
0000
,
1300
0000
0001
0000
,
0100
0001
1000
0000
,
0010
0100
0001
0000
,
0010
0100
1000
1000
,
0001
0000
1000
0000
,
0100
1000
0001
0000
,
0100
0010
1000
0000
,
0100
0010
0001
0001
,
0100
0010
1000
0000
,
0010
0100
0001
0000
,
0010
0001
0100
0000
,
0010
1000
0100
0000
,
0100
0010
0001
0000
,
0010
0100
1000
0000
,
0010
1000
0100
0000
,
0010
0001
0100
0000
,
0001
1000
0001
1000
,
0001
0010
0001
0010
,
0001
0100
0010
0000
,
0010
0100
0001
0000
,
1000
0001
1000
0001
,
1000
0010
1000
0010
,
1000
0100
0010
0000
,
0001
0100
0010
0000
,
1000
0001
1000
0001
,
0010
0100
0010
0100
,
1000
0010
0100
0001
,
0010
0100
1000
0000
,
0001
1000
0001
1000
,
0010
0100
0010
0100
,
0001
0100
1000
0100
,
0001
0010
1000
0010
,
0001
0000
1000
0000
,
0010
0000
0001
0000
,
0100
0000
1000
0000
,
0010
0000
0100
0000
,
1001
0000
0000
0000
;

//---------------dance-single - ----------------
#NOTES:
     dance-single:
     :
     Beginner:
     2:
     0.179,0.239,0.070,0.000,0.000:
0000
0000
0000
0000
,
0000
0000
0000
0000
,
0000
0000
0000
0000
,
0000
0000
0000
0000
,
1000
0000
0000
0000
,
0000
0000
0000
0000
,
0001
0000
0000
0000
,
0000
0000
0000
0000
,
0100
0000
0000
0000
,
0010
0000
0000
0000
,
1000
0000
0000
0000
,
0001
0000
0000
0000
,
0010
0000
0000
0000
,
0100
0000
0100
0000
,
0010
0000
0000
0000
,
0001
0000
0001
0000
,
1000
0000
0001
0000
,
0100
0000
0010
0000
,
0001
0000
0010
0000
,
1000
0000
0001
0001
,
0001
0000
1000
0000
,
0100
0000
0010
0000
,
1000
0000
0010
0000
,
0001
0000
1000
1000
,
1000
0000
0001
0000
,
0100
0000
1000
0000
,
0001
0000
0010
0000
,
1000
1000
1000
0000
,
0001
0000
1000
0000
,
0100
0000
0001
0000
,
1000
0000
0010
0000
,
0001
0000
1000
1000
,
1000
0000
0000
0000
,
0000
0000
0110
0000
,
0010
0000
1000
0000
,
0001
0000
1000
0000
,
0001
0000
0001
0000
,
0000
0000
0110
0000
,
0010
0000
0001
0000
,
1000
0000
0001
0000
,
0100
0000
0000
0000
,
1001
0000
1000
0000
,
0100
0000
0010
0000
,
0001
0001
0001
0000
,
1000
1000
1000
0000
,
1001
0000
0100
0000
,
0010
0000
1000
0000
,
0100
0100
0100
0000
,
0010
0010
0010
0000
,
0110
0000
1000
0000
,
0110
0000
0001
0000
,
0100
0100
0100
0000
,
0010
0010
0010
0000
,
1000
0000
0001
0000
,
1001
0000
0010
0000
,
1001
0000
0100
0000
,
1001
0000
0010
0000
,
0100
0100
0100
0000
,
1000
0000
0010
0000
,
0100
0100
0100
0000
,
0010
0010
0010
0000
,
0100
0100
0100
0000
,
0001
0000
0010
0000
,
0100
0100
0100
0000
,
0010
0010
0010
0000
,
1000
1000
1000
0000
,
0100
0100
0100
0000
,
0001
0001
0001
0000
,
1000
1000
1000
0000
,
0001
0001
0001
0000
,
0010
0010
0010
0000
,
1000
1000
1000
0000
,
0001
0001
0001
0001
,
0001
0000
0000
0000
,
0010
0000
0000
0000
,
0100
0000
0000
0000
,
1000
0000
0010
0000
,
0001
0000
0000
0000
;
