#TITLE:Vertex;
#SUBTITLE:(Stage1);
#ARTIST:並木 学;
#TITLETRANSLIT:;
#SUBTITLETRANSLIT:;
#ARTISTTRANSLIT:Manabu Namiki;
#CREDIT:Kewing;
#BANNER:VERTEX (Stage1) BANNER.png;
#BACKGROUND:VERTEX (Stage1) BG.png;
#LYRICSPATH:;
#CDTITLE:!Kewing v3 (cdtitle).png;
#MUSIC:Vertex (Stage1).ogg;
#OFFSET:-0.561;
#SAMPLESTART:44.493;
#SAMPLELENGTH:13.580;
#SELECTABLE:YES;
#BPMS:0.000=142.000,31.500=35.500,31.625=48.000,31.750=64.000,31.875=87.000,32.000=113.000,32.125=143.420,32.250=177.440,32.375=200.060,32.500=234.080,32.625=265.400,32.750=299.640,32.875=323.900,33.000=345.031,34.000=71.000,35.000=142.000,98.000=71.000,100.000=142.000;
#STOPS:50.000=0.215
,65.500=0.215
;
#BGCHANGES:;
#DISPLAYBPM:142.000;

//---------------dance-single - ----------------
#NOTES:
     dance-single:
     :
     Hard:
     8:
     0.500,0.495,0.036,0.048,0.279:
0000
0000
0000
0000
,
0000
0000
0000
0000
,
0000
0000
0000
0000
,
0000
0000
0000
0000
,
0010
1000
0010
1000
,
0010
0100
0010
0000
0001
0010
0100
0000
,
0001
1000
0100
0010
0100
0000
0001
0100
,
0010
0001
1000
0010
0100
0001
0001
0001
,
0000
0000
0000
0000
0000
0000
0000
0000
0000
0000
0000
0000
0110
0000
0000
0100
,
0000
0000
0001
0000
0020
0000
0000
0000
1030
0000
0000
0000
0010
0000
0000
0100
,
0000
0000
1000
0000
0020
0000
0000
0000
0031
0000
0000
0000
0010
0000
0000
0100
,
0000
0000
0001
0000
0020
0000
0000
0000
1030
0000
0000
0000
0001
0000
0000
0100
,
0000
0000
1000
0000
0010
0000
0100
0000
0001
0000
0001
0000
0000
0010
0000
0000
,
0100
0000
0001
0000
0100
0000
1000
0000
0000
0000
1000
0000
0000
0010
0000
0000
,
0100
0001
0000
1000
0100
0000
0010
0000
0000
0000
0001
0000
0000
0100
0000
0000
,
0010
0000
0001
0000
0010
0000
1000
0000
0000
0001
0000
1000
0100
0000
0010
0000
,
0001
0000
0100
0000
0010
0000
1001
0000
0100
0000
0000
0010
0000
0000
0001
0000
,
0000
0100
0001
0000
0010
0000
0000
0000
0010
0000
0000
0100
0000
0000
1000
0000
,
0000
0010
1000
0000
0100
0000
0000
0000
0100
0000
1000
0000
0001
0100
0000
0000
,
0010
0000
1000
0000
0001
0010
0000
0000
0100
0000
1000
0000
0010
0100
0000
0000
,
0010
0000
1000
0000
0100
0010
0000
0000
0100
0000
0000
0010
0001
0000
0100
0000
,
0000
1000
0100
0000
0001
0000
0000
0000
0100
0000
0000
0010
1000
0000
0100
0000
,
0000
0001
0100
0000
1000
0000
0000
0000
0010
0000
0100
0000
0001
1000
0000
0001
,
1000
0000
0100
0000
0010
0001
0000
1000
0001
0000
0100
0000
0010
1000
0000
0001
,
1000
0000
0100
0000
0010
0001
0000
0000
0002
0000
0000
0000
0000
0000
0003
0000
,
0001
0000
0010
0000
0100
0000
1000
0000
0010
0000
0100
0000
0010
0000
1000
0010
,
1000
0000
0001
0000
0010
0000
0100
0000
0000
0010
0001
0000
1000
0000
0010
0000
,
1000
0100
0010
0001
0100
0001
0010
0001
,
1000
0000
0010
0000
0100
0000
0001
0000
0000
0010
0100
0000
1000
0000
0001
0000
,
0100
0010
1000
0100
1000
0001
1000
0010
,
1000
0000
0001
0000
0010
0000
0100
0000
0000
0010
0001
0000
1000
0000
0001
0000
,
0100
0010
1000
0010
0001
0010
1000
0001
,
0010
0000
0100
0000
1000
0000
0010
0100
0010
0000
0000
0010
0000
0000
0010
0000
,
1000
0000
0010
0000
0100
0000
0001
0000
0010
0000
1000
0000
0010
0000
0001
0010
,
0001
0000
1000
0000
0010
0000
0100
0001
0000
1000
0001
0000
0100
0000
0001
0000
,
0010
0100
0001
0100
1000
0100
0001
0100
,
0010
0000
0001
0000
0100
0000
0010
0000
0000
1000
0001
0000
0100
0000
0001
0000
,
0010
0100
1000
0010
0001
0010
0100
0001
,
1000
0000
0001
0000
0010
0000
0100
1000
0000
0001
1000
0000
0010
0000
0100
0000
,
0001
1000
0100
0001
0100
0010
0100
1000
,
0010
0000
0100
0000
0001
0000
0010
0100
0010
0000
0000
0010
0000
0000
0010
0000
,
0001
1000
0001
0100
,
0010
0000
0010
0000
0100
0000
0100
0000
0001
1000
0001
1000
0001
0000
0010
0000
,
0110
0000
0000
0000
;

//---------------dance-single - ----------------
#NOTES:
     dance-single:
     :
     Medium:
     7:
     0.400,0.391,0.133,0.061,0.061:
0000
0000
0000
0000
,
0000
0000
0000
0000
,
0000
0000
0000
0000
,
0000
0000
0000
0000
,
0010
1000
0010
1000
,
0010
0000
0001
0000
0010
0100
0010
0000
,
1000
0000
0100
0000
0001
0100
0010
0000
,
0001
0010
0100
1000
0010
1000
0001
0001
,
0000
0000
0000
0000
0000
0000
0000
0000
0000
0000
0000
0000
0011
0000
0000
0010
,
0000
0000
0100
0000
0200
0000
0000
0000
0300
0000
0000
0000
1000
0000
0000
0010
,
0000
0000
0100
0000
0200
0000
0000
0000
0300
0000
0000
0000
0010
0000
0000
1000
,
0000
0000
0100
0000
0200
0000
0000
0000
0300
0000
0000
0000
0010
0000
0000
0001
,
0000
0100
0200
0000
0310
0010
0000
0100
,
0001
0010
0000
0100
0000
1000
0000
0010
,
1000
0001
1000
0100
0000
0010
0000
0001
,
0010
1000
0000
0010
0000
0100
0000
1000
,
0010
0000
0100
0000
0001
0000
1001
0000
0001
0000
0000
1000
0000
0000
0100
0000
,
0000
0000
0001
0000
0100
0000
0000
0000
1000
0000
0000
0001
0000
0000
0100
0000
,
0000
1000
0100
0000
0100
0010
1000
0000
,
0100
0010
0001
0000
0010
0100
1000
0000
,
0010
0000
0100
0000
0001
0000
0000
0000
0001
0000
0000
0010
0000
0000
0100
0000
,
0000
0000
1000
0000
1010
0000
0000
0000
1000
0000
0000
0010
0000
0000
0100
0000
,
0000
0001
0011
0000
0100
1000
0010
0000
,
0001
0010
0100
0000
0100
0001
0010
0000
,
1000
0010
0100
1000
0002
0000
0000
0003
,
0001
0000
1000
0100
0010
0000
0001
0100
,
0010
1000
0001
0010
0000
0001
1000
0000
,
0001
0110
0110
0101
,
0001
1000
0001
0010
0000
0100
1000
0010
,
1000
0000
0100
0010
0000
0001
1000
0001
,
0100
0000
0010
0000
1000
0001
0010
0000
,
0100
0000
1000
0001
0000
0001
1000
0010
,
0100
0000
0000
0000
0001
0000
0010
0000
0100
0000
0000
0100
0000
0000
0100
0000
,
1000
0000
0001
0100
0010
0000
1000
0100
,
0010
0001
0100
0010
0000
1000
0001
0001
,
0010
0110
0110
1100
,
1000
0010
1000
0100
0000
0010
1000
0010
,
0001
0000
0010
0100
1000
0001
0100
0010
,
0000
0001
0010
0100
0000
0001
1000
0000
,
0100
0000
0100
1000
0010
0100
0001
0010
,
0100
0000
0000
0000
1000
0000
0010
0000
0100
0000
0000
0100
0000
0000
0100
0000
,
0001
0100
0010
1000
,
0001
1000
0001
1000
0100
0010
0001
1000
,
0110
0000
0000
0000
;

//---------------dance-single - ----------------
#NOTES:
     dance-single:
     :
     Easy:
     5:
     0.296,0.313,0.048,0.158,0.000: // measure 1
0000
0000
0000
0000
,  // measure 2
0000
0000
0000
0000
,  // measure 3
0000
0000
0000
0000
,  // measure 4
0000
0000
0000
0000
,  // measure 5
0010
0000
1000
0000
,  // measure 6
0010
0100
0010
0000
,  // measure 7
0001
0010
0100
0010
,  // measure 8
1000
0000
0100
0000
0010
0010
0001
0001
,  // measure 9
0000
0000
0000
0200
,  // measure 10
0310
2000
3000
0200
,  // measure 11
0310
0002
0003
0020
,  // measure 12
0031
0200
0300
0020
,  // measure 13
1030
0000
0200
0000
0310
0001
0000
0010
,  // measure 14
0000
1000
0000
0000
0000
0010
0000
0100
,  // measure 15
0000
1000
0001
1000
0000
0001
0000
0100
,  // measure 16
0000
1000
0000
0100
0000
0001
0000
0010
,  // measure 17
0000
0100
0000
1001
0001
0000
0100
0000
,  // measure 18
0000
0010
0010
0000
1000
0000
0100
0000
,  // measure 19
0000
0010
0010
0000
0001
0000
0001
0000
,  // measure 20
1000
1000
0001
0100
,  // measure 21
1000
0100
0010
1000
,  // measure 22
0000
0001
0010
0000
0100
0000
1000
0000
,  // measure 23
0000
0001
0100
0000
0010
0000
0010
0000
,  // measure 24
0100
0100
0001
0010
,  // measure 25
1000
0000
0100
0000
0002
0000
0000
0003
,  // measure 26
0001
0100
0010
0100
,  // measure 27
0010
1000
0001
0000
0020
0000
0000
0000
,  // measure 28
0130
1000
1000
0010
,  // measure 29
0100
0000
0001
0001
0000
1000
1000
0000
,  // measure 30
0100
0001
0100
1000
,  // measure 31
0020
0000
0000
0000
0000
0100
0130
0000
,  // measure 32
0001
0100
0001
0010
,  // measure 33
0100
0000
1000
0001
0100
0000
0010
0000
,  // measure 34
1000
0100
0001
0100
,  // measure 35
0010
0001
1000
0000
0020
0000
0000
0000
,  // measure 36
0130
0001
0001
0010
,  // measure 37
0100
0000
1000
0001
0000
0100
0010
0000
,  // measure 38
1000
0001
0010
1000
,  // measure 39
0200
0000
0000
0000
0000
0010
0310
0000
,  // measure 40
1000
0010
0001
0010
,  // measure 41
0100
0000
0001
0010
0100
0000
1000
0010
,  // measure 42
0100
0010
0100
0010
,  // measure 43
1001
0000
0110
0000
0010
0001
0100
0000
,  // measure 44
0110
0000
0000
0000
;

//---------------dance-single - ----------------
#NOTES:
     dance-single:
     :
     Beginner:
     2:
     0.170,0.208,0.097,0.000,0.000:
0000
0000
0000
0000
,
0000
0000
0000
0000
,
0000
0000
0000
0000
,
0000
0000
0000
0000
,
0010
0000
0000
0000
,
1000
0000
0000
0000
,
0010
0000
0001
0000
,
0010
0000
1000
1000
,
0000
0000
0000
0010
,
0000
0000
0000
1000
,
0000
0000
0000
0100
,
0000
0000
0000
0010
,
0000
0000
0010
0000
0010
0000
0000
0001
,
0000
0001
0000
0000
0000
1000
0000
0000
,
0000
1000
0000
1000
0000
1000
0000
0000
,
0000
0001
0000
0000
0000
0100
0000
0000
,
0000
0010
0000
0010
0000
0000
0100
0000
,
0000
1001
0000
0100
,
0000
1001
0000
0010
,
0010
0010
0000
0100
,
0100
0100
0000
1000
,
0000
0110
0000
0001
,
0000
0110
0000
1000
,
1000
1000
0000
0001
,
0001
0001
0001
0000
,
0001
0000
0100
0000
,
1000
1000
1000
0000
,
0100
0000
0010
0000
,
0100
0100
0100
0000
,
0001
0000
0010
0010
,
0010
0000
0000
0100
,
0000
0001
0000
0100
,
0000
1000
1000
1000
,
1000
0000
0010
0000
,
0001
0001
0001
0000
,
0010
0000
0100
0000
,
0010
0010
0010
0000
,
0100
0000
1000
0000
,
0100
0000
0001
0001
,
0001
0000
0010
0000
,
1000
0000
0100
0100
,
0100
0000
0010
0000
,
0110
0000
1001
1001
,
1001
0000
0000
0000
;
