#TITLE:VOLCANO VALLEY ZONE Act 2;
#SUBTITLE:[Sonic 3D Blast];
#ARTIST:SONIC TEAM;
#TITLETRANSLIT:;
#SUBTITLETRANSLIT:;
#ARTISTTRANSLIT:;
#CREDIT:Kewing DarkSun;
#BANNER:VOLCANO VALLEY ZONE Act 2.png;
#BACKGROUND:VOLCANO VALLEY ZONE Act 2-bg.png;
#LYRICSPATH:;
#CDTITLE:!Kewing DarkSun (cdtitle).png;
#MUSIC:07_-_Volcano_Valley_Act_1.mp3;
#OFFSET:-1.960;
#SAMPLESTART:47.640;
#SAMPLELENGTH:15.280;
#SELECTABLE:YES;
#BPMS:0.000=126.000;
#STOPS:;
#BGCHANGES:;

//---------------dance-single - Light----------------
#NOTES:
     dance-single:
     Light:
     Easy:
     3:
     0.205,0.217,0.060,0.000,0.000:
1000
0000
1000
0000
,
0001
0000
0001
0000
,
0100
0000
0010
0000
,
0100
0000
0001
0001
,
0001
0000
0001
0000
,
1000
0000
1000
0000
,
0100
0100
0100
0000
,
0010
0100
0010
0100
,
1001
0000
0000
1000
,
0000
0100
0010
0010
,
0001
0000
0100
0000
,
0010
0000
1000
1000
,
0001
0000
0000
1000
,
0000
0100
0010
0010
,
0001
0000
0100
0000
,
0010
0100
0010
0100
,
1001
0000
0000
1000
,
0000
0001
0010
0001
,
0010
0000
0100
0000
,
1000
0000
0001
1000
,
0001
0000
0000
0001
,
0000
1000
0010
1000
,
0010
0000
0100
0000
,
0100
0010
0100
0010
,
1001
1000
0000
0001
,
0010
0001
0000
0010
,
0001
0010
0000
0001
,
0010
0001
0100
0010
,
1000
0010
0000
0100
,
0010
0100
0000
0001
,
1000
0001
1000
0000
,
0001
0010
0100
1000
,
1001
0001
0000
1000
,
0010
1000
0000
0010
,
1000
0010
0000
1000
,
0010
1000
0100
0010
,
0001
0010
0000
0100
,
0010
0100
0000
1000
,
0001
1000
0010
0100
,
0001
1001
0000
0000
,
0100
0000
0000
0000
;

//---------------dance-single - Standard----------------
#NOTES:
     dance-single:
     Standard:
     Medium:
     6:
     0.341,0.361,0.120,0.277,0.000:
1000
0001
0200
0000
,
0320
0000
0230
0000
,
0301
0010
0200
0000
,
0310
0001
0100
0010
,
1000
0001
0020
0000
,
0230
0000
0320
0000
,
0031
0100
0020
0000
,
0130
0001
0010
0100
,
1000
0000
0000
0100
0000
0000
1000
0000
,
0000
0010
0000
0010
0000
0100
0010
0100
,
0001
0000
0000
1000
0000
0000
0100
0000
,
0000
0010
0000
0001
0000
0001
0000
1000
,
0001
0000
0000
0100
0000
0000
0001
0000
,
0000
0010
0000
0010
0000
0100
0010
0100
,
1000
0000
0000
0001
0000
0000
0100
0000
,
0010
0000
1000
0000
0010
1000
0001
0100
,
0101
0000
0000
0001
0000
0000
0010
0000
,
0000
0100
0000
0100
0000
1000
0100
0010
,
0001
0000
0000
0001
0000
0000
0100
0000
,
0000
0010
0000
1000
0000
0100
1100
0000
,
1001
0000
0000
1000
0000
0000
0010
0000
,
0000
0100
0000
0100
0000
0001
0100
0010
,
1000
0000
0000
1000
0000
0000
0100
0000
,
0010
0000
0001
0000
0010
0001
1000
0100
,
1100
0000
0000
2000
0000
3001
0001
0000
,
0101
0000
0000
0002
0000
0013
0010
0000
,
0110
0000
0000
0020
0000
0130
0100
0000
,
1001
0000
1000
0000
0001
0000
0100
0010
,
1000
0000
0000
2000
0000
3100
0010
0000
,
0011
0000
0000
0002
0000
0103
0010
0000
,
1001
0000
0001
0010
0000
0100
1000
0000
,
0001
0100
1000
0010
,
0002
0000
0000
0203
0000
0301
1000
0100
,
2000
0000
0000
3020
0000
1030
0001
0010
,
0002
0000
0000
0203
0000
0310
1000
0001
,
1000
0000
0001
0000
0100
0010
1000
0001
,
2000
0000
0000
3200
0000
1300
0001
0100
,
0002
0000
0000
0023
0000
0031
1000
0010
,
1000
0000
0001
0000
0010
0100
1000
0010
,
0100
0001
0010
0000
0100
0000
0010
0000
,
1001
0000
0000
0000
;

//---------------dance-single - Heavy----------------
#NOTES:
     dance-single:
     Heavy:
     Hard:
     8:
     0.469,0.433,0.289,0.000,0.229:
0001
0100
1000
0001
,
0010
0001
0010
0001
0100
0001
0100
0010
,
1000
0000
0000
0001
0000
0000
1000
0000
0000
0000
0100
0000
0010
0000
0100
0000
,
0000
0000
0000
0000
1000
0000
0000
0000
0010
0000
0000
0000
0100
0010
0100
0000
,
1000
0100
0001
1000
,
0010
1000
0010
0000
0010
1000
0100
0010
,
0001
0000
0000
1000
0000
0000
0001
0000
0000
0000
0000
0000
0100
0010
0100
0000
,
0000
0001
0000
0010
0100
0000
0000
1000
0001
0000
0000
0100
0010
0000
0100
0000
,
0110
0000
0000
0010
0000
0000
1000
0000
0000
0000
0000
0000
0100
0000
0000
0000
,
0000
0010
0000
0100
1000
0001
1000
0100
,
0110
0000
0000
0100
0000
0000
1000
0000
0000
0000
0000
0000
0010
0000
0000
0000
,
0000
0100
0000
0100
0000
0001
0010
0100
,
0110
0000
0000
0010
0000
0000
0001
0000
0000
0000
0000
0000
0100
0000
0000
0000
,
0000
0010
0000
0100
0001
1000
0001
0100
,
0110
0000
0000
0100
0000
0000
0001
0000
0000
0000
0000
0000
0011
0000
0000
0000
,
1001
0000
0000
0000
1100
0000
0000
0000
0100
1000
0001
1000
0001
1000
0001
0000
,
0010
0000
0000
0001
0000
0000
0100
0000
0000
0000
0000
0000
0010
0000
0000
0000
,
0000
1000
0100
0010
0001
0100
0101
0100
,
0010
0000
0000
1000
0000
0000
0001
0000
0000
0000
0000
0000
1000
0000
0000
0000
,
0000
0000
0100
0000
0010
0000
0001
0000
0010
0000
0100
0010
0100
0000
1000
0000
,
0010
0000
0000
1000
0000
0000
0100
0000
0000
0000
0000
0000
0010
0000
0000
0000
,
0000
0001
0100
0010
1000
0100
1100
0100
,
0010
0000
0000
0001
0000
0000
1000
0000
0000
0000
0000
0000
1010
0000
0000
0000
,
1001
0000
0000
0000
0101
0000
0000
0000
0001
0010
0000
0100
0000
1000
0000
0000
,
1010
0000
0000
1000
0000
0000
0001
0000
0000
0000
0010
0001
0010
0000
0001
0000
,
1000
0010
0100
0001
1000
0100
0110
0010
,
0001
0000
0000
0100
0000
0000
0010
0000
0000
0000
1000
0001
1000
0000
0010
0000
,
1010
1100
0011
0101
,
1001
0000
0000
0100
0000
0000
0010
0000
0000
0000
0001
1000
0001
0000
0100
0000
,
0010
0000
0000
1000
0000
0000
0001
0000
1000
0000
0100
0000
0110
0000
0010
0000
,
0001
0000
0000
0010
0000
0000
0100
0000
0000
0000
1000
0001
1000
0000
0000
0000
,
1000
0001
1000
0010
1000
0100
0010
0001
,
0011
0000
0000
0001
0000
0000
1000
0000
0000
0000
0010
1000
0010
0000
1000
0000
,
0001
0010
0100
1000
0001
0100
0110
0010
,
1000
0000
0000
0100
0000
0000
0010
0000
0000
0000
0001
1000
0001
0000
0100
0000
,
0010
0000
0100
0001
0010
0100
1100
0100
,
0010
0000
0000
0001
0000
0000
1000
0000
0000
0000
1000
0001
1000
0000
0001
0000
,
0100
0010
1000
0100
1000
0001
0100
0001
,
0010
0100
1000
0010
0001
0010
1000
0001
,
0100
0010
1000
0100
0001
0100
1000
0001
,
1001
0000
0000
0000
;

//---------------dance-single - Beginner----------------
#NOTES:
     dance-single:
     Beginner:
     Beginner:
     2:
     0.179,0.189,0.217,0.000,0.000: // measure 1
1000
0000
1000
0000
,  // measure 2
0001
0000
0001
0000
,  // measure 3
1000
0000
1000
0000
,  // measure 4
0100
0000
0000
0000
,  // measure 5
0010
0000
0010
0000
,  // measure 6
0100
0000
0100
0000
,  // measure 7
0010
0000
0010
0000
,  // measure 8
0001
0000
0000
0000
,  // measure 9
1001
0000
1000
0000
,  // measure 10
0100
0000
1000
1000
,  // measure 11
1000
0000
0001
0000
,  // measure 12
0100
0000
0010
0000
,  // measure 13
0110
0000
0100
0000
,  // measure 14
0010
0000
1000
0000
,  // measure 15
0001
0000
0010
0000
,  // measure 16
0100
0100
0100
0000
,  // measure 17
1001
0000
0001
0000
,  // measure 18
0100
0000
0001
0001
,  // measure 19
0001
0000
1000
0000
,  // measure 20
0100
0000
0010
0000
,  // measure 21
0110
0000
0100
0000
,  // measure 22
0010
0000
0001
0001
,  // measure 23
0001
0000
0100
0000
,  // measure 24
0010
0010
0010
0000
,  // measure 25
1001
0000
0001
0000
,  // measure 26
1001
0000
0010
0000
,  // measure 27
1001
0000
0100
0000
,  // measure 28
1000
1000
1000
0000
,  // measure 29
1001
0000
1000
0000
,  // measure 30
1001
0000
0010
0000
,  // measure 31
1001
0000
0100
0000
,  // measure 32
0001
0001
0001
0000
,  // measure 33
1001
0000
1000
0000
,  // measure 34
0110
0000
0010
0000
,  // measure 35
1001
0000
0001
0000
,  // measure 36
0110
0000
0010
0000
,  // measure 37
1001
0000
0100
0000
,  // measure 38
0110
0000
0010
0000
,  // measure 39
1001
0000
0100
0100
,  // measure 40
0100
0110
0000
0000
;
