#TITLE:Time For Kill;
#SUBTITLE:story #6 [ F-ZERO GX ];
#ARTIST:庄司 英徳;
#TITLETRANSLIT:;
#SUBTITLETRANSLIT:;
#ARTISTTRANSLIT:Shoji, Hidenori;
#CREDIT:Kewing DarkSun;
#BANNER:Time For Kill.png;
#BACKGROUND:Time For Kill-bg.png;
#LYRICSPATH:;
#CDTITLE:!Kewing DarkSun (cdtitle).png;
#MUSIC:33 - Time For Kill (story #6).mp3;
#OFFSET:-0.592;
#SAMPLESTART:63.635;
#SAMPLELENGTH:14.100;
#SELECTABLE:YES;
#BPMS:0.000=137.000;
#STOPS:;
#BGCHANGES:;

//---------------dance-single - Heavy----------------
#NOTES:
     dance-single:
     Heavy:
     Hard:
     8:
     0.453,0.479,0.228,0.095,0.033:
0000
0000
0000
0000
,
0000
0000
0000
0000
,
0000
0000
0000
0000
,
0000
0000
0000
0000
,
1000
0010
1000
0000
0001
0100
0000
0000
,
0001
0010
0001
0000
1000
0100
0000
0000
,
1000
0001
1000
0000
0100
0010
0001
0010
,
0100
0000
1000
0000
0100
0000
0000
0010
0100
0000
1000
0000
0000
0000
0100
0000
,
1000
0100
1000
0000
0010
0100
0000
0100
,
0001
0100
0001
0000
0001
1000
0000
1000
,
0001
1000
0001
0000
0100
0010
1000
0010
,
0100
0000
0001
0000
0100
0000
0000
0010
0100
0000
0001
0000
0000
0000
0001
0000
,
2000
0000
0001
3002
0010
0010
0000
0100
,
0100
0000
1000
0000
0100
0100
0000
1000
,
1000
0000
0013
0000
0010
0001
0010
0100
,
1000
0000
0010
0000
1000
0000
0000
1000
0100
0000
0010
0000
0000
0000
1000
0000
,
0002
0000
1000
2003
0010
0010
0000
0100
,
0100
0000
0001
0000
0100
0100
0000
0001
,
0001
0000
3010
0000
0010
1000
0010
0100
,
0001
0000
0010
0000
0001
0000
0000
0001
0100
0000
0010
0000
0000
0000
0010
0000
,
1001
0000
0000
0011
0000
0000
0110
0000
,
0100
1000
0001
0000
1010
0000
0000
0000
,
0000
1100
0000
0000
0110
0000
0000
0101
,
0000
0100
0010
0000
0110
0000
0001
1000
,
1001
0000
0000
1010
0000
0000
0110
0000
,
0100
0001
1000
0000
0011
0000
0000
0000
,
0000
0101
0000
0000
0110
0000
0000
1100
,
0000
0100
0010
0000
0110
0010
1000
0001
,
1001
0000
1000
0100
0000
0001
0100
0000
,
0100
1000
0010
0000
0101
0000
0001
0000
,
0000
0001
0100
0000
1000
0000
0100
0001
,
0000
0010
0001
0000
1100
0000
0100
0010
,
1001
0000
0010
0000
0001
1000
0000
0000
,
1000
0000
0010
0000
1000
0001
0000
0000
,
0010
0010
0010
0010
0010
0010
0010
0010
,
0010
0000
0010
0000
0010
0000
0010
0000
0010
0000
0010
0000
0010
0000
0010
0001
,
0100
0010
0010
1000
0100
0100
0010
0001
,
0001
0100
1000
1000
0000
1000
0100
0001
,
0000
0001
0010
0010
0100
1000
1000
0010
,
0001
0001
0000
1001
0000
0001
0010
1000
,
0100
0010
0010
0001
0100
0100
0010
1000
,
1000
0100
0001
0001
0000
0001
0100
1000
,
0000
1000
0010
0010
0100
0001
0001
0010
,
1000
1000
0000
1001
0000
1000
0010
0001
,
0100
1000
0100
0001
0010
0100
1000
0010
,
0100
0010
1000
0100
0001
0100
1000
0001
,
0000
0100
0010
1000
0010
0001
0010
1000
,
0100
0010
0000
1001
0000
0100
0010
1000
,
0100
0001
0100
1000
0010
0100
0001
0010
,
0100
0010
0001
0100
1000
0100
0001
1000
,
0000
0100
0010
0001
0010
1000
0010
0001
,
0100
0010
0000
1001
0000
0100
0010
0001
,
0200
0000
0000
0320
0000
0000
0000
0030
,
0000
0000
0000
0020
0000
0000
0000
0030
,
0000
2000
0000
0000
3002
0000
0000
0000
,
0003
0000
0000
0000
0000
0000
0002
0000
0000
0000
1003
0000
0100
0010
0100
0010
,
0100
0000
0000
0000
;

//---------------dance-single - Beginner----------------
#NOTES:
     dance-single:
     Beginner:
     Beginner:
     2:
     0.167,0.239,0.048,0.000,0.000:
0000
0000
0000
0000
,
0000
0000
0000
0000
,
0000
0000
0000
0000
,
0000
0000
0000
0000
,
1000
0000
0100
0000
,
0001
0000
0100
0000
,
1000
0000
0001
0000
,
1000
1000
1000
0000
,
0001
0000
0100
0000
,
1000
0000
0100
0000
,
0001
0000
1000
0000
,
0001
0001
0001
0000
,
1001
0000
0100
0000
,
0000
0000
0000
0000
,
0000
0100
0000
0000
,
1000
1000
0000
0001
,
0001
0000
0100
0000
,
0000
0000
0000
0000
,
0000
0100
0000
0000
,
0001
0001
0000
0000
,
0110
0000
0000
1000
,
0000
1000
1000
0000
,
0010
0000
0001
0000
,
0010
0010
0010
0000
,
0100
0000
0000
0001
,
0000
0001
0001
0000
,
0010
0000
1000
0000
,
0010
0010
0010
0000
,
1001
0000
0000
0001
,
0000
1000
1000
0000
,
0010
0000
0001
0000
,
0100
0100
0100
0000
,
0100
0000
0010
0000
,
0000
0100
0000
0010
,
0000
0100
0100
0100
,
0100
0100
0100
0100
,
0110
0000
0001
0000
,
1000
0000
0001
0001
,
0000
0100
0100
0100
,
0100
0000
0001
0001
,
0001
0000
1000
0000
,
0001
0000
1000
1000
,
0000
0100
0100
0100
,
0100
0000
1000
1000
,
1000
0000
0010
0000
,
0100
0000
0001
0001
,
0000
0100
0100
0100
,
0100
0000
0010
0010
,
1000
0000
0100
0000
,
0010
0000
0001
0001
,
0000
0010
0010
0010
,
0010
0000
0100
0100
,
1000
0000
1000
0000
,
0000
0000
0010
0000
,
0100
0000
0100
0000
,
0000
0000
0010
0000
,
1001
0000
0000
0000
;

//---------------dance-single - ----------------
#NOTES:
     dance-single:
     :
     Medium:
     7:
     0.372,0.399,0.276,0.057,0.000:
0000
0000
0000
0000
,
0000
0000
0000
0000
,
0000
0000
0000
0000
,
0000
0000
0000
0000
,
1001
0000
0100
0000
0010
1000
0000
0000
,
1000
0000
0100
0000
0010
0001
0000
0000
,
0001
0000
0100
0000
0010
1000
0000
0100
,
0010
0000
0011
0000
1000
1010
0000
0000
,
1000
0000
1100
0000
0010
0001
0000
0000
,
0001
0000
0101
0000
0010
1000
0000
0000
,
1000
0000
1100
0000
0010
0001
0000
0100
,
0010
0000
1010
0000
0001
0011
0000
0000
,
0110
0000
1000
0000
0010
0100
0000
0001
,
1000
0000
0001
0000
0010
0100
0000
1000
,
0001
0000
0100
0000
0001
0010
0000
0100
,
1000
0000
0001
0000
1000
0010
0100
0000
,
0110
0000
0001
0000
0010
0100
0000
1000
,
0001
0000
1010
0000
0010
0100
0000
0001
,
1000
0000
1100
0000
1000
0010
0000
0100
,
0001
0000
1001
0000
0001
0010
0100
0000
,
0110
0000
0000
1000
0000
0000
0100
0000
,
0000
1000
0010
0000
0011
0000
0000
0000
,
0000
0010
0000
0000
0100
0000
0000
0001
,
0000
0001
0010
0000
1010
0000
0010
0000
,
0110
0000
0000
0001
0000
0000
0100
0000
,
0000
0001
0010
0000
1010
0000
0000
0000
,
0000
0010
0000
0000
0100
0000
0000
1000
,
0000
1000
0010
0000
0011
0000
0010
0100
,
0110
0000
0000
0010
0000
0000
0100
0000
,
0000
0001
0010
0000
1000
0000
0000
0000
,
0000
0100
0000
0000
0001
0000
0000
0010
,
0000
0001
1000
0000
0110
0000
0100
0000
,
1001
0001
0101
0000
,
0001
1000
1100
0000
,
0010
0000
0010
0000
0010
0100
0010
0100
,
0010
0100
0010
0100
0010
0100
0010
0001
,
0100
0001
1000
0000
1000
0010
0000
0010
,
0100
0000
0100
0001
0000
0010
0100
0010
,
0000
0001
1000
0001
0000
0001
0100
0000
,
0100
0010
0000
1001
0000
0100
0010
1000
,
0000
1000
0001
0000
0001
0010
0000
0010
,
0100
0000
0100
1000
0000
0010
0100
0010
,
0000
1000
0001
1000
0000
1000
0100
0000
,
0100
0010
0000
1001
0000
0100
0010
0001
,
1000
0010
1000
0000
1000
0100
0000
0100
,
0001
0000
0001
0100
0000
0100
1000
0010
,
0000
0010
1000
0001
0100
0001
0010
0100
,
0010
0001
0000
1001
0000
0100
0010
1000
,
0001
0010
0001
0000
0001
0100
0000
0100
,
1000
0000
1000
0100
0000
0100
0001
0010
,
0000
0010
0001
1000
0100
1000
0010
0100
,
0010
1000
0000
1001
0000
0100
0010
0001
,
2000
0000
0000
3002
0000
0000
0000
0003
,
0000
0000
0000
0002
0000
0000
0000
0003
,
0000
0200
0000
0000
0320
0000
0000
0000
,
0030
0000
0000
0020
0000
1030
0100
0010
,
0110
0000
0000
0000
;

//---------------dance-single - ----------------
#NOTES:
     dance-single:
     :
     Easy:
     4:
     0.262,0.266,0.076,0.133,0.000:
0000
0000
0000
0000
,
0000
0000
0000
0000
,
0000
0000
0000
0000
,
0000
0000
0000
0000
,
1001
0010
1000
0000
,
0010
0100
0001
0000
,
1000
0100
0010
0001
,
0010
0100
0010
0000
,
0001
0010
0001
0000
,
0010
0100
1000
0000
,
0001
0100
0010
1000
,
0010
0100
0010
1000
,
2000
0000
0000
3002
0000
0000
0000
0000
,
1000
1000
1000
0000
,
0010
0013
0010
0001
,
0100
0010
1000
0001
,
0002
0000
0000
2003
0000
0000
0000
0000
,
0001
0001
0001
0000
,
0010
3010
0010
1000
,
0100
0010
0001
0100
,
1001
0000
0100
0000
,
1000
0001
0001
0000
,
0010
0000
1000
0000
,
0001
1000
1000
0100
,
1001
0000
0100
0000
,
0001
1000
1000
0000
,
0010
0000
0001
0000
,
1000
0001
0001
0100
,
1001
0000
0100
0000
,
0001
0010
0100
0000
,
1000
0000
0010
0000
,
0001
0010
1000
0100
,
0110
0000
0110
0000
,
0100
0000
0110
0000
,
0010
0010
0010
0010
,
0010
0000
0010
0000
0010
0000
0010
0001
,
0100
0001
0010
0001
,
0100
0000
0010
0000
1000
0000
0100
0100
,
0000
0100
1000
0010
,
0100
0000
0000
0002
0000
0000
0013
0000
,
0100
1000
0010
1000
,
0100
0000
0010
0000
0001
0000
0100
0100
,
0000
0100
0001
0010
,
0100
0000
0000
2000
0000
0000
3001
0000
,
1000
0100
0010
0100
,
0001
0000
0100
0000
1000
0000
0001
0001
,
0000
1000
0010
0000
0001
0000
0010
0000
,
1000
1000
0000
0200
0000
0000
0310
0000
,
0001
0100
0010
0100
,
1000
0000
0100
0000
0001
0000
1000
1000
,
0000
0001
0010
0000
1000
0000
0010
0000
,
0001
0001
0000
0200
0000
0000
0310
0000
,
2000
0000
0000
3002
0000
0000
0000
0003
,
0000
0000
0000
0002
0000
0000
0000
0003
,
0000
0020
0000
0000
0230
0000
0000
0000
,
0300
0000
0000
0200
0000
0000
0310
0000
,
0110
0000
0000
0000
;

//---------------dance-double - ----------------
#NOTES:
     dance-double:
     :
     Hard:
     8:
     0.478,0.505,0.219,0.095,0.105: // measure 1
00000000
00000000
00000000
00000000
,  // measure 2
00000000
00000000
00000000
00000000
,  // measure 3
00000000
00000000
00000000
00000000
,  // measure 4
00000000
00000000
00000000
00000000
,  // measure 5
00010000
00000000
01000000
00000000
00100000
00000000
01000000
00001000
01000000
00000000
00010000
00000000
00010000
00000000
00000000
00000000
,  // measure 6
00100000
00000000
00001000
00000000
00010000
00000000
00000010
00001000
00000010
00000000
00010000
00000000
00010000
00000000
00000000
00000000
,  // measure 7
00001000
00000000
00000100
00000000
00000001
00000000
00000100
00000010
00000100
00000000
00000001
00000000
00001001
00000000
00000000
00000000
,  // measure 8
00001000
00000000
00000100
00000000
00001000
00000000
00000010
00001000
00000010
00000000
00000010
00000000
00010000
00000000
00010000
00000000
,  // measure 9
00001000
00000000
00100000
00000000
01000000
00000000
00100000
00010000
00100000
00000000
00001000
00000000
00001000
00000000
00000000
00000000
,  // measure 10
00010000
00000000
00100000
00000000
10000000
00000000
00100000
01000000
00100000
00000000
10000000
00000000
10000000
00000000
00000000
00000000
,  // measure 11
01000000
00000000
00100000
00000000
00001000
00000000
00100000
01000000
00100000
00000000
00010000
00000000
01010000
00000000
00000000
00000000
,  // measure 12
01000000
00000000
00001000
00000000
00010000
00000000
00001000
00100000
00001000
00000000
00010000
00000000
00000000
00000010
00000000
00001000
,  // measure 13
00000100
00000001
00000100
00001000
00000010
00000100
00000010
00000000
,  // measure 14
00010000
00000000
00001000
00000000
00100000
00000000
00000000
00100000
00010000
00000000
01000000
00000000
01000000
00000000
00000000
00010000
,  // measure 15
10000000
00000000
01000000
00000000
00100000
00000000
00000000
00100000
00001000
00000000
00010000
00000000
00000010
00000000
00000000
00000000
,  // measure 16
00000100
00000000
00000001
00000000
00001000
00000000
00000100
00000010
00000100
00000000
00010000
00000000
00010000
00000000
00010000
00000000
,  // measure 17
00001000
01000000
00010000
10000000
01000000
00010000
00001000
00000000
,  // measure 18
00010000
00000000
00100000
00000000
01000000
00000000
00000000
01000000
00001000
00000000
00010000
00000000
00000100
00000000
00000000
00001000
,  // measure 19
00000010
00000000
00000001
00000000
00000010
00000000
00000000
00000010
00010000
00000000
00001000
00000000
00100000
00000000
00000000
00000000
,  // measure 20
00010000
00000000
01000000
00000000
00000000
00000000
10010000
00000000
10010000
00000000
00000000
00000000
10000000
01000000
10000000
01000000
,  // measure 21
10000000
00100000
01000000
00001000
00000000
00001000
00010000
00000000
,  // measure 22
00000100
00001000
00000001
00000100
00000010
00000000
00000101
00000000
,  // measure 23
00000000
00001000
00000100
00010000
00001000
00000000
00001000
01000000
,  // measure 24
00000000
00100000
10000000
00000000
11000000
00000000
00101000
00000000
,  // measure 25
00001000
00010000
00100000
00010000
00000000
00010000
00000010
00000000
,  // measure 26
00001000
00000100
00000001
00000100
00001000
00000000
00001010
00000000
,  // measure 27
00000000
00000010
00010000
00001000
00100000
00000000
00100000
01000000
,  // measure 28
00000000
10000000
00010000
00000000
01010000
00000000
01100000
00000000
,  // measure 29
00100000
10000000
01000000
00010000
00000000
00010000
00001000
00000000
,  // measure 30
00000010
00000001
00000100
00000010
00001000
00000000
00001100
00000000
,  // measure 31
00000000
00000100
00010000
00001000
00000100
00000000
00000100
00001000
,  // measure 32
00000000
00010000
00100000
00000000
00011000
00000000
00101000
00000000
,  // measure 33
00100000
01000000
10000000
01000000
00000000
01000000
00010000
00000000
,  // measure 34
00001000
00000010
00001000
00010000
00100000
00000000
00011000
00000000
,  // measure 35
00010000
00001000
00010000
00001000
01000000
00100000
01000000
00100000
,  // measure 36
00010000
00000000
00001000
00000000
00010000
00000000
00001000
00000000
00000100
00000000
00000010
00000000
00000100
00000000
00000010
00001000
,  // measure 37
00000001
00000010
00000100
00000000
01000000
00100000
00000000
10000000
,  // measure 38
01000000
00000000
00001000
00000100
00000000
00100000
00010000
01000000
,  // measure 39
00000000
00000000
00000100
00001000
00000000
01000000
00100000
00000000
,  // measure 40
00000010
00000100
00000000
00001001
00000000
00000001
00001000
00000001
,  // measure 41
00000000
00000100
00010000
00000000
10000000
01000000
00000000
00100000
,  // measure 42
00000010
00000000
00001000
00000100
00000000
01000000
00100000
01000000
,  // measure 43
00000000
00000000
00010000
00100000
00000000
00000010
00000100
00000000
,  // measure 44
00010000
01000000
00000000
01100000
00000000
00100000
01000000
00100000
,  // measure 45
00000000
10000000
01000000
00000000
00000010
00000100
00000000
00100000
,  // measure 46
00010000
00000000
01000000
00000100
00000000
00010000
00001000
00010000
,  // measure 47
00000000
00000000
00000010
00000100
00000000
00100000
10000000
00000000
,  // measure 48
00001000
00000010
00000000
00000011
00000000
00000001
00000010
00000001
,  // measure 49
00000000
00000100
00001000
00000000
10000000
01000000
00000000
00010000
,  // measure 50
00000010
00000000
00100000
01000000
00000000
10000000
00100000
01000000
,  // measure 51
00000000
00000000
00000100
00001000
00000000
01000000
00100000
00000000
,  // measure 52
00000010
00000100
00000000
00001001
00000000
00000001
00001000
00000001
,  // measure 53
00000202
00000000
00000303
00022000
00000000
00033000
00000000
00000000
,  // measure 54
00000000
00000000
00000000
22000000
00000000
33000000
00000000
00000000
,  // measure 55
00000000
00002020
00000000
00003030
00220000
00000000
00330000
00000000
,  // measure 56
00000000
00000000
00000000
00000000
00000000
00000000
00000001
00000000
00000000
00000000
00001000
00000000
00000100
00001000
00000001
00000100
,  // measure 57
00000010
00000000
00000000
00000000
;
