#TITLE:Tidal Tempest "B" Mix;
#SUBTITLE:[Sonic The Hedgehog CD];
#ARTIST:幡谷 尚史 & 雅史 尾形;
#TITLETRANSLIT:;
#SUBTITLETRANSLIT:;
#ARTISTTRANSLIT:Hataya, Naofumi & Ogata, Masafumi;
#CREDIT:Kewing DarkSun;
#BANNER:Tidal Tempest 'B' Mix.png;
#BACKGROUND:Tidal Tempest 'B' Mix-bg.png;
#LYRICSPATH:;
#CDTITLE:!Kewing DarkSun (cdtitle).png;
#MUSIC:11 - Tidal Tempest B Mix (Edited) .mp3;
#OFFSET:-0.082;
#SAMPLESTART:6.956;
#SAMPLELENGTH:13.730;
#SELECTABLE:YES;
#BPMS:0.000=140.060;
#STOPS:;
#BGCHANGES:;

//---------------dance-single - Light----------------
#NOTES:
     dance-single:
     Light:
     Easy:
     4:
     0.335,0.367,0.181,0.258,0.000:
0000
0000
0000
0000
,
0000
0000
0000
0000
,
1000
0100
0001
0100
,
1000
0000
0010
0100
,
1001
0100
0020
0000
,
0031
0100
0020
1030
,
1000
0010
0200
0000
,
0301
0010
0200
1300
,
0001
0100
0020
0000
,
1030
0100
0020
0031
,
0001
0010
0200
0000
,
1300
0010
0200
0301
,
0002
0000
0000
0203
,
0320
0000
0130
0001
,
0020
0000
1000
0000
,
1030
0000
0010
0100
,
2001
0000
0000
3200
,
0320
0000
0130
1000
,
0020
0000
0001
0000
,
0031
0010
1000
0010
,
0101
0001
0001
1100
,
1000
0001
0100
0011
,
0011
0001
0001
1010
,
1000
0001
0100
1100
,
1100
1000
1000
0101
,
0001
1000
0100
1010
,
1010
1000
1000
0011
,
0001
0100
0010
1001
,
0100
1000
0002
0000
,
1003
0001
1000
0010
,
0100
0001
2000
0000
,
3001
1000
0001
0100
,
0010
1000
0002
0000
,
1003
0001
1000
0100
,
0010
0001
2000
0000
,
3001
1000
0001
0010
,
0100
1000
0001
1000
,
0100
1000
0010
0100
,
0001
1000
0001
0100
,
0001
0010
0001
0010
,
0100
1000
0010
0001
,
1000
0100
0001
1000
,
0001
0010
1000
0001
,
0100
1000
0010
0001
;

//---------------dance-single - Standard----------------
#NOTES:
     dance-single:
     Standard:
     Medium:
     7:
     0.488,0.479,0.155,0.103,0.000: // measure 1
0000
0000
0000
0000
,  // measure 2
0000
0000
0000
0000
,  // measure 3
1000
0010
1000
0001
0100
0001
0010
0000
,  // measure 4
0010
0000
0001
0000
1000
1000
0001
0001
,  // measure 5
0100
0010
0000
0100
0010
1000
0000
0000
,  // measure 6
1000
0001
0000
0001
0010
0100
1000
0000
,  // measure 7
0100
0010
0000
0100
0010
0001
0000
0000
,  // measure 8
0001
1000
0000
1000
0010
0100
0001
0000
,  // measure 9
0010
0100
0000
0010
0100
1000
0000
0000
,  // measure 10
1000
0001
0000
0001
0100
0010
1000
0000
,  // measure 11
0010
0100
0000
0010
0100
0001
0000
0000
,  // measure 12
0001
1000
0000
1000
0100
0010
0001
0000
,  // measure 13
2000
0100
0100
3200
,  // measure 14
0302
0000
0000
0203
0000
0000
1300
0000
,  // measure 15
1000
0010
1000
0001
0100
0001
0010
0000
,  // measure 16
0100
0000
0010
0000
0001
1000
0001
1000
,  // measure 17
0002
0100
0100
0203
,  // measure 18
2300
0000
0000
3200
0000
0000
0301
0000
,  // measure 19
0001
0010
0001
1000
0100
1000
0010
0000
,  // measure 20
0100
0000
0010
0000
1000
0001
1000
0001
,  // measure 21
1001
0000
1001
0000
1000
0001
1000
0100
,  // measure 22
0000
0010
0001
0100
0001
0010
1100
0000
,  // measure 23
1001
0000
1001
0000
1000
0010
0100
0010
,  // measure 24
0000
0010
1000
0100
0010
0001
1100
0000
,  // measure 25
1001
0000
1001
0000
0001
1000
0001
0100
,  // measure 26
0000
0010
1000
0100
1000
0010
0101
0000
,  // measure 27
1001
0000
1001
0000
0001
0010
0100
0010
,  // measure 28
0000
0010
0001
0100
0010
1000
0101
0000
,  // measure 29
0010
0000
0001
1000
0010
0000
0100
0000
,  // measure 30
0001
0000
1000
0100
0010
0100
1000
0000
,  // measure 31
0010
0000
1000
0001
0010
0000
0100
0000
,  // measure 32
1000
0000
0001
0100
0010
0100
0001
1000
,  // measure 33
0001
0000
0010
0100
1000
0000
0100
0000
,  // measure 34
0010
0000
0001
0100
1000
0100
0001
0000
,  // measure 35
1000
0000
0010
0100
0001
0000
0100
0000
,  // measure 36
0010
0000
1000
0100
0001
0100
1000
0000
,  // measure 37
1000
0010
0100
0001
0000
1000
0100
0010
,  // measure 38
0001
0010
0100
1000
0000
0010
1000
0001
,  // measure 39
0010
0001
1000
0010
0000
0100
0001
1000
,  // measure 40
0100
1000
0001
0100
0000
0001
0100
0010
,  // measure 41
1000
0010
0100
0001
0000
1000
0010
1000
,  // measure 42
0001
1000
0100
0001
0000
0100
1000
0001
,  // measure 43
1000
0010
0100
0001
0000
0001
0010
0001
,  // measure 44
1000
0001
0100
1000
0000
0100
0001
0000
;

//---------------dance-single - Heavy----------------
#NOTES:
     dance-single:
     Heavy:
     Hard:
     8:
     0.549,0.535,0.181,0.232,0.090: // measure 1
0000
0000
0000
0000
,  // measure 2
0000
0000
0000
0000
,  // measure 3
1000
0100
0010
0001
0100
0010
1000
0000
,  // measure 4
0001
0000
0110
0000
1000
0001
1000
0001
,  // measure 5
0100
0010
0000
0010
0100
0002
0000
0000
,  // measure 6
1003
0001
0100
0010
1000
0100
0001
0000
,  // measure 7
0100
0010
0000
0010
0100
2000
0000
0000
,  // measure 8
3001
1000
0100
0010
0001
0100
1000
0000
,  // measure 9
0100
0010
0000
0010
1000
0200
0000
0000
,  // measure 10
1300
0010
0100
0001
1000
0100
0001
0000
,  // measure 11
0100
0010
0000
0010
0001
0200
0000
0000
,  // measure 12
0301
0010
0100
1000
0001
0100
1000
0000
,  // measure 13
0120
0100
1000
0230
,  // measure 14
0302
0000
0000
0023
0000
0000
0230
0000
,  // measure 15
1300
0100
0010
0001
0100
0010
1000
0000
,  // measure 16
1000
0000
0100
0000
0010
0010
0100
0100
,  // measure 17
0020
0100
0001
0230
,  // measure 18
2300
0000
0000
3020
0000
0000
0230
0000
,  // measure 19
0301
0010
0100
1000
0010
0100
0001
0000
,  // measure 20
0100
0000
0010
0000
0010
0010
1000
1000
,  // measure 21
1010
0000
1010
0000
0100
0010
1000
0001
,  // measure 22
0000
0000
0100
0000
0001
0000
1000
0010
1000
0000
0001
0000
1100
0000
0000
0000
,  // measure 23
0011
0000
0011
0000
0100
0010
0001
1000
,  // measure 24
0000
0000
1000
0000
0001
0010
0001
0010
0001
0000
1000
0000
0101
0000
0000
0000
,  // measure 25
1100
0000
1100
0000
0010
0100
1000
0001
,  // measure 26
0000
0000
0010
0000
0001
0000
1000
0100
1000
0000
0001
0000
1010
0000
0000
0000
,  // measure 27
0101
0000
0101
0000
0010
0100
0001
1000
,  // measure 28
0000
0000
1000
0000
0001
0100
0001
0100
0001
0000
1000
0000
0011
0000
0000
0000
,  // measure 29
0100
1000
0001
0100
0010
0200
0000
0000
,  // measure 30
0310
1000
0100
0001
0100
1000
0010
0000
,  // measure 31
0010
1000
0001
0010
0100
0020
0000
0000
,  // measure 32
0130
1000
0010
0001
0010
1000
0100
0000
,  // measure 33
0010
0001
1000
0100
0010
0200
0000
0000
,  // measure 34
0310
0001
0100
1000
0100
0001
0010
0000
,  // measure 35
0010
0001
1000
0010
0100
0020
0000
0000
,  // measure 36
0130
0001
0010
1000
0010
0001
0100
0000
,  // measure 37
0010
0001
0010
0100
0000
0100
0010
1000
,  // measure 38
0100
0001
0100
1000
0000
0100
0010
1000
,  // measure 39
0010
0001
1000
0100
0000
0100
0010
0001
,  // measure 40
0100
1000
0100
0001
0000
0100
0010
0001
,  // measure 41
0010
0000
1000
0000
0010
0100
0000
0000
0001
0000
0100
0010
0000
0000
0010
0000
,  // measure 42
1000
0000
0001
0000
0010
0100
0000
0000
1000
0000
0100
0010
0000
0000
0010
0000
,  // measure 43
0001
0000
0100
0000
0001
0010
0000
0000
0100
0000
1000
0010
0000
0000
0100
0000
,  // measure 44
0001
0000
0010
0000
0001
0100
0000
0000
0010
0000
1000
0100
0000
0000
0000
0000
;

//---------------dance-single - Beginner----------------
#NOTES:
     dance-single:
     Beginner:
     Beginner:
     1:
     0.169,0.195,0.000,0.000,0.000:
0000
0000
0000
0000
,
0000
0000
0000
0000
,
0000
0000
0000
0000
,
0000
0000
0000
0000
,
1000
0000
0001
0000
,
0100
0000
0010
0010
,
0010
0000
1000
0000
,
0100
0000
0010
0010
,
0010
0000
0001
0000
,
1000
0000
0010
0010
,
0010
0000
0100
0000
,
0001
0000
0010
0010
,
0010
0000
0100
0000
,
0100
0000
1000
0000
,
0001
0000
0000
0000
,
0001
0000
0000
0000
,
0010
0000
0100
0000
,
0100
0000
0001
0000
,
1000
0000
0000
0000
,
1000
0000
0000
0000
,
1000
0000
0010
0000
,
1000
0000
0100
0100
,
0100
0000
1000
0000
,
0001
0000
0100
0100
,
0100
0000
0001
0000
,
1000
0000
0010
0010
,
0010
0000
1000
0000
,
0001
0000
0010
0010
,
0010
0000
0100
0000
,
1000
0000
0001
0000
,
0100
0000
0010
0000
,
1000
0000
0100
0000
,
0010
0000
0001
0000
,
0100
0000
1000
0000
,
0100
0000
0001
0000
,
1000
0000
0100
0100
,
0100
0100
0000
0010
,
0010
0010
0000
0001
,
0001
0001
0000
1000
,
1000
1000
0000
0010
,
0010
0010
0000
0100
,
0100
0100
0000
0001
,
0001
0001
0000
1000
,
1000
1000
0000
0000
;
