#TITLE:The Pylons are TRAP BALLS;
#SUBTITLE:A Kaj-tastic Musical;
#ARTIST:Kajmaster Kajet;
#TITLETRANSLIT:;
#SUBTITLETRANSLIT:;
#ARTISTTRANSLIT:;
#CREDIT:Kewing Darksun;
#BANNER:Pylon TRAP BALLS.png;
#BACKGROUND:Pylon TRAP BALLS-bg.png;
#LYRICSPATH:;
#CDTITLE:!Kewing DarkSun (cdtitle).png;
#MUSIC:PYLON BALLS TRAP (edited).mp3;
#OFFSET:1.451;
#SAMPLESTART:15.960;
#SAMPLELENGTH:12.500;
#SELECTABLE:YES;
#BPMS:0.000=138.000;
#STOPS:;
#BGCHANGES:3.000=Pylon Trap BALLS.avi=1.000=1=0=1
,199.000=Pylon TRAP BALLS-bg.png=1.000=0=0=1
;

//---------------dance-single - Oni----------------
#NOTES:
     dance-single:
     Oni:
     Challenge:
     8:
     0.566,0.518,0.533,0.081,0.046: // measure 1
0000
0000
0000
0000
,  // measure 2
0000
0000
0000
0000
,  // measure 3
0000
0000
0000
0000
,  // measure 4
0000
0000
0000
0000
,  // measure 5
1001
0000
0000
1000
0100
0000
1000
0000
0020
0000
0000
0000
0130
0000
0000
0000
,  // measure 6
0010
1000
0100
0000
0010
0001
0100
0000
,  // measure 7
1001
0000
0000
0001
0100
0000
0001
0000
0020
0000
0000
0000
0130
0000
0000
0000
,  // measure 8
0010
0001
0100
0010
0010
1000
0100
0000
,  // measure 9
1000
0100
0001
0000
0001
0010
1000
0000
,  // measure 10
1000
0100
0010
0001
0100
0000
1001
0000
,  // measure 11
1000
0000
0000
0010
1000
0000
0100
0000
0020
0000
0000
0000
0030
0000
0100
0000
,  // measure 12
0010
0001
1000
0001
0100
0000
1001
0000
,  // measure 13
0001
0000
0000
0010
0001
0000
0100
0000
0020
0000
0000
0000
0030
0000
0100
0000
,  // measure 14
0010
1000
0001
1000
0100
0000
1001
0000
,  // measure 15
0010
0000
0000
0100
0001
0000
1000
0000
0200
0000
0000
0000
0300
0000
0010
0000
,  // measure 16
0001
0100
1000
0000
1000
0010
0001
0000
,  // measure 17
1000
0100
1000
0000
0001
0100
0101
0000
,  // measure 18
0011
1100
1010
0002
,  // measure 19
1003
0100
0010
0001
1000
0100
0010
0000
,  // measure 20
0100
1000
0001
1000
0010
0000
0110
0000
,  // measure 21
0001
0100
0010
1000
0001
0100
0010
0000
,  // measure 22
0100
0001
1000
0001
0010
0000
0110
0000
,  // measure 23
1000
0100
0010
0001
0100
0010
1000
0000
,  // measure 24
1000
0100
0001
0100
0010
0000
1001
0000
,  // measure 25
0101
0110
0101
1010
,  // measure 26
1001
1100
0110
1001
,  // measure 27
0100
0001
0010
0001
1000
0100
1000
0000
,  // measure 28
0010
0100
0001
1000
0100
0010
0100
0000
,  // measure 29
0100
1000
0010
1000
0001
0100
0001
0000
,  // measure 30
0010
0100
1000
0001
0100
0010
0100
0000
,  // measure 31
0010
0001
0010
1000
0100
0010
0001
0000
,  // measure 32
0010
1000
0010
0001
0100
0010
1000
0000
,  // measure 33
0010
0010
1000
1000
0100
0100
0010
0010
,  // measure 34
0001
0001
0100
0100
0110
0000
1001
0000
,  // measure 35
0010
0000
0000
0010
1000
0000
0100
0000
1100
0000
0000
0000
1000
0000
0001
0000
,  // measure 36
1001
0000
0010
1000
0101
0000
0011
0000
,  // measure 37
0010
0000
0000
0010
0001
0000
0100
0000
0101
0000
0000
0000
0001
0000
1000
0000
,  // measure 38
1001
0000
0010
0001
1100
0000
1010
0000
,  // measure 39
0010
0000
0000
0010
1000
0000
0100
0000
0110
0000
0000
0000
0001
0000
0100
0000
,  // measure 40
0110
0000
0010
0100
1001
0000
0110
0000
,  // measure 41
0011
1100
1001
1010
,  // measure 42
0101
0110
0110
0002
,  // measure 43
1003
0100
0010
0100
1000
0100
0001
0100
,  // measure 44
1000
0100
0010
0001
1000
1000
0101
0000
,  // measure 45
0001
0100
0010
1000
0100
0001
0100
1000
,  // measure 46
0010
0100
0001
0010
0100
0100
1001
0000
,  // measure 47
0001
0100
0010
0100
0001
0100
1000
0100
,  // measure 48
0001
0100
0010
1000
0001
0001
1100
0000
,  // measure 49
1000
0010
0001
0010
0100
0001
0010
1000
,  // measure 50
0010
0100
0010
0001
1001
0000
0110
0000
;
