#TITLE:Tell Me A Story;
#SUBTITLE:;
#ARTIST:SuperGreenX;
#TITLETRANSLIT:;
#SUBTITLETRANSLIT:;
#ARTISTTRANSLIT:;
#CREDIT:Kewing Darksun;
#BANNER:Tell Me a Story.png;
#BACKGROUND:Tell Me a Story-bg v2.png;
#LYRICSPATH:;
#CDTITLE:!Kewing DarkSun v3 (cdtitle).png;
#MUSIC:Tell Me A Story.ogg;
#OFFSET:-3.540;
#SAMPLESTART:19.370;
#SAMPLELENGTH:15.080;
#SELECTABLE:YES;
#BPMS:0.000=127.000,32.500=63.500,33.000=127.000,65.000=63.510,81.000=73.500,81.250=78.500,81.500=83.500,81.750=88.500,82.000=93.500,82.250=98.500,82.500=103.500,82.750=108.500,83.000=113.500,83.250=118.500,83.500=123.500,83.750=128.500,84.000=133.500,84.250=138.500,84.500=143.500,84.750=148.500,85.000=153.500,85.250=158.500,85.500=163.500,85.750=168.500,86.000=173.500,86.250=178.500,86.500=183.500,86.750=188.500,87.000=193.500,87.250=198.500,87.500=203.500,87.750=208.500,88.000=213.500,88.250=218.500,88.500=223.500,88.750=228.500,89.000=233.500,89.250=238.500,89.500=243.500,89.750=248.500,90.000=63.500,92.000=127.000;
#STOPS:;
#BGCHANGES:;

//---------------dance-single - Light----------------
#NOTES:
     dance-single:
     Light:
     Easy:
     3:
     0.210,0.228,0.036,0.328,0.000:
0000
2000
0000
0000
0000
0000
0000
0000
,
0000
0001
0000
0000
0000
0000
0000
3000
,
0000
0200
0000
0000
0000
0000
0000
0300
,
0000
0020
0000
0000
0000
0031
0000
0000
,
0000
0200
0000
0001
0000
0000
0000
0001
,
0000
0000
0000
0301
0000
0000
0000
0010
,
0000
2000
0000
0100
0000
0000
0000
3100
,
0000
0200
0000
0000
0000
0020
0000
0000
,
0330
0002
0000
0003
,
1000
0200
0000
0310
,
0001
0020
0000
0130
,
0000
2000
0000
3010
,
0100
0002
0000
1003
,
0000
0200
0000
1300
,
0000
0020
0000
0130
,
0100
0002
0000
2003
,
0000
3200
0000
0310
,
0001
0102
0000
0013
,
0001
0200
0000
0310
,
1000
2100
0000
3010
,
0100
2002
0000
0000
,
0000
0000
0000
0000
,
0000
0000
3003
0000
,
0002
0000
1003
0100
,
0100
0010
0000
0001
,
0200
0000
0301
0000
,
0020
0000
0130
1000
,
0020
0000
1030
1000
,
0002
0000
0013
0100
,
2000
0000
3001
0000
,
1000
0010
1000
0100
,
2000
0000
3001
0100
,
0100
0010
0000
1000
,
0200
0000
1300
0000
,
0020
0000
0130
0001
,
0020
0000
0031
0001
,
2000
0000
3010
0100
,
0002
0000
1003
0000
,
0001
0010
0001
0100
,
0010
1000
0100
0000
,
0100
0001
0010
0000
,
0100
1000
0010
0000
,
0010
0001
0100
0000
,
0001
0010
0100
1000
,
0001
1000
0010
0000
,
1000
0001
1000
0100
,
0010
0001
0100
1000
,
2002
0000
0000
0000
,
0000
0000
0000
0000
,
0000
0000
0000
0000
,
3003
0000
0000
0000
;

//---------------dance-single - Heavy----------------
#NOTES:
     dance-single:
     Heavy:
     Hard:
     7:
     0.349,0.365,0.082,0.036,0.041: // measure 1
0000
1000
0000
0001
0000
0100
0100
0000
,  // measure 2
0000
0001
0000
0000
,  // measure 3
0010
0001
0000
1000
0000
0100
0100
0000
,  // measure 4
1000
0010
0000
0000
0001
0000
0000
0100
,  // measure 5
0000
1000
0000
0001
0000
0100
0010
0100
,  // measure 6
0000
0001
0000
1010
0000
1000
0001
0100
,  // measure 7
0000
0001
0000
1000
0000
0100
0010
0100
,  // measure 8
0000
1000
0000
0011
0000
0001
1000
0100
,  // measure 9
0000
0110
0010
0000
0001
0000
0100
0001
,  // measure 10
1000
0000
0010
0000
1000
0000
0100
1000
,  // measure 11
0100
1000
0001
0000
0010
0000
0001
0000
,  // measure 12
1000
0001
0100
0000
0100
0010
0000
0010
,  // measure 13
1000
0000
1100
0000
0100
0000
0010
0001
,  // measure 14
0100
0000
0001
0010
0100
1000
0000
1000
,  // measure 15
1000
0001
0100
0000
0001
0000
0010
0001
,  // measure 16
0100
0000
0000
0000
0000
0000
0001
0000
0000
0000
0010
0000
0000
0000
0100
0000
0000
0000
1000
0000
0000
0001
0000
0000
,  // measure 17
1000
0000
0001
0100
1000
0100
0000
0001
,  // measure 18
0000
0000
0001
1000
0001
0000
0010
0000
0100
0000
1000
0001
1000
0000
0010
0100
,  // measure 19
0000
0010
1000
0100
0001
0100
0000
1000
,  // measure 20
0000
1000
0100
0010
0001
0100
1000
0100
,  // measure 21
0010
0100
0220
0000
0000
0000
0000
0000
,  // measure 22
0000
0000
0000
0000
,  // measure 23
0000
0330
1001
0000
,  // measure 24
0110
0000
1000
0000
0001
0010
0001
0100
,  // measure 25
0000
0001
0010
0000
0010
0000
0010
0100
,  // measure 26
1000
0000
1000
0000
0001
1000
0001
0100
,  // measure 27
0010
0000
0010
0100
0000
0100
0001
1000
,  // measure 28
0100
0000
1000
0000
0001
0100
0001
0010
,  // measure 29
0000
0001
0100
0000
0100
0000
0100
0001
,  // measure 30
1000
0000
0001
0000
1000
0100
0010
0001
,  // measure 31
0010
0000
0100
0000
1000
0001
1000
0000
,  // measure 32
0110
0000
0001
0000
1000
0010
1000
0100
,  // measure 33
0000
1000
0010
0000
0010
0000
0010
0100
,  // measure 34
0001
0000
0001
0000
1000
0001
1000
0100
,  // measure 35
0010
0000
0010
0100
0000
0100
1000
0010
,  // measure 36
0100
0000
0001
0000
1000
0100
1000
0010
,  // measure 37
0000
1000
0100
0000
0100
0000
0100
1000
,  // measure 38
0001
0000
1000
0000
0001
0100
0010
1000
,  // measure 39
0100
0000
0010
0000
0001
1000
0001
0000
,  // measure 40
0010
0000
0001
0000
0100
0000
0000
0001
0010
0000
0001
0000
0000
0000
0000
0000
,  // measure 41
0001
0100
1000
0000
0100
0010
0000
0000
,  // measure 42
0010
0000
1000
0000
0100
0000
0000
1000
0010
0000
1000
0000
0000
0000
0000
0000
,  // measure 43
1000
0100
0001
0000
0100
0010
0000
0000
,  // measure 44
0001
0000
0100
0000
0010
0000
1000
0001
1000
0000
0100
0000
0010
0000
0001
1000
,  // measure 45
0001
0100
0010
0000
1000
0001
0010
0000
,  // measure 46
0100
1000
0100
0001
0100
1000
0001
0100
,  // measure 47
0000
0100
0100
0100
0010
1000
0100
0010
,  // measure 48
2002
0000
0000
0000
,  // measure 49
0000
0000
0000
0000
,  // measure 50
0000
0000
0000
0000
,  // measure 51
3003
0000
0000
0000
;

//---------------dance-single - Beginner----------------
#NOTES:
     dance-single:
     Beginner:
     Beginner:
     2:
     0.133,0.150,0.018,0.000,0.000:
0000
1000
0000
0000
0000
0000
0000
0000
,
0000
0000
0000
0000
,
0000
0001
0000
0000
0000
0000
0000
0000
,
0000
1000
0000
0000
0000
0010
0000
0000
,
0000
0100
0000
0000
0000
0000
0000
0000
,
0000
0010
0000
0000
0000
0000
0000
0000
,
0000
0100
0000
0000
0000
0000
0000
0000
,
0000
0001
0000
0000
0000
1000
0000
0000
,
0000
1001
0000
0000
1000
0000
0000
0000
,
0001
0000
1000
0000
,
0010
0000
0100
0000
,
0001
0000
0100
0000
,
0001
0001
0001
0000
,
1000
0000
0001
0000
,
0010
0000
0100
0000
,
1000
0000
0000
0100
,
0100
0100
0000
1000
,
0000
0001
0000
1000
,
1000
1000
0000
0010
,
0000
1000
0000
0001
,
0001
0001
0000
0000
,
0000
0000
0000
0000
,
0000
0000
0000
0000
,
1000
0000
0001
0000
,
0001
0001
0000
0100
,
0100
0000
0010
0000
,
0100
0000
0010
0010
,
0010
0000
1000
1000
,
0000
0001
0000
0010
,
0010
0000
0100
0000
,
0010
0000
0001
0001
,
0001
0000
1000
0000
,
1000
1000
0000
0100
,
0100
0000
0010
0000
,
0100
0000
0010
0010
,
0010
0000
0001
0001
,
0000
1000
0000
0010
,
0010
0000
0100
0000
,
0010
0000
1000
1000
,
1000
1000
0000
0000
,
0100
0100
0000
0000
,
0001
0001
0000
0000
,
0010
0010
0000
0000
,
0100
0100
0100
0000
,
0001
0001
0001
0000
,
1000
1000
1000
0000
,
0100
0100
0100
0100
,
0110
0000
0000
0000
;

//---------------dance-single - Standard----------------
#NOTES:
     dance-single:
     Standard:
     Medium:
     5:
     0.287,0.296,0.146,0.192,0.000:
0000
0001
0000
0100
0000
1000
0000
0000
,
0000
0001
0000
0000
,
0000
1000
0000
0010
0000
0001
0000
0000
,
0000
0002
0000
0000
0203
0000
0000
0320
,
0000
1030
0000
0100
0000
0001
0000
0001
,
0000
0000
0000
1001
0000
0000
0000
1000
,
0000
1000
0000
0010
0000
0001
0000
0100
,
0000
0202
0000
0303
0000
2020
0000
3030
,
0000
1000
0100
0001
,
0100
2000
0000
0010
,
3000
0010
0100
0000
1000
0000
0100
0000
,
0001
0000
2000
0000
0000
3200
0000
0000
,
0320
0000
0031
0000
1000
0000
0000
0010
,
0010
0000
0000
0100
0100
0000
0001
0010
,
0100
0000
1000
0000
0001
0000
1000
0010
,
0010
0000
1000
0000
0100
0000
0010
0010
,
0010
1001
1000
0001
,
0001
0100
0010
0000
0010
0000
1000
0000
,
1000
0100
0010
0000
0010
0000
0001
0000
,
0001
0200
0310
0020
,
2030
3002
0000
0000
,
0000
0000
0000
0000
,
0000
0000
1003
0000
,
0110
0010
0001
1100
,
1000
0000
0001
0000
0100
0000
0001
1000
,
0100
0000
0010
0000
0100
0000
0010
0001
,
0200
0000
0000
0320
0000
0000
2030
0000
,
3001
1000
0100
0011
,
0000
0001
0100
0000
0000
0010
1000
0000
,
1000
0001
0010
0100
,
1000
1000
0001
0001
,
0110
0010
1000
0101
,
0001
0000
1000
0000
0100
0000
1000
0001
,
0100
0000
0010
0000
0100
0000
0010
1000
,
0200
0000
0000
0320
0000
0000
0031
0100
,
0001
0001
0100
1010
,
0000
1000
0100
0000
0000
0010
0001
0000
,
0001
1000
0010
0100
,
0001
0000
0001
0000
1000
0100
1000
0100
,
0010
0000
0110
0000
0010
0001
0000
0000
,
0100
0000
0110
0000
0010
1000
0000
0000
,
0100
0000
0110
0000
0001
1000
0000
0000
,
0010
0000
0110
0000
1000
0001
0000
0000
,
1010
0000
0010
0000
1000
0001
0100
0000
,
0011
0000
0010
0000
0001
1000
0100
0000
,
0010
0001
0100
0000
1000
0000
0100
0000
,
0010
1000
0100
0000
0010
0001
0100
0010
,
2000
0000
0000
0000
,
0000
0000
0000
0000
,
0000
0000
0000
0000
,
3000
0000
0000
0000
;
