#TITLE:TETRIS 7'' MIX;
#SUBTITLE:;
#ARTIST:DOCTOR SPIN;
#TITLETRANSLIT:;
#SUBTITLETRANSLIT:;
#ARTISTTRANSLIT:;
#CREDIT:Kewing;
#BANNER:TETRIS 7'' MIX.png;
#BACKGROUND:TETRIS 7'' MIX-bg.png;
#LYRICSPATH:;
#CDTITLE:!Kewing v3 (cdtitle).png;
#MUSIC:TETRIS 7'' MIX.ogg;
#OFFSET:0.563;
#SAMPLESTART:17.240;
#SAMPLELENGTH:14.260;
#SELECTABLE:YES;
#BPMS:0.000=134.750;
#STOPS:32.250=2.670
;
#BGCHANGES:;

//---------------dance-single - ----------------
#NOTES:
     dance-single:
     :
     Hard:
     8:
     0.485,0.485,0.560,0.009,0.014: // measure 1
0000
0000
0000
0000
,  // measure 2
0000
0000
0000
0000
,  // measure 3
1000
0000
0000
0100
0000
0000
0010
0000
0000
0000
0100
0000
1000
0000
0000
0000
,  // measure 4
0010
0000
0000
0100
0000
0000
0001
0000
0000
0000
0010
0000
0001
0000
1000
0000
,  // measure 5
0001
0000
0000
0100
0000
0000
0010
0000
0000
0000
0100
0000
0001
0000
0000
0000
,  // measure 6
2000
0000
0000
0000
,  // measure 7
3010
0000
1000
0000
0100
1000
0100
0010
,  // measure 8
0001
0000
0100
0000
0100
0001
0100
0010
,  // measure 9
1000
0000
0000
0000
1001
0000
1000
0010
,  // measure 10
0100
0000
0100
0001
0010
0000
0001
0010
,  // measure 11
0100
0000
0100
1000
0010
0000
0010
0100
,  // measure 12
1000
1100
0110
1001
,  // measure 13
0110
0000
1100
0000
0101
0000
0001
0010
,  // measure 14
0100
0000
0100
0010
0001
0000
0001
1000
,  // measure 15
0100
0001
0100
1000
0001
0000
0001
0100
,  // measure 16
0010
1010
1001
0110
,  // measure 17
1001
0000
0011
0000
1001
0000
0001
0010
,  // measure 18
0100
0000
0100
1000
0010
0000
1000
0010
,  // measure 19
0100
0000
0100
0001
0010
0000
0010
0100
,  // measure 20
0001
0101
0110
1001
,  // measure 21
0110
0000
0101
0000
1100
0000
1000
0010
,  // measure 22
0100
0000
0100
0010
1000
0000
1000
0001
,  // measure 23
0100
1000
0100
0001
1000
0000
1000
0100
,  // measure 24
0010
0011
1001
0110
,  // measure 25
1001
0000
1010
0000
0010
0100
1000
0100
,  // measure 26
0001
0000
0011
0011
0010
0100
0001
0100
,  // measure 27
1000
0000
1010
1010
0010
0100
1000
0100
,  // measure 28
0001
0000
0011
0011
0001
0100
0010
1000
,  // measure 29
0010
0001
0010
1000
0001
0010
1000
0010
,  // measure 30
0001
0000
0101
0101
0100
0010
0001
0010
,  // measure 31
1000
0000
1100
1100
0100
0010
1000
0010
,  // measure 32
0001
0000
0101
0101
0001
0010
0100
1000
,  // measure 33
0010
0001
0010
1000
1001
0000
1000
0000
,  // measure 34
0101
0100
1010
0100
,  // measure 35
0101
0001
0011
0100
,  // measure 36
1100
0000
1000
0000
1010
0010
0000
0100
,  // measure 37
0000
0001
1000
0000
1001
0000
0001
0000
,  // measure 38
1100
0100
0011
0100
,  // measure 39
1100
1000
1010
0011
,  // measure 40
0101
0000
0100
0000
0110
0000
0010
0001
,  // measure 41
1000
0001
0010
0100
1001
0000
0010
0100
,  // measure 42
0001
0000
0001
0100
1000
0000
0001
0010
,  // measure 43
1000
0000
1000
0100
0010
0000
0010
0100
,  // measure 44
0001
0100
1000
0000
1000
0010
0100
0001
,  // measure 45
0010
1000
0010
0001
1000
0010
0000
1000
,  // measure 46
0100
0010
0100
1000
0001
0000
0001
1000
,  // measure 47
0010
0001
0010
1000
0100
0000
0010
0001
,  // measure 48
0100
1010
0011
0110
,  // measure 49
1010
1000
0001
1000
1001
0000
0010
0100
,  // measure 50
1000
0000
1000
0100
0001
0000
1000
0010
,  // measure 51
0001
0000
0001
0100
0010
0000
0010
0100
,  // measure 52
1000
0100
0001
0000
0001
0010
0100
1000
,  // measure 53
0010
0001
0010
1000
0100
0010
0000
0001
,  // measure 54
0100
1000
0100
0001
1000
0000
1000
0001
,  // measure 55
0010
1000
0010
0001
0100
0000
0010
1000
,  // measure 56
0100
0101
0011
0110
,  // measure 57
1010
1000
0001
1000
1100
0000
0000
0000
;

//---------------dance-single - ----------------
#NOTES:
     dance-single:
     :
     Challenge:
     9:
     0.611,0.587,1.000,0.000,0.086:
0000
0000
0000
0000
,
0000
0000
0000
0000
,
1000
0000
0000
0001
0000
0000
1000
0000
0000
0000
0100
0000
0010
0000
0001
0000
,
1000
0000
0000
0100
0000
0000
1000
0000
0000
0000
0010
0000
0100
0000
0001
0000
,
1000
0000
0000
0010
0000
0000
1000
0000
0000
0000
0100
0000
0010
0000
0001
0000
,
0100
0010
0100
1000
0001
0010
0100
0010
,
1000
0000
0100
0010
0000
0001
0010
0100
,
1000
0000
0010
0100
0000
0001
0100
0010
,
1001
0000
0000
0000
0110
0000
0010
0001
,
0011
0000
0100
1000
1100
0000
0010
1000
,
1010
0000
0100
0001
0101
0000
0010
0100
,
0110
1001
1100
0011
,
1100
1000
0001
1000
1100
0000
1000
0001
,
1010
0000
0001
1000
0101
0000
0100
0001
,
0010
0100
1000
0001
1100
0000
0001
1000
,
0011
1001
0101
1010
,
0101
0001
1000
0001
0011
0000
0010
0100
,
1100
0000
0010
0100
0101
0000
0010
1000
,
1100
0000
0010
0001
0101
0000
0100
0010
,
1001
0110
0101
0110
,
1100
1000
0010
0100
0101
0000
1000
0100
,
0011
0000
0001
0010
1100
0000
0100
0001
,
0100
1000
0001
0100
1010
0000
1000
0010
,
0101
0110
1100
0110
,
0101
0000
0001
0000
0010
0000
0100
0000
1001
0000
0001
1000
0000
0010
1000
0000
,
0001
0000
0010
0000
1100
0000
1100
0000
0010
0000
0001
1000
0000
0100
1000
0000
,
0001
0000
0100
0000
1010
0000
1010
0000
0100
0000
0001
0010
0000
0001
0100
0000
,
0001
1000
0110
0110
0001
1000
0100
0010
,
0100
0000
0001
0000
1000
0000
0010
0000
0100
0000
1000
0010
0000
1000
0100
0000
,
1000
0000
0010
0000
0101
0000
0101
0000
0010
0000
1000
0100
0000
1000
0010
0000
,
1000
0000
0100
0000
0011
0000
0011
0000
0100
0000
1000
0010
0000
0100
0001
0000
,
0010
0100
1001
1001
0001
0100
0010
0100
,
1000
0001
0010
1000
1001
0000
0010
0000
,
1001
0000
0000
0010
0100
0000
0000
0000
1010
0000
0000
0000
0100
0000
0000
0000
,
0011
0100
1001
0010
,
1001
0000
0000
0010
0100
0000
0000
0000
0101
0000
0000
0000
0011
0000
0000
0000
,
0101
1010
1001
1100
,
0101
0000
0000
0100
0010
0000
0000
0000
1100
0000
0000
0000
0011
0000
0000
0000
,
0101
0110
0011
0101
,
1100
0000
0000
0100
0010
0000
0000
0000
1001
0000
0000
0000
0110
0000
0010
0000
,
1000
0001
1000
0100
0110
0000
0011
0001
,
0101
0000
1010
1000
1100
0000
0011
0010
,
0110
0000
1010
0010
0110
0000
0101
0100
,
1100
1001
0101
1010
,
1100
1000
1001
1000
1010
0000
0101
0100
,
1001
0000
1100
0100
1001
0000
0011
0001
,
1000
0010
0101
0100
0011
0000
1100
0100
,
1010
1001
1100
0011
,
0101
0001
0011
0001
0101
0000
1010
0001
,
0101
0000
0011
1000
1100
0000
1010
0001
,
1100
0000
0011
1000
0101
0000
1001
0100
,
1001
0110
1100
0101
,
1010
0001
1100
0001
1010
0000
1100
0010
,
0101
0000
0011
0100
1010
0000
1100
0010
,
0001
0100
1001
0010
0101
0000
1010
0100
,
1001
0110
0101
1100
,
1010
0100
0011
0100
1001
0000
0000
0000
;

//---------------dance-single - ----------------
#NOTES:
     dance-single:
     :
     Medium:
     6:
     0.404,0.383,0.460,0.172,0.000:
0000
0000
0000
0000
,
0000
0000
0000
0000
,
1000
0000
0000
0000
1000
0000
0000
0100
,
0100
0000
0010
0001
,
1000
0000
0000
0000
1000
0000
0000
0010
,
0020
0000
0000
0000
,
0130
0000
0100
0000
0001
0000
1000
0001
,
0100
0000
0010
0000
1000
0000
0001
1000
,
0100
0000
1100
1000
,
0010
1000
1001
1000
,
0010
1000
1100
1000
,
0010
0100
0110
1001
,
0220
0330
0010
0001
,
0011
0000
0001
0100
0010
0000
1000
0000
,
0100
0000
1000
0000
1010
0000
1000
0100
,
0010
0010
0110
1001
,
0110
0000
1000
0001
1001
0000
0001
0000
,
0010
0001
1001
0001
,
0010
0001
0101
0001
,
0010
0100
0110
1001
,
0220
0330
0010
1000
,
1010
0000
1000
0100
0010
0000
0001
0000
,
0100
0000
0001
0000
0011
0000
0001
0100
,
0010
0010
0110
1001
,
0110
0000
0001
1000
1001
0000
0010
0000
,
0100
0000
1000
1000
1100
0000
0010
0000
,
0100
0000
0001
0001
0101
0000
0010
0000
,
0100
0000
1000
1000
1000
0000
0100
0000
,
0001
1000
1001
0010
,
1000
0000
0001
0001
0101
0000
0010
0000
,
0001
0000
1000
1000
1100
0000
0010
0000
,
1000
0000
0001
0001
0001
0000
0100
0000
,
1000
0010
0002
0100
,
0203
0010
0320
1000
,
2030
0001
3002
0010
,
0023
0100
0230
0001
,
0001
1300
2000
0100
,
3200
0010
0320
0001
,
0032
1000
2003
3020
,
0200
0000
0330
0000
0110
0000
0010
1000
,
0100
0010
0100
0000
1001
0000
0100
0000
,
0001
0000
0010
0100
1000
0000
0100
0000
,
1000
0000
0010
0100
0001
0000
0010
0100
,
1000
1001
1010
0110
,
0101
0000
0010
1000
1001
0000
0001
1000
,
0100
0000
0001
0100
1000
0000
0010
0000
,
0001
0010
1000
0000
1010
0000
1000
0000
,
1001
1000
1100
0110
,
0011
0000
0100
1000
1001
0000
0010
0000
,
0100
0000
0010
1000
0100
0000
0001
0000
,
0100
0000
0010
0001
0100
0000
0010
1000
,
0100
1001
1010
0101
,
1000
0100
0010
0001
1001
0000
1000
0001
,
0100
0000
1000
0100
0001
0000
0010
0000
,
1000
0010
0001
0000
1100
0000
1000
0000
,
1010
0101
0011
1100
,
0001
0100
0010
1000
1100
0000
0000
0000
;

//---------------dance-single - ----------------
#NOTES:
     dance-single:
     :
     Easy:
     4:
     0.301,0.332,0.343,0.172,0.000:
0000
0000
0000
0000
,
0000
0000
0000
0000
,
1000
0000
0000
0100
,
0100
0000
0000
0010
,
0010
0000
0000
0001
,
0002
0000
0000
0000
,
1003
0000
0001
1000
,
0100
0000
0010
0001
,
1000
0000
1001
0000
,
1000
0001
0100
0000
,
0001
1000
0100
0000
,
0010
0001
0101
1000
,
2000
3000
1001
0001
,
0100
1000
0100
0000
,
0001
0010
0010
0100
,
0100
1000
1010
0001
,
0002
0003
1001
0000
,
0100
0001
0010
0000
,
0100
1000
0010
0000
,
1000
0100
0011
1000
,
2000
3000
0110
0010
,
1000
0100
0001
0000
,
0100
1000
1000
0001
,
0001
0100
1010
0001
,
0002
0003
1100
0100
,
1000
0000
0110
0100
,
0010
0000
0101
0100
,
0001
0000
0001
0100
,
1000
0010
1010
0010
,
0100
0000
0110
0010
,
0100
0000
0011
0010
,
0100
0000
1000
0010
,
0001
1000
2001
0000
,
3020
0000
2030
0000
,
3002
0000
2003
0000
,
3200
0000
0320
0000
,
0100
0000
0032
0000
,
2003
0000
3002
0000
,
0203
0000
0302
0023
,
0200
0330
0100
0010
,
0001
1000
1001
1000
,
0100
1000
0010
0010
,
0100
0001
0010
0001
,
0100
0010
1001
0100
,
1001
1100
1001
1000
,
0100
0010
0011
0001
,
0010
0100
1100
0100
,
0010
0001
1001
0100
,
1001
0101
1001
0001
,
1000
0001
0101
0001
,
1000
0001
0011
0001
,
0010
0100
1001
0010
,
1001
0110
1001
0100
,
0010
1000
0101
0100
,
0001
0010
1100
1000
,
0010
0100
1001
0010
,
1001
0110
1001
0000
;

//---------------dance-single - ----------------
#NOTES:
     dance-single:
     :
     Beginner:
     2:
     0.184,0.255,0.244,0.000,0.000:
0000
0000
0000
0000
,
0000
0000
0000
0000
,
0000
0000
0000
0000
,
0000
0000
0000
0000
,
0000
0000
0000
0000
,
1001
0000
0000
0000
,
1000
0000
0000
0100
,
0100
0000
0000
0001
,
0001
0000
1001
0000
,
0001
0000
0100
0000
,
0010
0000
1000
0000
,
0001
0000
1001
0000
,
1001
0000
0100
0000
,
1000
0000
0010
0000
,
0100
0000
0001
0000
,
1000
0000
0110
0000
,
0110
0000
1001
0000
,
1000
0000
0100
0000
,
0010
0000
0001
0000
,
1000
0000
1001
0000
,
1001
0000
0100
0000
,
0001
0000
0010
0000
,
0100
0000
1000
0000
,
0001
0000
0110
0000
,
0110
0000
0001
0001
,
0001
0000
1000
1000
,
1000
0000
0100
0100
,
0100
0000
0001
0001
,
0001
0001
0001
0001
,
0001
0000
1000
1000
,
1000
0000
0100
0100
,
0100
0000
0010
0010
,
0010
0010
0010
0000
,
1000
0000
0010
0000
,
0001
0000
0010
0000
,
0100
0000
0010
0000
,
0000
0000
0100
0000
,
1000
0000
0100
0000
,
0001
0000
0100
0000
,
1000
0000
0010
0000
,
0001
0000
1001
0000
,
0100
0000
1000
0000
,
0100
0000
0001
0000
,
0100
0000
1001
1001
,
1001
0000
1000
0000
,
0010
0000
0001
0000
,
0010
0000
0100
0000
,
0010
0000
0110
0110
,
0110
0000
1001
0000
,
0100
0000
0001
0000
,
0100
0000
1000
0000
,
0100
0000
1001
1001
,
1001
0000
0001
0000
,
0010
0000
1000
0000
,
0010
0000
0100
0000
,
1001
0000
0110
0110
,
0110
0000
1001
0000
;
