#TITLE:Stay here while I bash Koopa football playas;
#SUBTITLE:;
#ARTIST:MrSimonAlt feat. Mama Luigi;
#TITLETRANSLIT:;
#SUBTITLETRANSLIT:;
#ARTISTTRANSLIT:;
#CREDIT:Kewing;
#BANNER:Stay here while I bash Koopa football playas.png;
#BACKGROUND:Stay here while I bash Koopa football playas-bg.png;
#LYRICSPATH:;
#CDTITLE:!Kewing v3 (cdtitle).png;
#MUSIC:Stay here while I bash Koopa football playas.ogg;
#OFFSET:0.592;
#SAMPLESTART:4.155;
#SAMPLELENGTH:9.720;
#SELECTABLE:YES;
#BPMS:0.000=125.000,2.250=499.997,9.500=250.000,12.500=125.000,16.750=98.000,89.000=147.000,100.250=124.000,105.000=117.860,106.000=131.540,107.000=172.760,108.000=212.000,112.000=98.000,115.000=195.999,117.000=98.000,119.000=195.999,123.000=98.000,126.000=195.999,128.000=98.000,130.000=195.999,150.000=98.000,151.500=195.999,171.000=98.000;
#STOPS:;
#BGCHANGES:0.625=Stay here while I bash Koopa football playas.avi=1.000=1=0=1,
172.500=Mama_luigi_by_S_L_B.png=1.000=1=0=1,
99999=-nosongbg-=1.000=0=0=0 // don't automatically add -songbackground-
;

//---------------dance-single - Challenge----------------
#NOTES:
     dance-single:
     Challenge:
     Challenge:
     10:
     0.654,0.739,0.235,0.124,0.588: // measure 1
0000
0000
0000
0000
0000
1000
0000
0000
0000
0002
0000
0000
0000
0000
0000
0000
,  // measure 2
0000
0000
0000
0000
,  // measure 3
0000
0000
0000
0103
0010
0100
0010
0100
,  // measure 4
0001
1000
0100
0010
0100
0010
0200
0000
,  // measure 5
0000
0000
0300
0000
1000
0000
0100
0000
0010
0100
0010
0100
1000
0000
0001
0010
,  // measure 6
0100
1000
0010
0000
1000
0000
0010
0000
0100
0010
0100
0010
1000
0000
0000
0100
,  // measure 7
0000
0000
0010
0000
0001
0000
0100
0000
0010
0100
0010
0100
0001
0000
0010
0100
,  // measure 8
1000
0000
0000
0000
0000
0000
0001
0000
0000
0000
0000
0000
0100
0000
0000
0000
0010
0000
0000
0000
1000
0000
0000
0000
0000
0000
0000
0100
0000
0000
0000
0000
0000
0000
0000
0000
0110
0000
0000
0000
0000
0000
0100
0000
0000
0000
0000
0000
,  // measure 9
1000
0000
0000
0000
0000
0000
0000
0000
1000
0000
0000
0010
0000
0000
0010
0000
0100
0000
0001
0000
0100
0000
1000
0000
0100
0000
0000
0000
1100
0000
0000
0000
,  // measure 10
0110
0000
0000
0000
0000
0000
0101
0000
0000
0000
0000
0000
0001
0000
0000
0010
0000
0000
0100
0000
0000
1000
0000
0000
0100
0000
0000
0010
0000
0000
0000
0000
0010
0000
0000
0000
0001
0000
0000
0000
0100
0000
0000
0000
0010
0000
0000
0000
,  // measure 11
2000
0000
0000
0000
0000
0000
0000
0000
3001
0000
0000
0010
0000
0000
0010
0000
0100
0000
1000
0000
0100
0000
0001
0000
0100
0000
0000
0000
1000
0000
0000
0000
,  // measure 12
0010
0000
0000
0100
0000
0000
0001
0000
0000
0000
0000
0000
0100
0000
0000
0010
0000
1000
0001
0000
0000
0001
0000
0000
,  // measure 13
0000
0000
0000
0000
0001
0010
1000
0010
0001
0000
1000
0000
0001
0100
1000
0100
,  // measure 14
0001
1000
0000
0000
0100
0000
0001
0000
1000
0000
0100
0000
0010
0000
1000
0000
,  // measure 15
0001
0000
0100
0000
0010
0000
1000
0000
0000
0100
0000
0000
0001
0000
0000
0100
0000
0000
0010
0000
0100
0000
1000
0000
,  // measure 16
0010
0000
0000
0000
0010
0100
0001
0000
0010
0000
0100
0000
0010
0100
1000
0010
,  // measure 17
0100
0000
0001
0000
0100
0000
0010
0000
1000
0000
0000
0100
0000
0000
0010
0000
0001
0000
1000
0000
0010
0000
0100
0000
0001
0000
0000
0000
0011
0000
0000
0000
,  // measure 18
0110
0000
1100
0000
1000
0000
0001
0000
0010
0000
0001
0100
0010
1000
0010
0100
,  // measure 19
0002
0000
0000
0000
0000
0000
0000
0000
0000
0000
0000
0000
1003
0000
0000
0000
0010
0000
0000
0000
0100
0000
0000
0000
0000
0000
0000
0100
0000
0000
0000
0000
0000
0000
0000
0000
0001
0000
0000
0010
0000
0000
0000
0000
0000
0100
0000
0000
,  // measure 20
0000
0000
0000
0000
0000
0000
1000
0000
0000
0000
0000
0000
0001
0000
0000
0000
0010
0000
0000
0000
0100
0000
0000
0000
0000
0000
0000
0100
0000
0000
1000
0000
0000
0010
0000
0000
0001
0000
0000
0010
0000
0000
1000
0000
0000
0001
0000
0000
,  // measure 21
1000
0000
0000
0100
0000
0000
0001
0000
0000
0100
0000
0000
0010
0000
0000
0000
0010
0000
0100
0000
0000
1000
0000
0000
,  // measure 22
0010
1000
0100
0000
1000
0000
0010
0000
0100
0000
0000
0000
0010
0000
1000
0000
,  // measure 23
0001
0000
1000
0100
0001
0100
0010
0010
,  // measure 24
0001
0000
0100
0000
1000
0000
0100
0000
0010
0000
0010
0000
0100
0010
0000
1000
,  // measure 25
0000
0010
0000
0010
0000
0100
0000
0000
0100
0001
0000
0100
0000
0010
0000
0010
,  // measure 26
0000
1000
0100
0010
0000
0100
0010
0001
0000
1000
0010
0100
0000
0010
0100
0001
,  // measure 27
0000
0000
0000
0010
0000
0000
0100
0000
0000
1000
0000
0000
0002
0000
0000
0000
0000
0000
0000
0000
0000
0000
0000
0000
2000
0000
0000
0000
0003
0000
0000
0000
0000
0000
0000
0000
0020
0000
0000
3000
0000
0000
0000
0000
0000
0000
0000
0000
,  // measure 28
0032
0203
2300
3000
,  // measure 29
0001
0000
0000
1000
0000
0000
0010
0000
1000
0000
0100
0000
0001
0000
0100
0000
1000
0000
0010
0000
0000
0100
0000
0000
,  // measure 30
0001
0000
0000
0000
0010
0000
0000
0000
0100
0000
0000
0000
0010
0000
0000
0000
1001
0000
0000
0000
0000
0000
0000
0001
0000
0000
0000
0000
0100
0000
0000
0000
,  // measure 31
0010
0000
0000
1000
0000
0000
0100
0000
0010
0000
0001
0000
1000
0000
0010
0000
,  // measure 32
1001
0010
0100
0001
0010
0100
1000
0010
,  // measure 33
0100
0000
1001
0010
0100
1000
0010
0100
,  // measure 34
0001
0100
0010
0000
0010
1000
0000
0100
,  // measure 35
1000
0001
0100
0000
0100
0001
0010
0100
,  // measure 36
1000
0100
0010
0001
1000
1000
0010
0100
,  // measure 37
0100
0001
0010
0010
0001
0100
1000
0100
,  // measure 38
0010
0000
0000
1000
0000
0000
0001
0000
0000
0010
0000
0000
0000
0000
0100
0000
0010
0000
0100
0000
0000
0010
0000
0000
,  // measure 39
0001
0100
0010
0100
0001
1000
0100
0010
,  // measure 40
0000
0001
0001
0100
1000
1000
0100
0010
,  // measure 41
0010
0100
0000
0010
0100
0010
1000
0001
,  // measure 42
0000
0000
0000
1100
0000
0000
0000
1001
0000
0000
0000
0101
0000
0000
0000
0110
0000
0000
0000
0000
0000
0110
0000
0000
,  // measure 43
0000
0000
0000
0011
0000
0000
0000
1001
0000
0000
0000
1010
0000
0000
0000
0110
0000
0000
0000
0000
0000
0000
0000
0000
;
