#TITLE:Sinful Rose;
#SUBTITLE:[Makai Senki Disgaea 2];
#ARTIST:Tenpei Sato with Yoko;
#TITLETRANSLIT:;
#SUBTITLETRANSLIT:;
#ARTISTTRANSLIT:;
#CREDIT:Kewing Darksun;
#BANNER:Sinful Rose.png;
#BACKGROUND:Sinful Rose-bg.png;
#LYRICSPATH:;
#CDTITLE:!Kewing DarkSun v3 (cdtitle).png;
#MUSIC:Sinful Rose.ogg;
#OFFSET:0.730;
#SAMPLESTART:51.748;
#SAMPLELENGTH:13.420;
#SELECTABLE:YES;
#BPMS:0.000=141.060;
#STOPS:;
#BGCHANGES:3.125=Makai Senki DISGAEA 2 OP.avi=1.000=1=0=1
,214.500=Sinful Rose-bg.png=1.000=0=0=1
;

//---------------dance-single - ----------------
#NOTES:
     dance-single:
     :
     Hard:
     7:
     0.434,0.430,0.225,0.054,0.059: // measure 1
0000
0000
0000
0000
,  // measure 2
0000
0000
0000
0000
,  // measure 3
0000
0000
0000
0000
,  // measure 4
0000
0000
0000
0000
,  // measure 5
0000
2002
0000
0000
0000
0000
3003
0000
,  // measure 6
0000
0100
0000
0001
0000
0010
0000
0100
,  // measure 7
0010
0001
1000
0000
0001
0100
0001
0100
,  // measure 8
0000
0010
0000
1000
0000
0100
0000
0010
,  // measure 9
0100
0000
0010
0000
0100
0000
1000
0000
0001
0000
1000
0000
0001
1000
0000
0000
,  // measure 10
0000
0100
0000
1000
0000
0010
0000
0100
,  // measure 11
0010
1000
0001
0000
1000
0000
0100
0000
,  // measure 12
1000
0000
0000
0010
0000
0000
0100
0000
0001
0000
0000
1000
0000
0000
0100
0000
,  // measure 13
0000
0110
0000
0000
1001
1001
0000
0000
,  // measure 14
0100
0000
0001
0000
1000
0000
0100
0010
,  // measure 15
0001
0000
1000
0001
0000
0100
0010
0000
,  // measure 16
1010
0000
1000
0001
0000
0010
0100
1000
,  // measure 17
0000
0010
0100
0001
1000
1000
0000
0000
,  // measure 18
0100
0000
1000
0000
0001
0000
0100
0010
,  // measure 19
1000
0000
0001
1000
0000
0100
0010
0000
,  // measure 20
0011
0000
0001
0000
0010
0100
1000
0001
,  // measure 21
0000
0100
0001
1000
0000
0000
0010
0000
,  // measure 22
1000
0000
1000
0100
0000
1000
0100
1000
,  // measure 23
0001
0000
1000
0100
0000
0100
0010
0000
,  // measure 24
0001
0000
0001
0100
0000
0001
0100
0001
,  // measure 25
1000
0000
0100
0000
1000
0000
0100
0000
0010
0000
0001
0000
0010
0001
0000
0000
,  // measure 26
1000
0000
1000
0001
1000
0000
1100
0000
,  // measure 27
0001
0000
0001
1000
0001
0000
0101
0000
,  // measure 28
0001
0100
0001
0100
0010
1000
0010
1000
,  // measure 29
0001
1000
0001
1000
0100
0010
0001
0100
,  // measure 30
0000
0010
1000
0100
0000
0010
0001
0100
,  // measure 31
0000
0110
0000
1001
0000
0000
0000
0110
,  // measure 32
0000
0010
0100
1000
0000
1000
0100
0010
,  // measure 33
0000
0010
0001
1000
0000
1000
0100
0000
,  // measure 34
0010
0000
0001
1000
0010
0000
0100
0001
,  // measure 35
1000
0000
0100
0010
0001
1000
0001
0000
,  // measure 36
0200
0000
0310
1000
0010
0000
1000
0000
,  // measure 37
0200
0000
0310
0001
0010
0000
0001
0000
,  // measure 38
1001
0000
0001
1000
0000
0010
0100
0001
,  // measure 39
0000
0010
0100
1000
0000
0001
0000
0110
,  // measure 40
0000
0010
0100
0001
0000
0001
0100
0010
,  // measure 41
0000
0010
1000
0001
0000
0001
0100
0000
,  // measure 42
0001
0000
1000
0100
0010
0000
0001
0100
,  // measure 43
0010
0000
0100
0000
0010
0000
1000
0000
0001
0000
1000
0000
0001
1000
0000
0000
,  // measure 44
0100
0000
0010
0001
0000
0100
0000
1000
,  // measure 45
0000
0100
0000
0001
1000
0001
1000
0000
,  // measure 46
0100
0000
1000
0000
0010
0000
0100
0000
0001
0000
0010
0000
,  // measure 47
0100
1001
0000
0000
,  // measure 48
0001
0010
0001
0010
0100
1000
0001
0100
,  // measure 49
0010
0000
1000
0010
0100
0001
1000
0000
,  // measure 50
0001
0000
0000
0010
0000
0000
0100
0000
1000
0000
0000
0001
0000
0000
0100
0000
,  // measure 51
0000
0110
0000
0000
1001
1001
0000
0000
,  // measure 52
2000
0000
0000
0000
,  // measure 53
0000
0000
0000
3000
1100
0000
0000
0011
,  // measure 54
0000
0000
1100
0000
0000
0110
0000
0000
;

//---------------dance-single - ----------------
#NOTES:
     dance-single:
     :
     Medium:
     5:
     0.353,0.373,0.182,0.096,0.000:
0000
0000
0000
0000
,
0000
0000
0000
0000
,
0000
0000
0000
0000
,
0000
0000
0000
0000
,
0000
2002
0000
0000
0000
0000
3003
0000
,
0001
0100
0010
0100
,
1000
0000
0020
0000
0100
0100
0130
0000
,
1000
0100
0010
0100
,
0001
0010
0011
1010
,
1000
0010
0100
0010
,
0001
0000
0200
0000
0010
0010
0310
0000
,
0001
0100
0010
1000
,
0000
1100
0000
0000
0010
0001
0000
0000
,
1000
0001
0100
0001
,
1000
0000
0100
0000
0010
0000
0001
0100
,
0001
0000
1000
0000
0100
0000
1000
0010
,
0000
0000
0100
0001
0000
1001
0000
0000
,
0001
1000
0100
1000
,
0001
0000
0100
0000
0010
0000
1000
0100
,
0010
0000
0001
0000
0100
0000
0001
0010
,
0000
0100
1000
0010
0000
0000
0000
0000
,
0101
0000
0100
0001
0000
0000
1000
0000
,
1100
0000
0100
1000
0000
0000
0010
0000
,
0110
0000
0100
0010
0000
0000
0100
0000
,
0001
1000
0100
0000
1100
0000
0011
0000
,
0001
1000
0200
1300
,
1000
0001
0200
0301
,
1000
1000
0100
0100
,
0001
0000
0001
0000
0010
0000
0010
0100
,
0000
0001
1000
0001
0000
0010
0100
0010
,
0000
1001
0000
0110
0000
0000
0000
0000
,
0010
0000
1000
0000
0010
0000
1000
0001
,
0100
0000
0001
1000
0010
0000
0100
0000
,
0001
0000
0010
0000
0100
0000
0010
0001
,
1000
0100
0001
0100
,
1000
0000
0010
0200
0000
0000
0301
0000
,
0001
0000
0010
0200
0000
0000
1300
0000
,
0100
0000
0010
0001
0010
0000
0001
1000
,
0001
0000
0100
0001
0100
0000
0000
0000
,
0011
0000
0001
0000
0010
0000
0001
1000
,
0100
0000
1000
0001
0010
0000
0100
0000
,
0010
0000
0001
0100
0010
0000
1000
0000
,
0010
0000
0100
0001
0100
0001
1000
0000
,
1001
0000
0000
1000
0000
0100
0000
0010
,
0000
0100
0000
0001
0000
0000
1000
0000
,
0001
0010
0100
0010
,
1000
1001
0000
0000
,
0100
1000
0100
0010
0001
0000
0100
0000
,
0010
0000
0100
0001
0100
0010
1000
0000
,
1000
0100
0010
0001
,
0000
0101
0000
0000
0010
1000
0000
0000
,
2000
0000
0000
0000
,
0000
0000
0000
0000
3100
0000
0000
0010
,
0000
0000
0100
0000
0000
1001
0000
0000
;

//---------------dance-single - ----------------
#NOTES:
     dance-single:
     :
     Easy:
     3:
     0.231,0.287,0.225,0.075,0.000:
0000
0000
0000
0000
,
0000
0000
0000
0000
,
0000
0000
0000
0000
,
0000
0000
0000
0000
,
0000
1001
0000
0000
0000
0000
0000
0000
,
0010
0000
0100
0000
,
1000
0010
1000
0000
,
0010
0000
0100
0000
,
0001
0010
0001
0010
,
0100
0000
0010
0000
,
0001
0100
0001
0000
,
1000
0000
0001
0000
,
1001
0000
0110
0000
,
1001
0000
1000
0000
,
0010
0000
1000
0100
,
0010
0000
0100
0000
,
0010
0000
0110
0000
,
1001
0000
0001
0000
,
0010
0000
0001
0100
,
0010
0000
0001
0000
,
0100
0000
1000
0000
,
0001
0000
0001
0000
,
0001
0100
0001
0000
,
1000
0000
1000
0000
,
1000
0100
1000
0100
,
0020
0000
0031
0000
,
0200
0000
1300
0000
,
0010
1000
0010
1000
,
0010
1000
0010
0001
,
0000
0100
0000
1000
,
0001
1001
0000
0000
,
0101
0000
0101
0000
,
0100
0010
1000
0000
,
1010
0000
1010
0000
,
1000
0100
0010
0000
,
0002
0000
2000
3003
,
0200
0000
0020
0330
,
0011
0000
0110
0000
,
1100
0000
1001
0000
,
1010
0000
1000
0001
,
1000
0001
0100
0000
,
0101
0000
0001
0010
,
0001
0010
0100
0010
,
0100
0000
0001
0000
,
0010
0000
1000
0000
,
0100
0100
0100
1000
,
0001
1001
0000
0000
,
0001
0010
0100
0000
,
1000
0010
0100
0001
,
0010
0000
0100
0000
,
0110
0000
1001
0000
,
2000
0000
0000
0000
,
0000
0000
0000
0000
3001
0000
0000
0001
,
0000
0000
0001
0000
0000
1001
0000
0000
;

//---------------dance-single - ----------------
#NOTES:
     dance-single:
     :
     Beginner:
     2:
     0.165,0.201,0.096,0.000,0.000:
0000
0000
0000
0000
,
0000
0000
0000
0000
,
0000
0000
0000
0000
,
0000
0000
0000
0000
,
0000
1001
0000
0000
0000
0000
0000
0000
,
0000
0001
0000
0010
,
0000
0001
0000
0001
,
0000
1000
0000
0100
,
0000
1000
1000
1000
,
0000
0001
0000
0100
,
0000
0001
0000
0001
,
0001
0000
1000
0000
,
0000
0000
0110
0000
,
1000
0000
0001
0000
,
1000
0000
0100
0000
,
0100
0000
0000
0000
,
0100
0000
0010
0000
,
0001
0000
1000
0000
,
0001
0000
0100
0000
,
0100
0000
0000
0100
,
0000
0010
0000
0000
,
1000
0000
1000
0000
,
0001
0000
0001
0000
,
0100
0000
0010
0000
,
0010
0010
0010
0000
,
0001
0000
0001
0000
,
1000
0000
1000
0000
,
0010
0000
0010
0000
,
0100
0000
0010
0010
,
0000
0001
0000
0010
,
0000
0100
0100
0000
,
1000
0000
1000
0000
,
0100
0100
0100
0000
,
0001
0000
0001
0000
,
0100
0100
0100
0000
,
1000
0000
0000
0000
,
0001
0000
0000
0010
,
0000
0010
0000
0100
,
0000
0100
0000
0000
,
1000
0000
1000
0000
,
0010
0010
0010
0000
,
0001
0000
0001
0000
,
0100
0000
0010
0010
,
0010
0000
0001
0000
,
0100
0000
0010
0000
,
1001
0000
0000
0000
,
1001
1001
0000
0000
,
0001
0000
0100
0000
,
0010
0000
1000
1000
,
1000
0000
0010
0000
,
0100
0000
0110
0000
,
1000
0000
0000
0000
,
0000
0000
1001
0000
,
0000
1001
0000
1001
;
