#TITLE:Shotgun Kiss (vegas palace);
#SUBTITLE:[F-ZERO GX];
#ARTIST:Hidenori Shoji;
#TITLETRANSLIT:;
#SUBTITLETRANSLIT:;
#ARTISTTRANSLIT:;
#CREDIT:Kewing;
#BANNER:Shotgun Kiss (vegas palace).png;
#BACKGROUND:Shotgun Kiss (vegas palace)-bg.png;
#LYRICSPATH:;
#CDTITLE:!Kewing v3 (cdtitle).png;
#MUSIC:Shotgun Kiss (vegas palace).ogg;
#OFFSET:-0.537;
#SAMPLESTART:20.732;
#SAMPLELENGTH:10.160;
#SELECTABLE:YES;
#BPMS:0.000=189.980,27.500=94.990,28.250=47.495,29.000=189.980,248.500=94.990,249.250=47.495,250.000=189.990;
#STOPS:;
#BGCHANGES:;

//---------------dance-single - ----------------
#NOTES:
     dance-single:
     :
     Hard:
     9:
     0.554,0.558,0.301,0.120,0.013:
0000
0000
0000
0000
,
0000
0000
0000
0000
,
0000
0000
0000
0000
,
0000
0000
0000
0000
,
0000
0000
0000
0000
,
0000
0000
0000
0000
,
0000
0000
0000
0000
0000
0000
0001
0200
,
0000
0000
0000
0000
0000
0000
0000
0300
1010
0000
0000
0000
0000
0000
0000
0000
0001
0000
0000
0000
0100
0000
0000
0000
0000
0000
0000
0000
0001
0000
0000
0000
,
0010
0000
1100
0000
1000
0100
0010
0001
,
0100
0010
1000
0000
0001
0100
0000
0001
,
0010
1100
0100
0110
,
0010
0000
0011
0000
1000
0100
0000
1000
,
0010
0000
0101
0000
0010
1000
0100
0000
,
0010
0000
0011
0000
1000
0100
0000
1000
,
0010
0000
0100
1000
0100
0010
0100
0001
,
0010
0100
1000
0000
0100
0010
0000
0100
,
0001
0100
1000
0000
0001
0100
0000
0100
,
0001
0000
1010
0000
0010
0100
0000
0010
,
0001
0010
1000
0000
0001
0000
0001
1000
,
0100
0010
0001
0000
0100
0010
0000
0100
,
1000
0100
0001
0000
1000
0100
0000
0100
,
1000
0000
0011
0000
0010
0100
0000
0010
,
1000
0010
0001
0000
0001
0000
1000
0010
,
0100
0000
0001
1000
0001
0010
0100
0020
,
0000
1030
0000
0010
0001
0010
0000
0001
,
0100
0000
0010
1000
0001
1000
0000
0100
,
0000
0001
0000
0100
1000
0100
0000
1000
,
0010
0000
1000
0001
1000
0010
0100
0020
,
0000
0031
0000
0010
1000
0010
0000
1000
,
0100
0000
0010
0001
1000
0001
0000
0100
,
0000
1000
0000
0100
0001
0100
0000
0001
,
0010
0000
0110
0000
0000
1000
0001
0000
,
0000
0000
0000
0000
1000
0000
0100
0001
,
0100
0000
0010
0000
0000
0001
1000
0000
,
0000
0000
0000
0000
0001
0000
0100
0010
,
0000
0000
0100
0000
0000
0001
1000
0000
,
0000
0000
0000
0000
0001
0000
0100
1000
,
0100
0000
0010
0000
0000
1000
0001
0000
,
0010
0001
0000
0100
0000
0010
1000
0010
,
0100
0000
0001
0010
0100
0010
0001
0010
,
1000
0020
0000
0031
1000
0010
0000
0001
,
0010
0000
1000
0100
0010
0100
0000
1000
,
0001
0100
0000
1000
0100
0001
0000
0010
,
0001
0000
1000
0010
0100
0010
1000
0010
,
0001
0020
0000
1030
0001
0010
0000
1000
,
0010
0000
0001
0100
0010
0100
0001
1000
,
0100
0001
0100
0010
0001
1000
0010
0100
,
0010
0000
1001
0000
0000
0001
0000
0000
,
1000
0000
0000
0000
0000
0000
0100
0000
0000
0010
0000
0000
0001
0000
0000
0100
,
0000
0000
0010
0000
0000
1000
0000
0000
0200
0000
0000
0000
0000
0000
0000
0000
,
0000
0000
0300
0000
0000
1000
0001
0000
,
0100
0000
0020
0000
0000
0230
0000
0000
,
0010
0000
0300
0000
0010
0000
1000
0001
,
0000
0000
0020
0000
0000
1000
0000
0000
,
0100
0000
0000
0000
0000
0001
0031
0000
,
0100
0000
0010
0000
0000
0001
0000
0000
,
1000
0000
0000
0000
0000
0100
0010
0000
,
1000
0000
0100
0000
0000
0001
0000
0000
,
1000
0000
0000
0000
0000
0010
0100
0000
,
1000
0000
0010
0000
0000
0001
0000
0000
,
1000
0000
0000
0000
0000
0100
0010
0000
,
1000
0000
0001
0000
0000
0100
0000
0000
,
0001
0000
0020
0000
0000
0000
0000
0030
1100
0000
0000
0000
1000
0000
1000
0000
,
0100
0100
0001
0100
0010
0000
0100
1000
,
0010
0100
0000
0100
0101
0000
0001
0001
,
0100
0100
1000
0100
0010
0000
0100
0001
,
0010
0100
0000
0100
1100
0000
0100
0100
,
0010
0010
1000
0010
0001
0000
0010
0100
,
1000
0010
0000
0100
0101
0000
0100
0100
,
0010
0010
0001
0010
1000
0000
0010
0100
,
0001
0010
0100
0000
1001
0000
0010
0000
,
0100
0010
0001
0010
1000
0000
0100
0000
,
1000
0010
0100
0000
0101
0000
0001
0000
,
0010
0100
1000
0100
0000
0101
0000
1100
,
0000
0100
0010
0000
1001
0000
0010
0000
,
0100
0010
1000
0010
0001
0000
0100
0000
,
0001
0010
0100
0000
1100
0000
1000
0000
,
0010
0100
0001
0100
0000
1100
0000
0101
,
0000
0100
0010
0000
1010
0000
0010
0000
,
0001
0010
0100
0010
2000
0000
3200
0000
,
0301
0101
1100
1000
,
0001
0100
0010
1000
0000
1100
0000
0101
,
0000
0100
0010
0000
0011
0000
0010
0000
,
1000
0010
0100
0010
0002
0000
0203
0000
,
1300
1100
0101
0001
,
1000
0100
0010
0110
0000
0110
0000
0110
,
0000
0010
0100
0000
1001
0000
0000
0000
;

//---------------dance-single - ----------------
#NOTES:
     dance-single:
     :
     Medium:
     7:
     0.411,0.447,0.138,0.060,0.000:
0000
0000
0000
0000
,
0000
0000
0000
0000
,
0000
0000
0000
0000
,
0000
0000
0000
0000
,
0000
0000
0000
0000
,
0000
0000
0000
0000
,
0000
0000
0000
0000
0000
0000
0000
0002
,
0000
0000
1003
0000
0000
0100
0000
0000
,
1000
1100
0010
0001
,
1000
0000
0001
0000
0000
0100
0000
0000
,
0001
0101
0010
1000
,
0001
0000
1000
0000
0000
0100
0000
0000
,
1000
1001
0100
0010
,
1000
0000
0001
0000
0000
0100
0000
0000
,
0001
1001
0010
0100
,
1000
0010
0001
0010
,
1000
0001
1000
0000
0010
0000
0100
0000
,
0001
0010
1000
0010
,
0001
1000
0001
0000
0100
0000
0010
0000
,
0001
1000
0100
0001
,
1000
0010
1000
0000
0100
0000
0010
0000
,
1000
0001
0100
1000
,
0001
0100
0002
0000
1000
0000
2000
0000
,
3003
0000
1000
0100
0000
0010
0001
0010
,
0000
0100
0000
1000
0000
0010
0000
0100
,
0000
0000
0001
0100
0000
0010
0000
1000
,
0000
0001
0000
1000
0000
0100
0000
0010
,
0000
0000
0001
0100
0000
0010
1000
0010
,
0000
0100
0000
0001
0000
0010
0000
0100
,
0000
0000
1000
0100
0000
0010
0000
0001
,
0000
1000
0000
0001
0000
0100
0000
0010
,
0000
0100
0000
0001
,
0000
0000
1000
0100
,
1000
0001
0000
0100
,
0000
0000
0000
0000
0100
0000
0001
1000
,
0000
0100
0000
1000
,
0000
0000
0001
0100
,
0001
1000
0000
0100
,
0000
0010
0000
0000
0100
0000
0100
0000
,
0100
0000
0100
1000
0000
0001
0100
0010
,
0000
0001
0000
0010
0000
1000
0000
0010
,
1000
0000
0100
1000
0000
0100
0000
0001
,
0000
0100
0000
1000
0000
0001
0000
1000
,
0010
0000
0100
0001
0000
1000
0100
0010
,
0000
1000
0000
0010
0000
0001
0000
0010
,
0001
0000
0100
0000
0001
0000
0010
0001
,
0100
0000
0010
1000
0100
0000
0001
0100
,
1000
0000
1001
0000
0000
1000
0000
0000
,
0010
0000
0000
0000
0000
0100
0000
0000
,
0001
0000
1000
0000
0000
0001
0000
0000
,
0010
0000
0000
0100
,
0000
0000
2000
0000
0000
3002
0000
0000
,
0000
0000
0003
0000
0100
0000
0001
1000
,
0000
0020
0000
0000
,
0000
0000
0000
0130
,
0000
0000
0001
0000
0000
1000
0000
0000
,
0100
0000
0000
0001
,
0100
0000
1000
0000
0000
0001
0000
0000
,
0100
0000
0000
0000
0000
0010
0100
0000
,
0001
0000
1000
0000
0000
0001
0000
0000
,
0100
0000
0000
1000
,
0100
0000
0001
0000
0000
0010
0000
0000
,
0000
0002
0000
0000
1003
0000
0001
0000
,
1000
0100
0010
0000
0100
0000
0010
0001
,
0000
0001
0100
0000
0001
0000
1000
0000
,
0001
0100
0010
0000
0100
0000
0010
1000
,
0000
1000
0100
0000
1000
0000
0001
0000
,
1000
0010
0100
0000
1000
0000
0100
0001
,
0000
0001
0010
0000
0001
0000
1000
0000
,
0001
0010
0100
0000
0001
0000
0100
1000
,
0000
1000
0010
0000
0110
0000
0010
0000
,
1000
0001
0010
0000
0011
0000
0001
0000
,
1000
0010
1010
0010
,
0100
0000
0001
0010
0000
1000
0000
0010
,
0000
0001
1000
0000
0110
0000
0100
0000
,
1000
0001
0100
0000
0101
0000
0001
0000
,
1000
0100
1100
0100
,
0010
0000
0001
0100
0000
1000
0000
0100
,
0000
0001
1000
0000
1100
0000
0100
0000
,
0010
0001
0010
0001
0100
0000
0010
0000
,
1000
0100
0011
0010
,
0001
0100
0001
1000
0000
0010
0000
0100
,
0000
0001
0010
0000
0101
0000
0100
0000
,
0010
1000
0010
1000
0100
0000
0010
0000
,
0001
0100
1010
0010
,
1000
0100
1000
0001
0000
0001
0000
0001
,
0000
0100
0010
0000
1001
0000
0000
0000
;

//---------------dance-single - ----------------
#NOTES:
     dance-single:
     :
     Easy:
     5:
     0.294,0.335,0.120,0.026,0.000:
0000
0000
0000
0000
,
0000
0000
0000
0000
,
0000
0000
0000
0000
,
0000
0000
0000
0000
,
0000
0000
0000
0000
,
0000
0000
0000
0000
,
0000
0000
0000
0000
,
0000
1000
0001
0100
,
0001
2000
0000
3002
,
0000
1003
0001
0010
,
0001
1000
0000
0100
,
0000
0010
0001
0100
,
0001
0010
0000
0001
,
0000
0100
0001
0010
,
0001
0100
0010
1000
,
0100
0010
0001
1000
,
0010
0110
0000
1000
,
0000
0010
1000
0001
,
0010
0110
0000
0001
,
0000
0100
0001
0010
,
0100
0110
0000
1000
,
0000
0100
1000
0010
,
0100
0001
1000
0001
,
0000
1000
0100
0100
,
0010
0001
0000
1000
,
0000
0001
0010
0010
,
0100
1000
0000
0010
,
0000
0100
0001
0001
,
0010
0100
0000
1000
,
0000
0010
1000
1000
,
0100
0010
0000
0001
,
0000
1001
0000
0100
,
0000
0000
0000
1000
,
0000
0100
0000
0001
,
0000
0000
1000
0001
,
0000
1000
0000
0100
,
0000
0000
0000
0001
,
0000
0100
0000
0100
,
0000
0010
0000
0010
,
0000
0001
0100
0100
,
0001
0010
0010
0100
,
0000
1000
0010
0010
,
1000
0100
0100
0010
,
0000
0001
0100
0100
,
0010
1000
1000
0100
,
0000
0010
0100
0100
,
1000
0001
0001
0100
,
0010
1001
0000
0000
,
0000
1000
0000
0100
,
0000
0001
0000
0000
,
0000
0000
0000
0001
,
0000
0010
0000
1000
,
0000
0000
0001
0001
,
0000
0020
0000
0000
,
0000
0000
0000
0000
,
0030
0010
0000
0100
,
0000
1000
0000
0100
,
0000
0010
0000
0001
,
0000
0100
0000
0100
,
0100
0100
0000
0010
,
0000
0100
0000
0001
,
0000
0100
0000
0010
,
0000
1000
0000
0000
0001
0000
1000
0000
,
1000
1000
0100
0010
,
0000
0010
0000
0000
0001
0000
1000
0000
,
1000
1000
0010
0100
,
0000
0100
0000
0000
0001
0000
0010
0000
,
0010
0010
0001
0100
,
0000
0100
0000
0000
0010
0000
1000
0000
,
1000
1000
0100
0010
,
0000
0010
0000
0000
1001
0000
0000
0000
,
0001
0100
0010
0000
,
1000
0000
0101
0000
,
0100
0001
0010
0100
,
1000
0001
1001
0000
,
1000
0100
0010
0000
,
0001
0000
1100
0000
,
1000
0010
0100
0001
,
0010
0100
0110
0000
,
1000
0001
0100
0001
,
0000
0010
0011
0000
,
0001
0100
0010
0100
,
0001
0010
0110
0000
,
0001
1000
0100
1000
,
0000
0010
1010
0000
,
0100
0000
0000
0001
0000
1000
0000
0001
,
0000
0010
0110
0000
;

//---------------dance-single - ----------------
#NOTES:
     dance-single:
     :
     Beginner:
     2:
     0.184,0.298,0.034,0.000,0.000: // measure 1
0000
0000
0000
0000
,  // measure 2
0000
0000
0000
0000
,  // measure 3
0000
0000
0000
0000
,  // measure 4
0000
0000
0000
0000
,  // measure 5
0000
0000
0000
0000
,  // measure 6
0000
0000
0000
0000
,  // measure 7
0000
0000
0000
0000
,  // measure 8
0000
1000
0000
0100
,  // measure 9
0000
0010
0000
0000
,  // measure 10
0000
0001
0000
0100
,  // measure 11
0000
0010
0000
0000
,  // measure 12
0000
1000
0000
0001
,  // measure 13
0000
0100
0000
0000
,  // measure 14
0000
0001
0000
1000
,  // measure 15
0000
0100
0000
0010
,  // measure 16
0000
1001
0000
0010
,  // measure 17
0000
0100
0000
0000
,  // measure 18
0000
1000
0000
0010
,  // measure 19
0000
0100
0000
0000
,  // measure 20
0000
0010
0000
1000
,  // measure 21
0000
0100
0000
0000
,  // measure 22
0000
0010
0000
0001
,  // measure 23
0000
0100
0000
0000
,  // measure 24
0000
0001
0000
1000
,  // measure 25
0000
0001
0000
0100
,  // measure 26
0000
0001
0000
1000
,  // measure 27
0000
0001
0000
0010
,  // measure 28
0000
0100
0000
1000
,  // measure 29
0000
0100
0000
0001
,  // measure 30
0000
0100
0000
0010
,  // measure 31
0000
0100
0000
1000
,  // measure 32
0000
0001
0000
0000
,  // measure 33
0000
0000
0000
0100
,  // measure 34
0000
0100
0000
0000
,  // measure 35
0000
0000
0000
0010
,  // measure 36
0000
0010
0000
0000
,  // measure 37
0000
0000
0000
0000
,  // measure 38
0000
1000
0000
0001
,  // measure 39
0000
0000
0001
0000
,  // measure 40
0001
0001
0000
1000
,  // measure 41
0000
0010
0000
0100
,  // measure 42
0000
0001
0000
1000
,  // measure 43
0000
0100
0000
0010
,  // measure 44
0000
0001
0000
1000
,  // measure 45
0000
0001
0000
0100
,  // measure 46
0000
1000
0000
0100
,  // measure 47
0000
0010
0000
1000
,  // measure 48
0000
1001
0000
0000
,  // measure 49
0000
0001
0000
0000
,  // measure 50
0000
1000
0000
0000
,  // measure 51
0000
0100
0000
0010
,  // measure 52
0000
0010
0000
0000
,  // measure 53
0000
0000
0001
0001
,  // measure 54
0000
1000
0000
0000
,  // measure 55
0000
0000
0000
0000
,  // measure 56
0000
1000
0000
0000
,  // measure 57
0000
0010
0000
0000
,  // measure 58
0000
0100
0000
0000
,  // measure 59
0000
0001
0000
1000
,  // measure 60
0000
0100
0000
0000
,  // measure 61
0000
0010
0000
0000
,  // measure 62
0000
0001
0000
0100
,  // measure 63
0000
0000
0001
0000
,  // measure 64
1000
0000
0001
0001
,  // measure 65
0001
0000
0010
0000
,  // measure 66
0001
0000
0100
0100
,  // measure 67
0100
0000
0010
0000
,  // measure 68
1000
0000
0100
0100
,  // measure 69
0100
0000
0010
0000
,  // measure 70
0001
0000
1000
1000
,  // measure 71
1000
0000
0001
0000
,  // measure 72
0100
0100
0100
0000
,  // measure 73
0010
0000
1000
0000
,  // measure 74
0001
0001
0001
0000
,  // measure 75
0010
0000
0100
0000
,  // measure 76
1000
1000
1000
0000
,  // measure 77
0010
0000
0100
0000
,  // measure 78
0001
0001
0001
0000
,  // measure 79
0010
0000
1000
0000
,  // measure 80
0010
0010
0010
0000
,  // measure 81
0001
0000
0100
0000
,  // measure 82
0010
0010
0010
0000
,  // measure 83
0001
0000
0010
0000
,  // measure 84
1000
1000
1000
0000
,  // measure 85
0001
0000
1001
0000
,  // measure 86
0100
0100
0100
0100
,  // measure 87
0100
0000
1001
0000
;
