#TITLE:Second Heaven;
#SUBTITLE:;
#ARTIST:Ryu☆;
#TITLETRANSLIT:;
#SUBTITLETRANSLIT:;
#ARTISTTRANSLIT:;
#CREDIT:Mr. Kewing;
#BANNER:Second Heaven.png;
#BACKGROUND:Second Heaven-bg.png;
#LYRICSPATH:;
#CDTITLE:!Kewing (cdtitle);
#MUSIC:Second Heaven.ogg;
#OFFSET:0.000;
#SAMPLESTART:59.600;
#SAMPLELENGTH:15.000;
#SELECTABLE:YES;
#DISPLAYBPM:149.000;
#BPMS:0.000=149.378,4.000=148.996;
#STOPS:;
#BGCHANGES:0.000=Second Heaven.avi=1.000=0=0=0,
284.000=Second Heaven-bg.png=1.000=0=0=1,
99999=-nosongbg-=1.000=0=0=0 // don't automatically add -songbackground-
;

//---------------dance-single - Challenge----------------
#NOTES:
     dance-single:
     Challenge:
     Challenge:
     13:
     0.570,0.685,0.268,0.101,0.117: // measure 1
0000
0000
0000
0000
,  // measure 2
0000
0000
0000
0000
,  // measure 3
1000
0010
0000
0100
0000
0010
1000
0100
,  // measure 4
0000
0001
0100
0010
0000
0001
0100
0010
,  // measure 5
0000
0100
0000
0010
0000
0100
0001
0010
,  // measure 6
0000
1000
0010
0100
0000
1000
0010
0100
,  // measure 7
0010
0101
0000
0001
0000
1000
0000
0100
,  // measure 8
0010
1100
0000
0100
0000
0010
0000
0001
,  // measure 9
1000
0101
0000
1000
0001
1100
0000
0001
,  // measure 10
0110
0110
0000
0000
0000
0000
0000
0000
,  // measure 11
2002
0000
0000
0000
,  // measure 12
0000
0000
0000
0000
0000
0000
0000
3003
,  // measure 13
0001
0000
1000
0000
0001
0100
0000
0100
,  // measure 14
0001
1000
0100
0001
0000
0100
0010
0000
,  // measure 15
0001
1000
0010
0000
0010
0000
0100
0001
,  // measure 16
0000
0001
0010
0000
1000
0000
0010
0001
,  // measure 17
1000
0000
0001
0000
1000
0100
0000
0100
,  // measure 18
1000
0001
0100
1000
0000
0100
0001
0000
,  // measure 19
1000
0001
0010
0000
0011
0000
0100
1000
,  // measure 20
0000
1000
0010
0000
0110
0000
0100
0000
,  // measure 21
0001
1000
0100
0001
0000
1000
0100
0001
,  // measure 22
0000
1000
0100
0010
1000
0010
0001
0100
,  // measure 23
0000
0001
0100
1000
0000
0001
0100
1000
,  // measure 24
0010
0100
0001
0010
0100
0000
1000
0000
,  // measure 25
1001
0000
0100
0001
0010
0000
0100
0000
,  // measure 26
1001
0000
0100
1000
0010
0100
0001
0000
,  // measure 27
1010
1000
1001
1000
,  // measure 28
1100
0110
0011
0101
,  // measure 29
0220
0000
0000
0000
0000
0000
0000
0330
,  // measure 30
0010
0000
0001
0000
0010
0000
1000
0001
1000
0000
0100
0000
0010
0000
0000
0000
,  // measure 31
0010
0000
1000
0000
0010
0000
0001
1000
0001
0000
0100
0000
1000
0000
0100
0000
,  // measure 32
0010
0000
0100
0000
0001
0000
0010
0100
0010
0000
0001
0000
1000
0000
0010
0100
,  // measure 33
0001
1000
0001
0010
0200
0000
0010
0300
,  // measure 34
0010
0000
1000
0000
0010
0000
0001
1000
0001
0000
0100
0000
0010
0000
0000
0000
,  // measure 35
0010
0000
0001
0000
0010
0000
1000
0001
1000
0000
0100
0000
0010
0000
0100
0000
,  // measure 36
0001
0000
0100
0000
1000
0000
0010
0100
0010
0000
1000
0000
0001
0000
0010
0100
,  // measure 37
1000
0001
1000
0010
0200
0000
0010
0300
,  // measure 38
0010
1000
0100
1000
0001
0100
0000
0100
,  // measure 39
0001
0010
0100
0001
0100
1000
0001
0000
,  // measure 40
0001
0100
0001
0010
0100
1000
0000
1000
,  // measure 41
0010
0001
0010
0100
0001
0000
1000
0100
,  // measure 42
0010
0001
0100
0001
1000
0100
0000
0100
,  // measure 43
1000
0010
0100
1000
0100
0001
0010
0000
,  // measure 44
0010
0100
1000
0010
0100
0001
0000
0001
,  // measure 45
0010
1000
0010
0100
1000
0000
0001
0000
,  // measure 46
0010
0100
1000
0010
1000
0100
1000
0010
,  // measure 47
0000
0001
0010
0100
0000
0001
0010
0100
,  // measure 48
0000
0010
0001
0100
0001
0010
0001
0100
,  // measure 49
0000
1000
0100
0010
0000
1000
0100
0010
,  // measure 50
1100
1000
0000
0001
0000
0100
0000
0010
,  // measure 51
0101
0001
0000
1000
0000
0001
0000
0010
,  // measure 52
1100
0001
0000
0010
0101
1000
0000
0001
,  // measure 53
0110
0110
0000
0000
0000
0000
0000
0000
,  // measure 54
0010
0001
0010
1000
1001
0001
0010
0000
,  // measure 55
0100
1000
0010
0100
0110
0000
1001
0000
,  // measure 56
0010
1000
0010
0001
1001
1000
0010
0000
,  // measure 57
0100
0001
0010
0100
0220
0000
0000
0330
,  // measure 58
0100
0000
1000
0010
0000
0010
1000
0000
0100
0000
0010
0000
0001
0000
0000
0000
,  // measure 59
0100
0000
0001
0010
0000
0010
0001
0000
0100
0000
0010
0000
1000
0000
0001
1000
,  // measure 60
0001
0000
1000
0100
1000
0000
0100
0010
0100
0000
0010
0001
0010
0000
0001
1000
,  // measure 61
0001
0000
0100
0000
0100
0000
0100
0000
1000
0000
0100
0000
0010
1000
0001
1000
,  // measure 62
0002
0000
0000
0000
,  // measure 63
2000
0000
0000
0000
0000
0000
0000
3003
,  // measure 64
0100
0000
0001
0000
0100
0000
1000
0010
1000
0000
0001
0000
0010
0000
0100
1000
,  // measure 65
0100
0000
0001
0000
0100
0000
1000
0001
1000
0000
0010
0000
0100
0000
0010
0000
,  // measure 66
0001
0000
0010
0000
1000
0000
0001
0010
0001
0000
0100
0000
0010
0000
1000
0100
,  // measure 67
0010
0001
1000
0001
0200
0000
0000
0300
,  // measure 68
1010
0000
0010
0000
1000
0000
0100
0000
0011
0000
0010
0000
0001
0000
0100
0010
,  // measure 69
1000
0000
0100
0000
0010
0001
0100
0000
1000
0000
0100
0000
0010
0000
0100
0000
,  // measure 70
0001
0000
0010
0000
0100
1000
0010
0000
0001
0000
0010
0000
0100
0001
0010
0000
,  // measure 71
1000
0010
0001
0100
0020
0000
0000
0030
,  // measure 72
1001
0000
0000
0000
;
