#TITLE:SONIC SPEED RIDERS;
#SUBTITLE:;
#ARTIST:澤田朋伯 feat. runblebee;
#TITLETRANSLIT:;
#SUBTITLETRANSLIT:;
#ARTISTTRANSLIT:Tomonori Sawada feat. runblebee;
#CREDIT:Kewing Darksun;
#BANNER:SONIC SPEED RIDERS.png;
#BACKGROUND:SONIC SPEED RIDERS-bg.png;
#LYRICSPATH:;
#CDTITLE:!Kewing DarkSun (cdtitle).png;
#MUSIC:SONIC SPEED RIDERS.mp3;
#OFFSET:-0.580;
#SAMPLESTART:22.560;
#SAMPLELENGTH:14.340;
#SELECTABLE:YES;
#BPMS:0.000=139.002;
#STOPS:;
#BGCHANGES:2.000=SONIC SPEED RIDERS.avi=1.000=1=0=1
,225.000=SONIC SPEED RIDERS-bg.png=1.000=0=0=1
;

//---------------dance-single - ----------------
#NOTES:
     dance-single:
     :
     Hard:
     7:
     0.453,0.452,0.211,0.080,0.000: // measure 1
0000
0000
0000
0000
,  // measure 2
0000
0000
0000
0000
,  // measure 3
0000
0000
0000
0000
,  // measure 4
0000
0000
0000
0000
,  // measure 5
0000
0000
0000
0000
,  // measure 6
1000
0100
1000
0000
0100
0000
0001
0100
,  // measure 7
0001
0100
0100
0010
,  // measure 8
0001
1000
0001
0000
1000
0000
0100
0010
,  // measure 9
0100
1000
0010
0100
,  // measure 10
0001
0100
0001
0000
0100
0000
1000
0100
,  // measure 11
1000
0100
0100
0010
,  // measure 12
1000
0001
1000
0000
0001
0000
0100
0010
,  // measure 13
0100
0000
0001
0000
0010
0001
0100
0010
,  // measure 14
1000
0000
0100
0000
0010
0000
0010
0100
,  // measure 15
0000
1000
0000
0020
0000
0130
0001
1000
,  // measure 16
0100
0000
1100
0000
0100
0001
0100
0000
,  // measure 17
1000
0000
0101
0000
0100
1000
0100
0000
,  // measure 18
0001
0010
0100
1000
0010
0000
0010
1000
,  // measure 19
0000
0001
0000
0020
0000
0130
1000
0001
,  // measure 20
0100
0101
0100
0110
,  // measure 21
0010
1010
0010
0110
,  // measure 22
1001
0000
0001
1000
0000
0010
0100
0001
,  // measure 23
0000
0010
0100
0010
0000
0010
0100
1000
,  // measure 24
0000
0010
0100
0010
0000
0010
0100
0001
,  // measure 25
1000
0000
0110
0000
0010
0000
1000
0100
,  // measure 26
0000
0010
0100
1000
0000
0100
0010
0001
,  // measure 27
0000
0010
0001
1000
0000
0010
0100
0001
,  // measure 28
0000
0100
0010
1000
0000
0010
1000
0001
,  // measure 29
0010
0220
0330
0001
,  // measure 30
1000
0001
0100
0000
0010
1000
0010
0000
,  // measure 31
0100
0001
0100
0000
0001
1000
0100
0010
,  // measure 32
0100
1000
0001
0000
0010
0001
0010
0000
,  // measure 33
0100
1000
0100
0000
1000
0001
0100
0010
,  // measure 34
0100
0001
1000
0000
0001
0010
0100
0000
,  // measure 35
1000
0100
0010
0000
0001
0010
1000
0010
,  // measure 36
0001
0010
0100
0000
1000
0010
0100
0000
,  // measure 37
0001
0100
0010
0000
1000
0001
0010
0100
,  // measure 38
0110
0000
1001
0000
1000
0000
0010
0100
,  // measure 39
0000
0001
0000
0020
0000
0130
1000
0010
,  // measure 40
0100
0000
0101
0000
0001
0100
0101
0000
,  // measure 41
1000
0000
1100
0000
1000
0100
1100
0000
,  // measure 42
0100
1000
0010
0100
0001
0000
0100
0010
,  // measure 43
1000
0000
0001
0020
0000
0130
1000
0001
,  // measure 44
1000
0110
0010
1001
,  // measure 45
0100
0000
0110
0000
0010
0000
1001
1000
,  // measure 46
0000
0001
0100
0001
0000
0100
0010
0100
,  // measure 47
0000
1000
0100
0001
0000
1000
0100
1000
,  // measure 48
0000
0100
0010
0100
0000
0001
0100
1000
,  // measure 49
0001
0000
0110
0000
0100
0010
0100
0001
,  // measure 50
0000
1000
0100
0001
0000
0100
0010
0001
,  // measure 51
0000
0001
0100
1000
0000
0100
0010
1000
,  // measure 52
0100
0010
0001
1000
0100
1000
0000
0100
,  // measure 53
0001
0100
1000
0001
0100
0001
0000
0100
,  // measure 54
1000
0100
0001
1000
0100
1000
0010
0100
,  // measure 55
0010
1000
0001
0010
1000
0010
0001
1000
,  // measure 56
2002
0000
0000
0000
,  // measure 57
0000
3003
0000
0000
;

//---------------dance-single - ----------------
#NOTES:
     dance-single:
     :
     Medium:
     6:
     0.415,0.395,0.241,0.271,0.000: // measure 1
0000
0000
0000
0000
,  // measure 2
0000
0000
0000
0000
,  // measure 3
0000
0000
0000
0000
,  // measure 4
0000
0000
0000
0000
,  // measure 5
0000
0000
0000
0000
,  // measure 6
1100
0100
1000
0001
,  // measure 7
0100
0000
0001
0000
0010
0000
0001
1000
,  // measure 8
0100
1000
0010
0100
,  // measure 9
0001
0000
0010
0000
0100
0000
1000
0001
,  // measure 10
0100
0100
0001
1000
,  // measure 11
0100
0000
1000
0000
0010
0000
1000
0001
,  // measure 12
0100
0001
0010
0100
,  // measure 13
1000
0000
0010
0000
0100
0000
0001
1000
,  // measure 14
0100
0000
0012
0000
0013
0000
0000
0002
,  // measure 15
0000
0013
0000
0200
0000
1300
0020
0000
,  // measure 16
0130
1000
0010
0001
,  // measure 17
0100
1000
0010
0001
,  // measure 18
1001
0000
0010
1000
0020
0000
0030
2000
,  // measure 19
0000
3010
0000
0200
0000
0301
0000
0000
,  // measure 20
1000
1001
0001
1001
,  // measure 21
0100
0110
0010
0110
,  // measure 22
0110
0000
0100
0100
0000
0000
0001
0001
,  // measure 23
0000
0000
0100
0100
0000
0000
1000
1000
,  // measure 24
0000
0000
0001
0001
0000
0000
0100
0100
,  // measure 25
0010
0000
1002
0000
0000
0000
1003
1000
,  // measure 26
0000
0000
0010
0010
0000
0000
0001
0001
,  // measure 27
0000
0000
0100
0100
0000
0000
1000
1000
,  // measure 28
0000
0000
0001
0001
0000
0000
0010
0010
,  // measure 29
0100
2002
0000
3003
,  // measure 30
0002
0000
1003
0000
0100
1000
0100
0000
,  // measure 31
2000
0000
3001
0000
0100
0001
0100
0000
,  // measure 32
0020
0000
1030
0000
1000
0010
0100
0000
,  // measure 33
0001
0100
0010
0000
0010
1000
0001
0000
,  // measure 34
0002
0000
0013
0000
0100
1000
0100
0000
,  // measure 35
2000
0000
3010
0000
0100
0001
0100
0000
,  // measure 36
0002
0000
0013
0000
0001
0010
0100
0000
,  // measure 37
1000
0100
0010
0000
0010
0001
1000
0001
,  // measure 38
0100
0000
2010
0000
3010
0000
0010
2000
,  // measure 39
0000
3010
0000
0200
0000
0301
1000
0000
,  // measure 40
0100
1100
0001
0101
,  // measure 41
1000
1010
0001
0011
,  // measure 42
1001
0000
0010
1000
0010
0000
0100
0001
,  // measure 43
1000
0000
0100
0020
0000
0031
0000
0001
,  // measure 44
0100
1100
0100
0101
,  // measure 45
0010
1010
0010
0011
,  // measure 46
0000
0001
0100
0100
0000
0010
1000
1000
,  // measure 47
0000
1000
0100
0100
0000
0010
0001
0001
,  // measure 48
0000
0100
0010
0010
0000
1000
0100
0100
,  // measure 49
0010
0000
0012
0000
1000
0000
0103
0100
,  // measure 50
0000
0010
0100
0001
0000
0001
1000
0100
,  // measure 51
0000
0010
0100
1000
0000
0010
0100
0001
,  // measure 52
1000
0000
1000
0001
1000
0100
0000
0022
,  // measure 53
0000
0033
0001
1000
0001
0100
0000
2020
,  // measure 54
0000
3030
0010
1000
0100
0010
0000
0010
,  // measure 55
0001
0100
0010
1000
0100
0010
0001
1000
,  // measure 56
2002
0000
0000
0000
,  // measure 57
0000
3003
0000
0000
;

//---------------dance-single - ----------------
#NOTES:
     dance-single:
     :
     Easy:
     4:
     0.333,0.395,0.301,0.382,0.000: // measure 1
0000
0000
0000
0000
,  // measure 2
0000
0000
0000
0000
,  // measure 3
0000
0000
0000
0000
,  // measure 4
0000
0000
0000
0000
,  // measure 5
0000
0000
0000
0000
,  // measure 6
1000
0100
0100
0000
,  // measure 7
0001
1000
0100
0000
,  // measure 8
0001
1000
0100
0000
,  // measure 9
0010
0001
0001
0000
,  // measure 10
0001
0100
0100
0000
,  // measure 11
1000
0001
0100
0000
,  // measure 12
1000
0001
0100
0000
,  // measure 13
0010
1000
0100
0010
,  // measure 14
1001
0020
0030
0001
,  // measure 15
0010
1000
0002
0103
,  // measure 16
0000
1100
0000
0101
,  // measure 17
0000
1100
0000
0101
,  // measure 18
0001
0010
0200
0300
,  // measure 19
0001
0100
2000
3010
,  // measure 20
0000
0011
0000
1010
,  // measure 21
0000
0011
0000
1010
,  // measure 22
0101
0200
0000
0302
,  // measure 23
0000
0023
0000
0032
,  // measure 24
0000
0203
0000
0302
,  // measure 25
0023
0200
0330
2000
,  // measure 26
0000
3200
0000
2300
,  // measure 27
0000
3020
0000
2030
,  // measure 28
0000
3200
0000
2300
,  // measure 29
3020
0200
0000
0330
,  // measure 30
0101
0100
0010
1000
,  // measure 31
1000
0100
0010
0001
,  // measure 32
0001
1000
0010
0100
,  // measure 33
0100
0001
0010
0100
,  // measure 34
1100
0100
0010
0001
,  // measure 35
0001
0100
0010
1000
,  // measure 36
1000
0001
0010
0100
,  // measure 37
0100
1000
0010
0100
,  // measure 38
1001
0200
0300
0001
,  // measure 39
0100
2000
3010
0110
,  // measure 40
0100
0001
1000
0100
,  // measure 41
0100
1000
0001
0100
,  // measure 42
1010
0100
0001
0010
,  // measure 43
1100
0010
0001
1000
,  // measure 44
0001
0101
1000
1100
,  // measure 45
0001
0101
1000
2001
,  // measure 46
0100
3200
0010
0320
,  // measure 47
0000
0032
0000
2003
,  // measure 48
0010
3020
0000
2030
,  // measure 49
3200
0020
0330
0002
,  // measure 50
0100
0203
0010
0320
,  // measure 51
0000
2030
0001
3001
,  // measure 52
1001
0001
1000
1010
,  // measure 53
1000
1100
0100
0011
,  // measure 54
0001
0101
1001
1100
,  // measure 55
0001
0110
1000
0110
,  // measure 56
2002
0000
0000
0000
,  // measure 57
0000
3003
0000
0000
;

//---------------dance-single - ----------------
#NOTES:
     dance-single:
     :
     Beginner:
     2:
     0.159,0.193,0.040,0.000,0.000: // measure 1
0000
0000
0000
0000
,  // measure 2
0000
0000
0000
0000
,  // measure 3
0000
0000
0000
0000
,  // measure 4
0000
0000
0000
0000
,  // measure 5
0000
0000
0000
0000
,  // measure 6
1000
0000
0000
0000
,  // measure 7
0010
0000
0000
0000
,  // measure 8
0100
0000
0000
0000
,  // measure 9
0001
0000
0000
0000
,  // measure 10
0001
0000
0000
0000
,  // measure 11
0100
0000
0000
0000
,  // measure 12
0010
0000
0000
0000
,  // measure 13
1000
0000
0000
0001
,  // measure 14
0001
0000
0000
0000
,  // measure 15
0010
0000
0100
0000
,  // measure 16
1000
1000
0000
0001
,  // measure 17
0000
1000
0000
0001
,  // measure 18
0001
0000
0001
0000
,  // measure 19
0100
0000
0010
0000
,  // measure 20
1000
1000
0000
0001
,  // measure 21
0000
1000
0000
0100
,  // measure 22
0100
0100
0000
0001
,  // measure 23
0000
0100
0000
1000
,  // measure 24
0000
0001
0000
0100
,  // measure 25
0100
0100
0000
1000
,  // measure 26
0000
0100
0000
0001
,  // measure 27
0000
0100
0000
1000
,  // measure 28
0000
0001
0000
1000
,  // measure 29
1000
1000
0000
0000
,  // measure 30
0110
0000
1000
0000
,  // measure 31
0001
0000
1000
0000
,  // measure 32
1000
0000
0010
0000
,  // measure 33
0100
0000
0010
0000
,  // measure 34
0010
0000
0001
0000
,  // measure 35
1000
0000
0001
0000
,  // measure 36
0001
0000
0100
0000
,  // measure 37
0010
0000
0001
0001
,  // measure 38
0001
0000
0100
0000
,  // measure 39
0010
0000
0100
0000
,  // measure 40
1000
1000
0000
0001
,  // measure 41
0000
1000
0000
0001
,  // measure 42
0001
0000
0100
0000
,  // measure 43
0010
0000
0100
0000
,  // measure 44
1000
1000
0000
0001
,  // measure 45
0000
1000
0000
0001
,  // measure 46
0001
0000
0100
0000
,  // measure 47
0001
0000
0100
0100
,  // measure 48
0100
0000
0010
0010
,  // measure 49
0010
0010
0000
1000
,  // measure 50
0000
0100
0000
1000
,  // measure 51
0000
0100
0000
0010
,  // measure 52
0010
0010
0010
0000
,  // measure 53
1000
1000
1000
0000
,  // measure 54
0001
0001
0001
0001
,  // measure 55
0000
0110
0000
1001
,  // measure 56
1001
0000
0000
0000
;
