#TITLE:SESSION;
#SUBTITLE:;
#ARTIST:[LINKIN PARK];
#TITLETRANSLIT:;
#SUBTITLETRANSLIT:;
#ARTISTTRANSLIT:;
#CREDIT:Kewing DarkSun;
#BANNER:SESSION.png;
#BACKGROUND:SESSION-bg.png;
#LYRICSPATH:;
#CDTITLE:!Kewing DarkSun v3 (cdtitle).png;
#MUSIC:SESSION.ogg;
#OFFSET:0.604;
#SAMPLESTART:39.016;
#SAMPLELENGTH:12.000;
#SELECTABLE:YES;
#BPMS:0.000=98.020;
#STOPS:;
#BGCHANGES:;

//---------------dance-single - Basic----------------
#NOTES:
     dance-single:
     Basic:
     Easy:
     5:
     0.276,0.347,0.097,0.305,0.000:
0000
0000
0000
0000
,
0000
0000
0000
0000
,
0000
0000
0000
0000
,
0000
0000
0000
0000
,
0000
0000
0000
0000
,
0000
0000
0000
0000
,
0000
0000
0000
0000
,
0000
0000
0000
1001
,
1000
0001
0100
0001
,
1000
0100
0010
0100
,
1000
0001
0001
0000
0100
0000
0010
0000
,
0100
0110
0010
0110
,
0001
1000
0100
1000
,
1010
0010
0100
0001
,
0011
0100
1001
0010
,
1001
0000
1000
0000
0001
0010
0200
0000
,
1300
0000
0010
0000
0100
0010
0010
0000
,
1000
0000
0001
0000
0010
0100
0100
0000
,
0010
0000
0002
0000
0103
0010
0010
0000
,
0100
0000
0001
0000
1000
0100
0100
0000
,
0010
0000
0100
0000
1000
0010
0010
0000
,
0110
0000
0100
0000
0001
0010
0010
0000
,
0110
0000
1001
0000
0100
0010
0010
0000
,
0001
0100
0010
0000
1000
0000
0002
0000
,
2003
3200
2300
3002
,
2003
3020
0230
0302
,
2003
3200
2300
3002
,
0013
0001
0100
0000
0010
1000
0100
0000
,
2000
3020
2030
3002
,
2003
3200
0320
0032
,
2003
0000
3010
0010
0010
1000
0001
1000
,
0001
2000
3002
0203
,
0320
0000
0000
2030
0000
0000
0000
0000
,
3020
0000
0000
0230
0000
0000
0000
0000
,
0320
0000
0000
2030
0000
0000
0000
0000
,
3020
0000
1030
0000
0100
0000
0010
0010
,
0020
0000
0000
0032
0000
0000
0000
0000
,
0023
0000
0000
0230
0000
0000
0000
0000
,
0320
0000
0032
0203
,
0020
0000
0000
0330
,
0001
1000
0100
0001
,
0100
1000
0100
1000
0010
0000
1000
0000
,
0001
0000
1000
0000
0010
0100
0010
0000
,
1000
0000
0001
0100
0001
0000
1000
0100
,
1000
0001
0001
0000
1000
0000
0100
0000
,
0010
0100
0110
0000
0100
0000
0110
0000
,
0001
0000
1000
0010
0010
0000
0100
0001
,
0001
0000
0010
0000
0100
0000
1000
0001
,
1000
0010
0100
0000
0001
1000
0001
0100
,
0001
0000
0010
0000
0100
0010
0100
0000
,
0010
0000
0001
0000
1000
0100
1000
0000
,
0010
0100
0010
1000
0001
0000
1001
0000
,
1000
0000
0001
0000
0010
0001
0100
0000
,
0010
1000
0100
0000
0010
0000
0001
0100
,
0010
0100
0001
0000
1000
0100
0010
0000
,
0001
0100
1000
0000
1000
0100
0001
1000
,
2002
0000
0000
0000
,
0000
0000
0000
0000
,
0000
0000
0000
0000
,
3003
0000
0000
0000
;

//---------------dance-single - Standard----------------
#NOTES:
     dance-single:
     Standard:
     Medium:
     8:
     0.437,0.572,0.339,0.291,0.267:
0000
0000
0000
0000
,
0000
0000
0000
0000
,
0000
0000
0000
0000
,
0000
0000
0000
0000
,
0000
0000
0000
0000
,
0000
0000
0000
0000
,
0000
0000
0000
0000
,
0000
0000
0000
0000
0000
0000
0000
0000
0000
0110
0000
1000
0001
0000
0000
0000
,
1000
0000
0100
0000
0001
0100
1000
0000
,
0001
0000
0100
0000
1000
0100
0001
0000
,
1000
1100
1100
0000
0001
0010
1000
0000
,
0010
0000
0000
0001
1000
0000
0000
0010
0000
0000
1000
0001
1000
0000
0000
0000
,
0100
0000
0000
0000
0010
0000
0000
0000
0001
1000
0000
0000
0010
0000
0000
0000
,
1010
0000
0000
0000
0010
0000
0000
0000
1000
0001
0000
0000
0010
0000
0000
0000
,
0011
0000
0000
0000
0200
0000
0000
0000
1300
0001
0000
0000
0100
0000
0000
0000
,
0110
0000
0000
1000
0001
0000
0000
0011
0000
0001
0100
0001
1000
0000
0100
0000
,
1100
0000
0011
0000
1000
1001
0100
0000
,
0101
0000
1010
0000
0001
1001
0100
0000
,
0100
0010
0100
0000
0110
0000
0000
0000
0001
0000
0101
0000
1000
0000
0000
0000
,
0101
0000
0110
0000
1000
1100
0001
0000
,
1100
0000
0011
0000
1000
1010
0110
0000
,
1001
0000
1010
0000
0001
0011
0110
0000
,
1001
1000
1001
0001
0110
1000
0110
0000
,
1000
0000
0000
0000
0001
0000
0000
0000
1000
0000
0000
0000
0001
0000
0000
0010
0000
0000
0100
0000
0000
0000
0000
0000
0000
0000
0000
0000
0000
0000
0000
0000
0000
0000
0000
0000
0210
0000
0000
0000
0000
0000
0000
0000
0000
0000
0000
0000
,
2300
0010
3020
0001
0032
0010
0023
1000
,
2030
0001
3002
0100
0203
0010
0320
1000
,
2030
0100
3200
0001
0302
0100
0203
0010
,
0310
0001
1100
0000
0010
1000
0101
0000
,
0002
0010
0023
1000
2030
0010
3020
0001
,
0031
0000
0100
0010
0000
0010
0100
0000
0000
0000
1001
0000
0101
0000
0100
0000
,
0001
0000
0010
0000
0110
0000
0110
0000
0110
0000
1000
0001
1000
0001
1000
0000
,
0110
0000
0010
0000
1001
0000
0010
0000
0100
0010
0100
0000
1001
0000
0000
0000
,
0020
0000
0000
0000
0000
0000
2030
0000
0000
0001
0000
0000
0001
0000
0000
0000
,
3002
0000
0000
0000
0000
0000
0203
0000
0000
0010
0000
0000
0010
0000
0000
0000
,
0320
0000
0000
0000
0000
0000
0230
0000
0000
0001
0000
0000
0001
0000
0000
0000
,
0301
0000
0000
0000
1000
0000
0000
0000
0010
0000
0100
0000
0001
0000
0010
0100
,
0020
0000
0000
0000
0000
0000
0032
0000
0000
1000
0000
0000
1000
0000
0000
0000
,
2003
0000
0000
0000
0000
0000
3200
0000
0000
0000
0000
0010
0010
0000
0000
0000
,
0320
0000
0230
2300
,
0002
0000
0000
3003
,
1002
0000
0000
0000
1003
0000
0010
0000
0100
0000
0001
0010
0000
0010
0100
0000
,
0001
0000
0100
0000
0010
0000
0100
0000
2000
0000
0000
0000
3010
0100
0001
0000
,
2001
0000
0000
0000
3001
0000
0010
0000
0100
0000
1000
0010
0000
0010
0100
0000
,
1000
0000
0100
0000
0010
0000
0100
0000
0002
0000
0000
0000
0013
0100
0010
0100
,
1000
0000
1001
0000
1001
0000
0001
0000
1000
0000
0010
0100
0000
0100
0010
1000
,
0001
0000
1000
0000
2002
0000
0000
3003
0000
0110
0000
0001
1000
0000
0000
0000
,
1000
0000
0001
0000
0010
0100
1000
0000
0100
0020
0000
0000
0130
0000
0010
0000
,
0001
0000
0100
0010
1000
0000
0100
0000
0001
0000
0010
0000
1000
0001
1000
0001
,
1000
0000
0100
0010
0001
0000
1000
0000
0010
0100
0001
0000
0010
0000
0001
0000
,
1000
0100
1000
0100
0001
0000
0100
0000
0010
0100
0000
1000
0001
1000
0000
0000
,
0001
0000
0100
0010
1000
0000
0001
0000
0010
0100
1000
0000
0010
0000
1000
0000
,
0001
0100
0001
0100
1000
0000
0100
0000
0010
0100
0000
0001
2000
0000
0000
0000
,
3001
0010
0100
0000
1000
0000
0010
0100
0000
0001
0000
0100
0010
0000
1000
0000
,
0001
0010
0100
0010
0001
0000
1001
0000
0001
0100
0010
0100
0001
0000
0010
0100
,
1000
0000
0010
0100
0001
0000
1000
0100
0010
0100
1000
0010
0100
0000
0010
1000
,
0100
0000
0010
0001
0100
0000
0001
0010
1000
0010
0000
0100
0001
0100
1000
0001
,
2002
0000
0000
0000
,
0000
0000
0000
0000
,
0000
0000
0000
0000
,
3003
0000
0000
0000
;

//---------------dance-single - Heavy----------------
#NOTES:
     dance-single:
     Heavy:
     Hard:
     9:
     0.523,0.695,0.249,0.152,0.585: // measure 1
0000
0000
0000
0000
,  // measure 2
0000
0000
0000
0000
,  // measure 3
0000
0000
0000
0000
,  // measure 4
0000
0000
0000
0000
,  // measure 5
0000
0000
0000
0000
,  // measure 6
0000
0000
0000
0000
,  // measure 7
0000
0000
0000
0000
,  // measure 8
0000
0000
0000
0000
0000
0000
0000
0000
0000
1001
0000
0100
0010
0000
0000
0000
,  // measure 9
1001
0000
0000
0000
0001
0000
0000
0000
0100
0010
0000
0010
1000
0000
0010
0000
,  // measure 10
0100
0000
0000
0000
0001
0000
0000
0000
0010
0100
0000
0100
1000
0000
0100
0000
,  // measure 11
0010
0000
0011
0000
1100
0000
0000
0000
1000
0010
0000
0010
0100
0000
0001
0000
,  // measure 12
0010
0000
0000
0001
1000
0000
0010
0100
0000
0100
0010
1000
0001
0000
1000
0000
,  // measure 13
0100
0000
0010
0000
0001
0000
0000
0000
1000
0001
0000
0001
1000
0000
0100
0000
,  // measure 14
0110
0000
0000
0000
0011
0000
0000
0000
0100
0010
0000
0000
0110
0000
0000
0000
,  // measure 15
1010
0000
0000
0000
0201
0000
0000
0000
0301
1000
0000
1000
0001
0000
0100
0010
,  // measure 16
0110
0000
0000
0001
0010
0000
0100
1000
0000
0001
0100
0010
1000
0000
0100
0000
,  // measure 17
0010
0000
0001
0000
0100
0000
0000
0000
0010
1000
0000
0010
0100
0000
0100
0000
,  // measure 18
0010
0000
1000
0000
0100
0000
0000
0000
0010
0001
0000
0010
0100
0000
0100
0000
,  // measure 19
0010
0001
1000
0000
0110
0000
0000
0000
0100
0001
0000
0001
0010
0000
0100
0000
,  // measure 20
0010
0000
0001
0000
1000
0000
0000
0000
0100
1000
0000
1000
0010
0000
0100
0000
,  // measure 21
0110
0000
0010
0000
0001
0000
0000
0000
0010
1000
0000
0001
0010
0000
0100
0000
,  // measure 22
0110
0000
0010
0000
1000
0000
0000
0000
0010
0001
0000
1000
0010
0000
0100
0000
,  // measure 23
1001
0000
0001
0000
0110
0000
0010
0000
1000
0100
0000
0010
0001
0000
1000
0000
,  // measure 24
0001
0000
0000
0000
0100
0000
0000
0000
0010
0000
0000
0000
1000
0000
0001
0000
1000
0000
0001
0000
0000
0000
0000
0000
0000
0000
0000
0010
0000
0000
0000
0000
0000
0100
0000
0000
2000
0000
0000
0000
0000
0000
0000
0000
0000
0000
0000
0000
,  // measure 25
3010
0000
1000
0000
1010
0000
1000
0000
0001
0100
0001
0000
0101
0000
0001
0000
,  // measure 26
0011
0000
0010
0000
0011
0000
0001
0000
1000
0100
1000
0000
1100
0000
0000
0000
,  // measure 27
1001
0000
0010
0000
1001
0000
0100
0000
0010
0100
0010
0000
0110
0000
0100
0000
,  // measure 28
0010
0000
1000
0100
0001
0000
0100
0000
0010
0000
0001
0100
1000
0000
0100
0000
,  // measure 29
0110
0000
1000
0000
0110
0000
0001
0000
1000
0001
1000
0000
1001
0000
0001
0000
,  // measure 30
1001
0000
1000
0100
0000
1000
0010
0000
0000
0100
0001
1000
0001
0000
0010
0000
,  // measure 31
0110
0000
1000
0000
1001
0000
0101
0000
0110
0000
1000
0001
1000
0001
1000
0000
,  // measure 32
0110
0000
0100
0000
1001
0000
1000
0000
0010
0100
0000
0001
1000
0000
0100
0000
,  // measure 33
2000
0000
0000
0000
0010
0000
3020
0000
0000
0100
0000
0100
0100
0000
0000
0000
,  // measure 34
2030
0000
0000
0000
0100
0000
3200
0000
0000
0010
0000
0010
0010
0000
0000
0000
,  // measure 35
2300
0000
0000
0000
0001
0000
3002
0000
0000
0100
0000
0100
0100
0000
0000
0000
,  // measure 36
0023
0000
0000
0000
0100
0000
0030
0000
0010
0100
1000
0000
0010
0000
0010
0100
,  // measure 37
0002
0000
0000
0000
0010
0000
0023
0000
0000
1000
0000
1000
1000
0000
0000
0000
,  // measure 38
0032
0000
0000
0000
0100
0000
0203
0000
0000
0000
0000
1000
1000
0000
0000
0000
,  // measure 39
0302
0000
0000
2003
0000
0000
3200
0000
,  // measure 40
0020
0000
0000
0000
0000
0000
0330
0000
1000
0001
0000
0001
0010
0001
0100
0000
,  // measure 41
0001
0000
0010
0000
0100
0000
1000
0000
0010
0000
0100
0010
0000
0010
1000
0001
,  // measure 42
1000
0100
0010
0100
1000
0001
1000
0100
1000
0000
0010
0000
0100
0001
0010
0000
,  // measure 43
0001
0100
0001
0000
0010
0000
0100
0000
1000
0000
0010
0100
0000
0010
1000
0000
,  // measure 44
0001
0000
0010
0001
0010
0001
0100
0000
0010
1000
0000
0100
0010
0001
1000
0001
,  // measure 45
0010
0000
0110
0000
0100
0010
0001
1000
0001
0100
0010
0100
0001
1000
0001
0100
,  // measure 46
0010
0000
1000
0000
2020
0000
0000
3030
1000
0001
0000
0010
0100
0000
1000
0000
,  // measure 47
0001
0000
0100
0000
0010
1000
0100
0010
0001
0100
0000
0100
0001
0010
0100
0000
,  // measure 48
1000
0001
0100
0001
1000
0100
0010
0001
0100
0010
0000
0010
0100
0001
0010
0100
,  // measure 49
1000
0001
0100
0010
1000
0001
0100
0001
1000
0100
0001
0100
1000
0100
0010
0001
,  // measure 50
1000
0010
0001
0010
1000
0010
0100
0001
0010
0100
0000
1000
0100
0010
0000
0010
,  // measure 51
0001
0100
0010
1000
0100
1000
0010
0100
0001
0010
0001
0100
0010
1000
0100
0010
,  // measure 52
0001
0100
0010
0100
1000
0100
0001
0000
0010
0100
0000
1000
0002
0000
0000
0000
,  // measure 53
1003
0001
0010
0100
1000
0001
0100
0001
0010
0100
0010
0001
0100
1000
0100
0010
,  // measure 54
1000
0100
0001
0100
1000
0000
0100
1000
0010
0100
0001
1000
0001
0010
0100
0010
,  // measure 55
0001
1000
0010
0100
0001
0010
0100
1000
0001
0100
0010
0001
0010
1000
0100
0010
,  // measure 56
1000
0010
0001
0100
0010
1000
0100
0001
0100
0010
0001
0010
0100
1000
0010
0100
,  // measure 57
2002
0000
0000
0000
,  // measure 58
0000
0000
0000
0000
,  // measure 59
0000
0000
0000
0000
,  // measure 60
3003
0000
0000
0000
;

//---------------dance-single - Copied from Basic----------------
#NOTES:
     dance-single:
     Copied from Basic:
     Beginner:
     3:
     0.139,0.194,0.055,0.000,0.000:
0000
0000
0000
0000
,
0000
0000
0000
0000
,
0000
0000
0000
0000
,
0000
0000
0000
0000
,
0000
0000
0000
0000
,
0000
0000
0000
0000
,
0000
0000
0000
0000
,
0000
0000
0000
1001
,
0000
1000
0000
0001
,
0000
1000
0000
0100
,
0100
0100
0000
1000
,
0000
0010
0010
0010
,
0000
0100
0000
0001
,
0001
0000
1000
0000
,
0001
0000
0010
0010
,
0010
0000
0100
0100
,
0100
0000
1000
1000
,
0000
0001
0001
0001
,
0000
0110
0000
0100
,
0000
0010
0000
1000
,
0000
0001
0000
0010
,
0010
0010
0000
0100
,
0100
0100
0000
0010
,
0010
0010
0000
0000
,
0001
0001
0001
0001
,
0001
0001
0001
0000
,
1000
1000
1000
1000
,
0000
0110
0000
0110
,
0100
0100
0100
0100
,
0100
0100
0100
0000
,
0010
0010
0010
0010
,
0010
0000
1000
1000
,
1000
0000
0000
0100
,
0100
0000
0000
0001
,
0001
0000
0000
0100
,
0100
0000
0010
0010
,
0110
0000
0000
1000
,
1000
0000
0000
0001
,
0001
0000
0000
0000
,
0000
0000
0000
0000
,
0001
0000
1000
1000
,
1000
0000
0010
0000
,
0110
0000
0001
0001
,
0001
0000
0100
0000
,
1000
1000
1000
1000
,
1001
0000
0001
0001
,
0000
1000
1000
0000
,
0010
0000
0100
0000
,
1000
1000
1000
0001
,
0001
0001
0000
0100
,
0100
0100
0100
0010
,
0010
0010
0000
1000
,
1000
1000
1000
0100
,
0100
0100
0000
0010
,
0010
0010
0100
0100
,
1000
1000
0001
0001
,
1001
0000
0000
0000
;
