#TITLE:SABER WING (satellite silhouette remix);
#SUBTITLE:;
#ARTIST:TAG;
#TITLETRANSLIT:;
#SUBTITLETRANSLIT:;
#ARTISTTRANSLIT:;
#CREDIT:Mr. Kewing;
#BANNER:SABER WING (satellite silhouette remix).png;
#BACKGROUND:SABER WING (satellite silhouette remix)-bg.png;
#LYRICSPATH:;
#CDTITLE:!Kewing v3 (cdtitle).png;
#MUSIC:SABER WING (satellite silhouette remix).ogg;
#OFFSET:0.000;
#SAMPLESTART:3.473;
#SAMPLELENGTH:15.000;
#SELECTABLE:YES;
#DISPLAYBPM:138.000;
#BPMS:0.000=138.000,102.000=276.000,104.000=138.000;
#STOPS:70.000=0.430
;
#BGCHANGES:4.000=SABER WING.avi=0.990=1=0=1,
240.000=SABER WING (satellite silhouette remix)-bg.png=1.000=0=0=1,
99999=-nosongbg-=1.000=0=0=0 // don't automatically add -songbackground-
;

//---------------dance-single - ----------------
#NOTES:
     dance-single:
     :
     Hard:
     13:
     0.549,0.520,0.137,0.009,0.224: // measure 1
0000
0000
0000
0000
,  // measure 2
0000
0000
0000
0000
,  // measure 3
0010
0000
1000
0000
0100
0000
0000
1000
0000
0000
1000
0000
0010
0000
0000
0000
,  // measure 4
1000
0000
0010
0000
0001
0000
0000
0010
0000
0000
0010
0000
0100
0000
0000
0000
,  // measure 5
0001
0000
0010
0000
0100
0000
0000
0001
0000
0000
0001
0000
0100
0000
1000
0000
,  // measure 6
0001
0000
0000
0100
0000
0000
0100
0000
0010
0000
1000
0000
0001
0000
0000
0000
,  // measure 7
0010
0000
0001
0000
0100
0000
0000
0001
0000
0000
0001
0000
0010
0000
0000
0000
,  // measure 8
0001
0000
0010
0000
1000
0000
0000
0010
0000
0000
0010
0000
0100
0000
1000
0000
,  // measure 9
0010
0000
0010
0000
0010
0100
0000
0001
0000
0000
0100
0000
0010
0000
1000
0000
,  // measure 10
0001
0000
0000
0110
0000
0000
1000
0000
0000
0000
0000
0000
0001
0000
0010
0000
,  // measure 11
1000
0000
1000
0010
0001
0000
0100
0001
,  // measure 12
0010
0000
0000
1001
0000
0000
0100
0000
1000
0000
0000
0000
1000
0000
0100
0000
,  // measure 13
0001
0000
0001
0100
1000
0000
0010
1000
,  // measure 14
0100
0010
1000
0010
0001
0100
0000
0010
,  // measure 15
0001
0000
0001
0010
1000
0000
0100
1000
,  // measure 16
0010
0000
0000
0110
0000
0000
0100
0000
0001
0000
0000
0000
0001
0000
0100
0000
,  // measure 17
1000
0000
1000
0100
0001
0100
0010
1000
,  // measure 18
1010
0000
0000
1001
0000
0000
0001
0000
0011
0000
0000
0000
0010
0000
0001
0000
,  // measure 19
0100
0000
0000
0001
0000
0000
0001
0000
0010
0000
0000
0000
0001
0000
0010
0000
,  // measure 20
1000
0000
0000
0010
0000
0000
0010
0000
0100
0000
0000
0000
1000
0000
0010
0000
,  // measure 21
0100
0000
0000
1000
0000
0000
1000
0000
0100
0000
0001
0000
0010
0000
0000
0100
,  // measure 22
0000
0000
0100
0010
0100
0000
1000
0000
0001
0000
0100
0000
0010
0000
1000
0000
,  // measure 23
0100
0000
0000
1000
0000
0000
1000
0000
0010
0000
0000
0000
1000
0000
0010
0000
,  // measure 24
0001
0000
0000
0010
0000
0000
0010
0000
0100
0000
0001
0000
0010
0000
0010
0000
,  // measure 25
0010
0100
0000
1000
0000
0000
0100
0000
0001
0000
0100
0000
0010
0000
0011
0000
,  // measure 26
0000
1100
0000
0000
1001
0000
0000
0000
2000
0000
0000
0000
0000
0000
0000
0000
,  // measure 27
3001
1000
0001
0100
0010
1000
0010
0000
,  // measure 28
0001
1000
0001
0010
0100
0001
0100
0000
,  // measure 29
0001
1000
0001
0000
0010
0000
0100
0000
1000
0000
0010
0000
0001
0000
1000
0000
,  // measure 30
0001
0010
1000
0010
0100
0001
1000
0000
,  // measure 31
1000
0001
1000
0100
0010
0001
0010
0000
,  // measure 32
1000
0001
1000
0010
0100
1000
0100
0000
,  // measure 33
1000
0001
1000
0000
0010
0000
0100
0000
0001
0000
0010
0000
1000
0000
0001
0000
,  // measure 34
1000
0010
0001
0100
0010
1000
0001
0000
,  // measure 35
1000
0100
0001
0100
1000
0010
1000
0100
,  // measure 36
0010
1000
0001
0100
1000
0010
0100
0001
,  // measure 37
0100
0001
0100
0000
1000
0000
0100
0000
0001
0000
0010
0000
0001
0000
0100
0000
,  // measure 38
0010
0001
1000
0100
0001
0010
0001
1000
,  // measure 39
0100
0010
0100
0000
0001
0000
0100
0000
1000
0000
0010
0000
0100
0000
0001
0000
,  // measure 40
0010
1000
0001
1000
0010
0100
1000
0010
,  // measure 41
0100
1000
0100
0000
0010
0000
0100
0000
0001
0000
0010
0000
0100
0000
1000
0000
,  // measure 42
0100
0001
0100
0000
0010
0000
0001
0000
0100
0000
1000
0000
0010
0000
1000
0000
,  // measure 43
0100
0001
0001
0010
,  // measure 44
0010
0000
0100
0000
0100
0000
1000
0010
,  // measure 45
0001
0000
1000
0100
0001
0000
0010
0001
,  // measure 46
0100
0000
0000
1001
0000
0000
0010
0000
1000
0000
0000
0000
0001
0000
0100
0000
,  // measure 47
1000
0000
0001
0010
1000
0000
0100
1000
,  // measure 48
0010
0100
1000
0100
0001
0010
0000
0010
,  // measure 49
1000
0000
0001
0100
1000
0000
0010
1000
,  // measure 50
0100
0000
0000
0110
0000
0000
0010
0000
0001
0000
0000
0000
1000
0000
0100
0000
,  // measure 51
0001
0000
1000
0010
0001
0100
0010
1000
,  // measure 52
0100
0000
0000
1001
0000
0000
0010
0000
0001
0000
0100
0000
0110
0000
0000
0000
,  // measure 53
0100
0000
0001
0000
1000
0100
0000
0001
0000
0000
0001
0000
0100
0000
0010
0000
,  // measure 54
1000
0000
0010
0000
0001
0100
0000
1000
0000
0000
0100
0000
0010
0000
1000
0000
,  // measure 55
0100
0000
0010
0000
0001
0100
0000
1000
0000
0000
1000
0000
0100
0000
0010
0000
,  // measure 56
0001
0000
0010
0000
1000
0100
0000
0001
0000
0000
0100
0000
0110
0000
0010
0000
,  // measure 57
0001
0000
1000
0000
0010
0001
0000
1000
0000
0100
0001
0000
1000
0000
0010
0000
,  // measure 58
0100
0000
0001
0000
0010
1000
0000
0001
0000
1000
0010
0000
0001
0000
0100
0000
,  // measure 59
0010
0000
1000
0000
0100
0001
0000
1000
0000
0010
0001
0000
0100
0000
0010
0000
,  // measure 60
0100
0000
1000
0000
0100
0001
0000
0000
0010
0000
0000
0000
0100
0000
0000
0000
,  // measure 61
1001
0000
0000
0000
;

//---------------dance-single - ----------------
#NOTES:
     dance-single:
     :
     Medium:
     10:
     0.455,0.493,0.347,0.210,0.055: // measure 1
0000
0000
0000
0000
,  // measure 2
0000
0000
0000
0000
,  // measure 3
0001
1000
0010
0000
0100
0000
0100
0000
,  // measure 4
0001
1000
0100
0000
0010
0000
0010
0000
,  // measure 5
1000
0001
0100
0000
0010
0000
0010
0000
,  // measure 6
0002
0000
0203
0000
,  // measure 7
0301
1000
0100
0000
0010
0000
0010
0000
,  // measure 8
0001
1000
0010
0000
0100
0000
0100
0000
,  // measure 9
1000
0000
0001
0000
0010
0000
0000
0100
0000
0000
0100
0000
0010
0000
0000
0000
,  // measure 10
1000
0000
0000
0001
0000
0000
1000
0000
0000
0000
0000
0000
0001
0000
0000
0000
,  // measure 11
0102
1003
0012
1003
,  // measure 12
1100
0110
0011
1000
,  // measure 13
2010
3001
2100
3001
,  // measure 14
0011
0000
1001
0000
1010
1000
0001
0000
,  // measure 15
0012
1003
0102
1003
,  // measure 16
1010
0110
0101
1000
,  // measure 17
2100
3001
2010
3001
,  // measure 18
0101
0000
0000
0100
0000
0000
0010
0000
0110
0000
0000
0000
1000
0000
0001
0000
,  // measure 19
0010
0000
0100
0000
0100
0000
1000
0001
,  // measure 20
0100
0000
0010
0000
0010
0000
0001
1000
,  // measure 21
0100
0010
0010
2000
,  // measure 22
0000
0100
3100
0100
0200
0000
1300
0001
,  // measure 23
0100
0000
0010
0000
0010
0000
1000
0001
,  // measure 24
0010
0000
0100
0000
0100
0000
0001
1000
,  // measure 25
0010
0000
0000
0100
0000
0000
0100
0000
0010
0000
0000
0000
0001
0000
0100
0000
,  // measure 26
0000
0010
0000
0000
1001
0000
0000
0000
0002
0000
0000
0000
0000
0000
0000
0000
,  // measure 27
0103
0000
0100
0000
0001
0010
0100
0000
,  // measure 28
0010
0000
0010
0000
0001
0100
0010
0000
,  // measure 29
1000
0100
0010
0000
0001
0100
0010
0000
,  // measure 30
1000
0000
0101
0000
0100
0001
0010
0000
,  // measure 31
0100
0000
0100
0000
1000
0010
0100
0000
,  // measure 32
0010
0000
0010
0000
1000
0100
0010
0000
,  // measure 33
0001
0100
0010
0000
1000
0100
0010
0000
,  // measure 34
0001
0000
1100
0000
0100
1000
0010
0000
,  // measure 35
1000
0100
0001
0000
0100
0000
0100
0000
,  // measure 36
1000
0010
0001
0000
0010
0000
0010
0000
,  // measure 37
0100
0001
0010
0001
0100
0000
0100
0000
,  // measure 38
0010
1000
0100
1000
0010
0000
0010
0000
,  // measure 39
1000
0100
0001
0100
1000
0000
1000
0000
,  // measure 40
0001
0100
1000
0100
0001
0000
0001
0000
,  // measure 41
1000
0100
0010
0001
0100
0010
0100
0000
,  // measure 42
0001
0100
0010
1000
0100
0010
0100
0000
,  // measure 43
2002
0000
0000
0000
,  // measure 44
0000
0000
0000
3003
,  // measure 45
0102
0013
2100
3010
,  // measure 46
0101
0000
0010
1000
0100
0000
0010
0000
,  // measure 47
0012
0103
2010
3100
,  // measure 48
0011
0000
1000
0010
0100
0001
1000
0000
,  // measure 49
2100
3010
0102
0013
,  // measure 50
1100
0000
0010
0001
0100
0000
0010
0000
,  // measure 51
2010
3100
0012
0103
,  // measure 52
1010
0000
0001
0010
0100
1000
0010
0000
,  // measure 53
1000
0000
0001
0000
0100
0000
0000
0001
0000
0000
1000
0000
0100
0000
0000
0000
,  // measure 54
1000
0000
0010
0000
0100
0000
0000
0001
0000
0000
0000
0000
0100
0000
0000
0000
,  // measure 55
0001
0000
1000
0000
0100
0000
0000
1000
0000
0000
0010
0000
0100
0000
0000
0000
,  // measure 56
0001
0000
0010
0000
0100
0000
0000
1000
0000
0000
0001
0000
1001
0000
0000
0000
,  // measure 57
0010
0000
1000
0000
0100
0000
0000
1000
0000
0000
0010
0000
1000
0000
0001
0000
,  // measure 58
0100
0000
0001
0000
0010
0000
0000
0100
0000
0000
1000
0000
0001
0000
0000
0000
,  // measure 59
0010
0000
0001
0000
0100
0000
0000
0001
0000
0000
0010
0000
0001
0000
1000
0000
,  // measure 60
0001
0100
0010
0000
0110
0000
0000
0000
,  // measure 61
1001
0000
0000
0000
;

//---------------dance-single - ----------------
#NOTES:
     dance-single:
     :
     Easy:
     5:
     0.326,0.383,0.192,0.365,0.000: // measure 1
0000
0000
0000
0000
,  // measure 2
0000
0000
0000
0000
,  // measure 3
1000
0100
0010
0000
,  // measure 4
0100
0010
1000
0000
,  // measure 5
0010
0001
0100
0010
,  // measure 6
2000
0000
3002
0000
,  // measure 7
1003
0010
0100
0000
,  // measure 8
0010
0100
1000
0000
,  // measure 9
0100
0001
0010
0100
,  // measure 10
2000
0002
3003
0000
,  // measure 11
2002
3003
0202
0303
,  // measure 12
1000
0100
0020
0030
,  // measure 13
2002
3003
2200
3300
,  // measure 14
0001
0100
0010
1000
,  // measure 15
2002
3003
2020
3030
,  // measure 16
0001
0010
0200
0300
,  // measure 17
2002
3003
0022
0033
,  // measure 18
0010
0100
1001
0001
,  // measure 19
0100
0010
0000
0100
,  // measure 20
0010
0001
0000
0010
,  // measure 21
1000
0100
0010
0002
,  // measure 22
0000
1003
1000
0001
,  // measure 23
0010
0100
0000
0010
,  // measure 24
0100
0001
0000
0100
,  // measure 25
1000
0010
0100
0001
,  // measure 26
1001
0110
2000
0000
,  // measure 27
3001
0001
0100
0000
,  // measure 28
0010
0010
0100
0000
,  // measure 29
1000
1000
0100
0010
,  // measure 30
0100
0001
0010
0001
,  // measure 31
1000
1000
0100
0000
,  // measure 32
0010
0010
0100
0000
,  // measure 33
0001
0001
0100
0010
,  // measure 34
0100
1000
0010
1000
,  // measure 35
0100
0010
0100
0000
,  // measure 36
0100
0001
0100
0000
,  // measure 37
0100
1000
0010
0100
,  // measure 38
0110
0010
0100
0001
,  // measure 39
0010
0100
0010
0000
,  // measure 40
0010
1000
0010
0000
,  // measure 41
0011
0001
0100
0010
,  // measure 42
1010
1000
0100
0010
,  // measure 43
2002
0000
0000
0000
,  // measure 44
0000
0000
0000
3003
,  // measure 45
0002
0013
0002
0103
,  // measure 46
1000
0100
0002
0003
,  // measure 47
2000
3100
2000
3010
,  // measure 48
0001
0010
1000
0100
,  // measure 49
2000
3010
2000
3100
,  // measure 50
0001
0100
2000
3000
,  // measure 51
0002
0103
0002
0013
,  // measure 52
1000
0010
0001
1001
,  // measure 53
0100
0010
1000
0100
,  // measure 54
0010
0001
2200
3300
,  // measure 55
0100
0010
0001
0100
,  // measure 56
0010
1000
0202
0303
,  // measure 57
0001
1000
0010
0001
,  // measure 58
0010
1000
1001
0001
,  // measure 59
1000
0100
0001
0010
,  // measure 60
1000
0001
1001
0000
,  // measure 61
0110
0000
0000
0000
;

//---------------dance-single - Beginner----------------
#NOTES:
     dance-single:
     Beginner:
     Beginner:
     3:
     0.179,0.219,0.046,0.000,0.000: // measure 1
0000
0000
0000
0000
,  // measure 2
0000
0000
0000
0000
,  // measure 3
0001
0000
1000
0000
,  // measure 4
0001
0000
0100
0000
,  // measure 5
0010
0000
0100
0000
,  // measure 6
0001
0000
0000
0000
,  // measure 7
1000
0000
0001
0000
,  // measure 8
1000
0000
0100
0000
,  // measure 9
0010
0000
0100
0000
,  // measure 10
1000
1000
1000
0000
,  // measure 11
0001
0000
1000
0000
,  // measure 12
0010
0010
0010
0000
,  // measure 13
1000
0000
0001
0000
,  // measure 14
0010
0010
0010
0000
,  // measure 15
0001
0000
0100
0000
,  // measure 16
0010
0010
0010
0000
,  // measure 17
1000
0000
0100
0000
,  // measure 18
0010
0010
0010
0001
,  // measure 19
0000
1000
0000
0001
,  // measure 20
0000
0100
0000
1000
,  // measure 21
0000
0100
0000
0001
,  // measure 22
0000
1000
1000
1000
,  // measure 23
0000
0001
0000
1000
,  // measure 24
0000
0100
0000
0001
,  // measure 25
0000
0100
0000
1000
,  // measure 26
1000
1000
0000
0000
,  // measure 27
0001
0000
1000
0000
,  // measure 28
0010
0000
0100
0000
,  // measure 29
0010
0000
1000
0000
,  // measure 30
0010
0000
0100
0000
,  // measure 31
1001
0000
0001
0000
,  // measure 32
0010
0000
0100
0000
,  // measure 33
0010
0000
0001
0000
,  // measure 34
0010
0000
0100
0000
,  // measure 35
0110
0000
1000
0000
,  // measure 36
0010
0000
0100
0000
,  // measure 37
0001
0000
0100
0000
,  // measure 38
1000
0000
0100
0000
,  // measure 39
0110
0000
0001
0000
,  // measure 40
0010
0000
0100
0000
,  // measure 41
1000
0000
0100
0000
,  // measure 42
0001
0000
1000
0000
,  // measure 43
1001
0000
0000
0000
,  // measure 44
0000
0000
0000
0000
,  // measure 45
0001
0000
1000
0000
,  // measure 46
0010
0010
0010
0000
,  // measure 47
0001
0000
1000
0000
,  // measure 48
0100
0100
0100
0000
,  // measure 49
0001
0000
0010
0000
,  // measure 50
1000
1000
1000
0000
,  // measure 51
0001
0000
0100
0000
,  // measure 52
1000
1000
1000
0000
,  // measure 53
0001
0001
0001
0000
,  // measure 54
0100
0100
0100
0000
,  // measure 55
1000
1000
1000
0000
,  // measure 56
0100
0100
0100
0000
,  // measure 57
0001
0001
0001
0000
,  // measure 58
0010
0010
0010
0000
,  // measure 59
1000
1000
1000
0000
,  // measure 60
0100
0100
0100
0000
,  // measure 61
0110
0000
0000
0000
;
