#TITLE:Pts.Of.Athrty;
#SUBTITLE:;
#ARTIST:LINKIN PARK;
#TITLETRANSLIT:;
#SUBTITLETRANSLIT:;
#ARTISTTRANSLIT:;
#CREDIT:Mr. Kewing;
#BANNER:Pts.Of.Athrty.png;
#BACKGROUND:Pts.Of.Athrty-bg.png;
#LYRICSPATH:Pts.Of.Athrty.lrc;
#CDTITLE:!Mr Kewing S1 (cdtitle).png;
#MUSIC:Pts.Of.Athrty.ogg;
#OFFSET:-0.045;
#SAMPLESTART:30.222;
#SAMPLELENGTH:10.100;
#SELECTABLE:YES;
#BPMS:0.000=190.440;
#STOPS:288.000=0.157
,288.500=0.157
,289.000=0.157
,318.500=0.157
,319.000=0.157
,319.500=0.157
;
#BGCHANGES:0.000=Pts.Of.Athrty.avi=1.000=1=0=0,
99999=-nosongbg-=1.000=0=0=0 // don't automatically add -songbackground-
;

//---------------dance-single - ----------------
#NOTES:
     dance-single:
     :
     Beginner:
     2:
     0.158,0.220,0.072,0.000,0.000:
0000
0000
0000
0000
,
0000
0000
0000
0000
,
0000
0000
0000
0000
,
0000
0000
0000
0000
,
1000
0000
0000
0000
,
0000
0000
0000
0000
,
0001
0000
0000
0000
,
1000
0000
0000
0000
,
1000
0000
0000
0000
,
0010
0000
0000
0000
,
0100
0000
0000
0000
,
0000
0000
0000
0000
,
0001
0000
0000
0000
,
1000
0000
0100
0000
,
0010
0000
0000
0000
,
0001
0000
0100
0000
,
0010
0000
0100
0000
,
0100
0000
0001
0000
,
0001
0000
0010
0000
,
0010
0000
0100
0000
,
0110
0000
0000
0000
,
1000
0000
0010
0000
,
0100
0000
0000
0000
,
0100
0000
0001
0000
,
0010
0000
0000
0000
,
0001
0000
0010
0000
,
0100
0000
0000
0000
,
0100
0000
1000
0000
,
0010
0000
0000
0000
,
1000
0000
0010
0000
,
0001
0000
0000
0000
,
0001
0000
0010
0000
,
0100
0000
0000
0000
,
0001
0000
0010
0000
,
1000
0000
0000
0000
,
0010
0000
0000
0000
,
0100
0000
1000
0000
,
0001
0000
0001
0000
,
0100
0000
1000
1000
,
1000
0000
0100
0000
,
0010
0000
1000
0000
,
0001
0000
1000
0000
,
0100
0000
0010
0000
,
0001
0000
0000
0000
,
1001
0000
0000
0000
,
1000
0000
0000
0000
,
0010
0000
0000
0000
,
0000
0000
0000
0000
,
1000
0000
0000
0000
,
0001
0000
0000
0000
,
0010
0000
0000
0000
,
0000
0000
0000
0000
,
0010
0000
0000
0000
,
0100
0000
1000
0000
,
0001
0000
0000
0000
,
0000
0000
0000
0000
,
1001
0000
0100
0000
,
0100
0000
0010
0000
,
0001
0000
0000
0000
,
0001
0000
0100
0000
,
0010
0000
0100
0000
,
0100
0000
0010
0000
,
1000
0000
0000
0000
,
1000
0000
0100
0000
,
0010
0000
0001
0000
,
1000
0000
0010
0000
,
0001
0000
0000
0000
,
0001
0000
0010
0000
,
0100
0000
0001
0000
,
1000
0000
0100
0000
,
0001
0000
0000
0000
,
0000
0000
0000
0000
,
1000
0000
0000
0000
,
0000
1000
0000
0000
0000
0000
0000
0000
,
0000
0100
0000
0000
0000
0001
0000
0000
,
0000
0100
0000
0000
0000
0010
0000
0000
,
0000
0001
0000
0000
0000
0000
0000
0000
,
0000
0001
0000
0000
0000
0000
0000
0000
,
0000
0100
0000
0000
0000
1000
0000
0000
,
0000
0100
0000
0000
0000
0010
0000
0000
,
0000
1000
0000
0100
,
0000
0001
0000
0100
,
0000
1000
0000
0010
,
0000
0100
0000
1001
,
0000
0010
0000
0110
,
0000
0001
0000
1001
,
0000
1001
0000
0110
,
0000
1001
0000
0000
,
0000
0001
0000
0000
,
0000
1000
0000
0001
,
0000
0100
0000
1000
,
1000
0000
0000
0000
;

//---------------dance-single - ----------------
#NOTES:
     dance-single:
     :
     Easy:
     5:
     0.330,0.416,0.121,0.137,0.000:
0000
0000
0000
0000
,
0000
0000
0000
0000
,
0000
0000
0000
0000
,
0000
0000
0000
0000
,
0001
0001
0000
0000
,
0000
0000
0000
0000
,
1000
1000
0000
0000
,
0100
0000
0010
0000
,
0001
0001
1000
0000
,
1000
1000
0001
0000
,
0100
0100
0010
0000
,
0001
0000
0100
0000
,
1000
0001
0100
0000
,
0001
1000
0100
0010
,
0001
1000
0100
0000
,
0001
0000
0010
0000
,
1000
0001
1001
0000
,
1000
0100
1100
0000
,
0001
0100
0101
0000
,
0001
1000
0001
0010
,
0110
0100
1000
0000
,
0001
0100
0001
0010
,
0002
0000
1000
0000
,
1000
1000
0100
0003
,
0100
0100
0001
0000
,
1000
0100
1000
0010
,
2000
0000
0100
0000
,
0001
0001
0100
3000
,
0100
0100
1000
0000
,
0010
0100
0001
1000
,
0002
0000
1000
0000
,
0010
0010
0100
0003
,
0100
0100
0001
0000
,
0010
0100
1000
0001
,
2000
0000
0001
0000
,
0100
0000
0010
3000
,
1001
0001
0100
0000
,
0010
1000
0100
0001
,
0000
0100
1000
1000
,
0100
0000
0010
0000
0000
0010
0000
0000
,
0001
0100
0001
0000
,
1000
0100
1000
0000
,
0001
0100
0010
0000
,
0010
0100
0001
0010
,
0200
0000
0000
0000
,
2300
0000
0000
0000
,
0002
0000
0000
0000
,
0000
0000
0000
0000
,
3003
0100
0100
0000
,
0010
0000
0010
1000
,
0002
0000
0000
0000
,
0000
0000
0000
0000
,
0003
0010
0010
0000
,
0100
0000
0100
2000
,
0002
0000
0000
0000
,
0000
0000
0000
3003
,
1001
1000
0001
0000
,
0001
0100
0001
0010
,
0002
0010
0010
0000
,
1000
1000
0100
0103
,
0101
0001
1000
0000
,
1000
0100
1000
0010
,
2000
0010
0010
0000
,
0001
0001
0100
3100
,
1100
1000
0010
0000
,
0010
0100
0001
1000
,
0002
1000
1000
0000
,
0010
0010
0100
0103
,
0101
0001
0010
0000
,
0010
0100
1000
0001
,
2000
0001
0001
0000
,
0001
0000
0100
0000
,
3020
0000
0030
0000
0000
1000
0000
0001
,
0000
0100
0000
0001
0000
1001
0000
0001
,
0000
0010
0000
0000
0000
0001
0000
0000
,
0100
0000
0000
0010
0000
1000
1000
0010
,
0000
0100
0000
0000
0000
0001
0000
1000
,
0000
0100
0000
1000
0000
1001
0000
1000
,
0000
0010
0000
0000
0000
1000
0000
0000
,
0100
0000
0000
0010
0000
0002
0003
0001
,
0000
0001
0010
0100
,
1000
0001
1000
0000
0100
0000
0010
0000
,
0000
0000
0001
0000
0000
0100
0000
0000
,
0010
0000
1000
0001
1000
0000
1001
0000
,
0000
0000
0001
0100
0001
0000
0101
0000
,
0000
0000
1000
0100
1000
0000
1100
0000
,
0000
0000
1000
0100
0010
0000
0001
0010
,
0100
0000
1001
0000
0001
0000
0100
0100
,
0000
0001
0010
0000
,
0000
0000
0001
0000
1000
0000
0100
0100
,
0000
0000
1000
0000
0010
0010
0000
0100
,
0200
0000
0000
0000
,
0000
0000
0000
0000
,
0000
0000
0000
0000
,
0300
0000
0000
0000
;

//---------------dance-single - ----------------
#NOTES:
     dance-single:
     :
     Medium:
     7:
     0.431,0.530,0.161,0.129,0.000:
0000
0000
0000
0000
,
0000
0000
0000
0000
,
0000
0000
0000
0000
,
0000
0000
0000
0000
,
0001
0001
0000
0000
,
0000
0000
0000
0000
,
1000
1000
0000
0000
,
0100
0000
0000
0100
0000
0000
0100
0000
,
0010
0001
0100
0000
,
0001
0000
1000
0000
0100
0000
0010
0001
,
0010
0010
0100
0000
,
1000
0000
0000
0001
0000
0000
0100
0000
,
0010
0000
1000
0000
0100
0000
0000
0100
,
1000
0000
0001
0000
0100
0000
0010
1000
,
0010
0000
0010
0000
0100
0000
0000
0100
,
0001
0000
0000
1000
0000
0000
0100
0000
,
0010
0000
0001
0000
0100
0000
0000
0010
,
0100
0000
0001
0000
0010
0000
0100
1000
,
0100
0100
0010
0001
,
0100
0010
1000
0000
0001
0010
0100
0000
,
1001
0100
0001
0000
,
1000
0010
0100
0000
0001
0000
0010
0000
,
0120
0100
0001
0000
,
0130
1000
0001
0100
,
0011
0100
1000
0000
,
0001
0010
0100
0000
1000
0000
0010
0000
,
0120
0100
1000
0000
,
0130
0001
1000
0100
,
1010
0100
0001
0000
,
1000
0100
0010
0000
0001
0000
0100
0000
,
0010
1000
0010
0000
1000
0000
0000
0000
,
0100
0000
1000
0001
1000
0001
0100
0000
,
0011
0100
1000
0000
,
0001
0100
0010
0000
1000
0000
0100
0000
,
0210
0010
1000
0000
,
1000
0000
0001
0000
0000
0010
0300
0000
,
1001
0000
1000
0000
0001
0100
0000
0100
,
0010
0001
0010
1000
,
0001
0010
0100
0000
1100
0000
1100
0000
,
0100
0010
0001
0000
0100
0000
0010
0000
,
1000
0001
0000
0010
0100
0000
1000
1000
,
0001
0000
0010
0000
0001
0000
1000
0001
,
0000
0100
0000
0010
0000
0100
0000
0001
,
1000
0001
0010
0100
,
0020
0000
0000
0000
,
0032
0000
0000
0000
,
0200
0000
0000
0000
,
0000
0000
0000
0000
,
0303
0010
1000
0000
,
0001
0100
0010
2000
,
0200
0000
0000
0000
,
0000
0000
0000
0000
,
3300
0010
0001
0000
,
0010
0100
1000
0020
,
0200
0000
0000
0000
,
0000
0000
0000
0330
,
1001
0100
0001
0010
,
0100
1000
0001
1000
0000
0020
0000
0000
,
0130
0001
0011
0000
,
0010
1000
0010
0001
,
1001
0100
1000
0010
,
0100
0001
1000
0001
0000
0020
0000
0000
,
0130
1000
0010
0001
,
0010
0000
1000
0001
1000
0100
1000
0000
,
1001
0010
0001
0100
,
0010
1000
0001
1000
0000
0200
0000
0000
,
0310
0001
0100
1000
,
0100
0000
0001
0010
0001
0000
0100
0000
,
1001
0010
1000
0100
,
0010
0001
1000
0001
0000
0200
0000
0000
,
0310
0100
0001
2000
0000
0000
0010
0000
,
0010
0000
0000
0100
0000
0000
0000
0000
,
3001
0001
0001
0000
0000
0001
0000
0010
,
0000
0100
0000
0010
0001
1000
0000
0100
,
0000
1000
0000
0010
0000
0001
0010
0100
,
0000
0001
0010
0100
0000
0010
0100
0010
,
0000
0110
0000
0000
0000
0001
0000
0100
,
0000
0010
0000
0100
0001
1000
0000
0010
,
0000
1000
0000
0100
0000
0001
0100
0010
,
0000
0001
0100
0010
0000
0100
0010
0110
,
0000
0100
0010
0000
1000
0000
0100
0000
,
1000
0001
1000
0000
0010
0000
0100
0000
,
0001
0000
1000
0000
0100
0010
0000
0001
,
1000
0000
0010
0100
0001
0000
0101
0000
,
0000
1000
0100
0010
0001
0000
1001
0000
,
1000
0001
0100
0010
1000
0000
1100
0000
,
0100
1000
0010
0100
0001
0000
1000
0100
,
0010
0001
0100
0000
0001
0000
0010
0001
,
0000
1000
0010
0000
1000
0000
0000
0000
,
0000
0100
0010
0000
0010
0000
0001
1000
,
0000
0010
0100
0000
0010
0100
0000
0001
,
2000
0000
0000
0000
,
0000
0000
0000
0000
,
0000
0000
0000
0000
,
3000
0000
0000
0000
;

//---------------dance-single - ----------------
#NOTES:
     dance-single:
     :
     Hard:
     9:
     0.545,0.643,0.314,0.072,0.012: // measure 1
0000
0000
0000
0000
,  // measure 2
0000
0000
0000
0000
,  // measure 3
0000
0000
0000
0000
,  // measure 4
0000
0000
0000
0000
,  // measure 5
0001
0001
0000
0000
,  // measure 6
0000
0000
0000
0000
0000
0000
0000
1000
,  // measure 7
1000
1000
0000
0000
,  // measure 8
0001
0000
0000
0010
0000
0000
0100
0000
,  // measure 9
1000
0100
1000
0000
1010
0000
0000
1000
,  // measure 10
1000
0000
0100
0000
0010
1000
0010
0000
,  // measure 11
0001
0000
1000
0001
1000
0000
0010
0000
,  // measure 12
1000
0000
0000
0100
0000
0000
0010
0000
,  // measure 13
0001
0100
0001
0000
0011
0000
0000
0001
,  // measure 14
0001
0100
0010
0000
0010
0001
0010
1000
,  // measure 15
0001
0000
1000
0001
1000
0000
0000
0100
,  // measure 16
1000
0000
0010
1000
0000
0010
0100
0001
,  // measure 17
1000
0000
0100
0000
0010
0000
0100
1000
,  // measure 18
0001
0000
0010
0001
1000
0100
1000
0001
,  // measure 19
0100
0000
0001
0000
1000
0000
0010
1000
,  // measure 20
0001
0100
0001
1000
0100
0010
0001
0100
,  // measure 21
0101
0001
0011
0001
,  // measure 22
1000
0010
0100
1000
0000
0100
0001
0000
,  // measure 23
0010
0000
0100
0000
0110
0000
0010
0001
,  // measure 24
0100
0010
0100
0001
0000
1000
0100
0000
,  // measure 25
1100
1000
1010
1000
,  // measure 26
0001
0010
0100
0001
0000
0100
1000
0000
,  // measure 27
0010
0000
0100
0000
0110
0000
0010
1000
,  // measure 28
0100
0010
0100
1000
0000
0001
0100
0000
,  // measure 29
0101
0000
0100
0000
1100
0000
0100
1000
,  // measure 30
0100
0001
0100
0010
0000
0100
0001
0000
,  // measure 31
1000
0001
0010
0000
0110
0000
0100
0000
,  // measure 32
0001
0100
0010
0100
1000
0001
1000
0000
,  // measure 33
1100
0000
0100
0000
0101
0000
0100
0001
,  // measure 34
0100
1000
0100
0010
0000
0100
1000
0000
,  // measure 35
0001
1000
0010
0000
0110
0000
0100
0000
,  // measure 36
1001
0000
0101
0000
0000
1100
0000
0000
,  // measure 37
1001
0000
0001
0000
0010
1000
0000
0010
,  // measure 38
0001
1000
0010
0100
0001
0000
1001
0000
,  // measure 39
0001
0010
0100
1000
1100
0000
1100
0000
,  // measure 40
1000
0010
0100
0000
0100
0010
0000
1000
,  // measure 41
0100
0001
0000
0100
1000
0000
0010
0010
,  // measure 42
0010
0000
0100
0001
1000
0000
1000
0001
,  // measure 43
0000
0010
0000
0100
0000
0001
0000
0100
,  // measure 44
1000
0000
0010
1000
0100
0000
0010
0001
,  // measure 45
0200
0000
0000
0000
,  // measure 46
2300
0000
0000
0000
,  // measure 47
0002
0000
0000
0000
,  // measure 48
0000
0000
0000
0000
,  // measure 49
3003
0000
0001
0000
0100
0000
1000
0001
,  // measure 50
0000
1000
0000
0010
0000
0002
0000
2000
,  // measure 51
0000
0000
0000
0000
,  // measure 52
0000
0000
0000
0000
0000
0000
0000
3003
,  // measure 53
0000
0000
1000
0000
0010
0000
0001
0100
,  // measure 54
0000
0010
0000
1000
0000
0200
0000
0020
,  // measure 55
0000
0000
0000
0000
,  // measure 56
0000
0000
0000
0000
0000
0000
0000
0330
,  // measure 57
0011
0001
0101
0001
,  // measure 58
1000
0100
0010
1000
0000
0010
0001
0000
,  // measure 59
0100
0000
0010
0000
0110
0000
0100
0001
,  // measure 60
0100
1000
0100
0001
0000
1000
0010
0000
,  // measure 61
1010
1000
1100
1000
,  // measure 62
0001
0100
0010
0001
0000
0010
1000
0000
,  // measure 63
0100
0000
0010
0000
0110
0000
0100
1000
,  // measure 64
0100
0001
0100
1000
0000
0001
0010
0000
,  // measure 65
0011
0000
0010
0000
1010
0000
0010
1000
,  // measure 66
0010
0001
0100
0010
0000
0100
0001
0000
,  // measure 67
1000
0001
0010
0000
0110
0000
0100
0000
,  // measure 68
0001
0100
0010
0100
1000
0010
1000
0000
,  // measure 69
1010
0000
0010
0000
0011
0000
0010
0001
,  // measure 70
0010
1000
0100
0010
0000
0100
1000
0000
,  // measure 71
0001
1000
0010
0200
0000
0000
0010
0000
,  // measure 72
0010
0000
0000
1000
0000
0000
0001
0300
,  // measure 73
0100
0100
0100
0000
0001
1000
0001
0100
,  // measure 74
0001
0010
0000
0001
1000
0100
0000
0110
,  // measure 75
0000
1001
0000
0001
1000
0100
0010
1000
,  // measure 76
0010
0100
0010
0001
0000
0001
0100
1000
,  // measure 77
0100
0010
0000
0000
1000
0001
1000
0100
,  // measure 78
1000
0010
0000
1000
0001
0100
0000
0110
,  // measure 79
0000
1001
0000
1000
0001
0100
0010
0001
,  // measure 80
0010
0100
0010
1000
0000
1010
0110
0101
,  // measure 81
0000
0001
0010
0100
1000
0100
0001
0000
,  // measure 82
0001
0100
1000
0100
0010
0001
0100
0000
,  // measure 83
0100
0010
0001
0000
0001
0010
0000
0010
,  // measure 84
1000
0000
0000
0000
1000
0000
0100
0000
0010
0000
0001
0010
0001
0000
0000
0000
,  // measure 85
0000
0000
0001
0000
0100
0000
0001
0000
0010
0000
0001
1000
0001
0000
0000
0000
,  // measure 86
0100
0000
0010
0000
1000
0000
0100
0000
0010
0000
0001
0100
0001
0000
0000
0000
,  // measure 87
0100
0001
0010
0100
1000
0010
0100
0001
,  // measure 88
0010
0100
1000
0000
0001
0000
1000
0010
,  // measure 89
0000
0001
0010
0000
1000
0000
0000
0000
,  // measure 90
0000
1000
0010
0000
0100
0000
0001
0010
,  // measure 91
0000
1000
0010
0000
0100
0010
0000
0001
,  // measure 92
0200
0000
0000
0000
,  // measure 93
0000
0000
0000
0000
,  // measure 94
0000
0000
0000
0000
,  // measure 95
0300
0000
0000
0000
;
