#TITLE:Primal Eyes;
#SUBTITLE:[Parasite Eve];
#ARTIST:下村陽子;
#TITLETRANSLIT:Primal Eyes;
#SUBTITLETRANSLIT:;
#ARTISTTRANSLIT:Shimomura, Yōko;
#CREDIT:;
#BANNER:Primal Eyes.png;
#BACKGROUND:Primal Eyes-bg.png;
#LYRICSPATH:;
#CDTITLE:!Kewing v3 (cdtitle).png;
#MUSIC:101 Primal Eyes.mp3;
#OFFSET:0.290;
#SAMPLESTART:53.693;
#SAMPLELENGTH:12.640;
#SELECTABLE:YES;
#BPMS:0.000=64.902,22.573=291.900,213.000=157.942,285.000=144.002,301.000=288.002,395.000=360.000,395.500=430.001,396.000=500.000,396.500=570.000,397.000=650.000,399.000=419.999,399.250=270.020,399.500=204.980,399.750=140.020,400.000=65.020;
#STOPS:84.000=0.205
;
#BGCHANGES:0.000=parasite.avi=1.000=1=0=1,
414.750=Primal Eyes-bg.png=1.000=1=0=1,
99999=-nosongbg-=1.000=0=0=0 // don't automatically add -songbackground-
;
#DISPLAYBPM:65.000:292.000;

//---------------dance-single - Challenge----------------
#NOTES:
     dance-single:
     Challenge:
     Challenge:
     10:
     0.636,0.846,0.277,0.099,0.138: // measure 1
0000
0000
0000
0000
,  // measure 2
0000
0000
0000
0000
0000
0000
0000
0000
0000
0000
0000
0000
0000
0000
0000
0000
0000
0000
0000
0000
0000
0000
0000
0000
0000
0000
0000
0000
0000
0010
0000
0000
0000
0000
0000
0000
0000
0000
0000
0000
0000
0000
0000
0000
0000
0000
0000
0000
,  // measure 3
0000
0000
0000
0000
0000
0000
0000
0000
0000
0000
0000
0000
0000
0000
0000
0000
0000
0000
0000
0000
0000
0000
0000
0000
0000
0000
0000
0000
0000
0000
0000
0000
0000
0000
0000
0000
0000
0000
0000
0000
0000
0000
0000
0000
0000
0000
0000
0000
0000
0000
0000
0000
0000
0000
1001
0000
0000
0000
0000
0000
0000
0000
0000
0000
0000
0000
0000
0000
0000
0000
0000
0000
0000
0000
0000
0000
0000
0000
0000
0000
0000
0000
0000
0000
0000
0000
0000
0000
0000
0000
0000
0000
0000
0000
0000
0000
0000
0000
0000
0000
0000
0000
0000
0000
0000
0000
0000
0000
0000
0000
0000
0000
0000
0000
0000
0000
0000
0000
0000
0000
0000
0000
0000
0000
0000
0000
0000
0000
0000
0000
0000
0000
0000
0000
0000
0000
0001
0000
0000
0000
0000
0000
0000
0000
0000
0000
0000
0000
0000
0000
0000
0000
0000
0000
0000
0000
0000
0000
0000
0000
0100
0000
0000
0000
0000
0000
0000
0000
0000
0000
0000
0000
0000
0000
0000
0000
0010
0000
0000
0000
0000
0000
0000
0000
0000
0000
0000
0000
0000
0000
0000
0000
,  // measure 4
1000
0100
0100
0010
0001
1000
0001
0100
0100
0001
0010
1000
,  // measure 5
0010
0100
0100
1000
0010
0001
0010
0100
0100
0001
0100
1000
,  // measure 6
0100
0000
0000
0000
0010
0000
0000
0000
0010
0000
0000
0000
1000
0000
0000
0000
0100
0000
0000
0000
0001
0000
0000
0000
0100
0000
0000
0000
0000
0110
0000
0000
0000
0000
0000
0000
0000
0000
0000
0000
0000
0000
0000
0000
0000
0000
0000
0000
,  // measure 7
0001
0000
0100
0000
0010
0000
1000
0001
,  // measure 8
1000
0100
0000
0100
,  // measure 9
1000
0000
0010
0000
0100
0000
0001
1000
,  // measure 10
0001
0010
0000
0010
,  // measure 11
0001
0000
0100
0000
0010
0000
1000
0001
,  // measure 12
1000
0100
0000
1000
,  // measure 13
0001
0000
0010
0000
0100
0000
1000
0001
,  // measure 14
1000
0010
0000
1000
,  // measure 15
0100
0000
0010
0000
0001
0000
0100
0010
,  // measure 16
0100
1000
0100
0010
,  // measure 17
0100
0000
0001
0000
1000
0000
0100
0010
,  // measure 18
0100
0001
0100
0010
,  // measure 19
0100
0000
1000
0000
0001
0000
0100
0010
,  // measure 20
0100
0000
0001
0000
1000
0100
0010
0001
,  // measure 21
1000
0000
1000
0000
0001
0100
0010
1000
,  // measure 22
0001
0000
0010
0000
0001
1000
0100
0000
,  // measure 23
0100
0010
0001
1100
,  // measure 24
1000
0000
0010
0000
1000
0001
0100
0000
,  // measure 25
0100
0001
0010
0011
,  // measure 26
0001
0000
0100
0000
0001
1000
0010
0000
,  // measure 27
0010
0100
0001
1010
,  // measure 28
1000
0000
0100
0000
1000
0001
0010
0000
,  // measure 29
0010
0001
0100
0101
,  // measure 30
0001
0000
1000
0010
1000
0000
0010
0000
,  // measure 31
0001
0000
0010
0000
0100
0001
1000
0000
,  // measure 32
1001
0000
0001
0010
0001
0000
0010
0000
,  // measure 33
1000
0000
0010
0000
0100
1000
0001
0000
,  // measure 34
1001
0000
0001
0100
0001
0000
0100
0000
,  // measure 35
1000
0000
0100
0000
0010
1000
0001
0000
,  // measure 36
1001
0000
1000
0100
1000
0000
0100
0000
,  // measure 37
0001
0000
0100
0000
0010
0001
1000
0000
,  // measure 38
1001
0110
0010
1000
,  // measure 39
0100
0010
0100
0000
0010
0000
0110
0000
,  // measure 40
0000
0000
1000
0000
0001
0100
0001
0000
,  // measure 41
1000
0000
0100
0001
0000
0100
1000
0000
,  // measure 42
0010
0110
0100
0001
,  // measure 43
1000
0010
1000
0000
0001
0000
1001
0000
,  // measure 44
0000
0000
0010
1000
0010
1000
0010
0100
,  // measure 45
0001
0000
0010
0001
0010
0001
0010
0100
,  // measure 46
1000
0000
1000
0010
0100
0000
0010
0100
,  // measure 47
0001
0000
1001
0000
1000
0100
1000
0000
,  // measure 48
1100
0000
0001
0010
0100
0000
0010
0100
,  // measure 49
1000
0000
1001
0000
0001
0100
0001
0000
,  // measure 50
0101
0000
0100
0010
1000
0000
0100
0010
,  // measure 51
0001
0000
1001
0000
0100
0010
0100
0000
,  // measure 52
0110
0000
0001
0100
0001
0100
0010
1000
,  // measure 53
0100
0000
1000
0100
1000
0100
0010
0001
,  // measure 54
0100
0000
0110
0010
1000
0100
0000
0001
,  // measure 55
0100
0000
0100
0010
0001
0100
0000
1000
,  // measure 56
0100
0000
0001
0010
0100
1000
0001
0100
,  // measure 57
1000
0100
0010
1000
0100
0010
0001
0010
,  // measure 58
1000
0010
0001
1000
0010
0001
0000
0010
,  // measure 59
1000
0000
1000
0001
0010
1000
0000
0010
,  // measure 60
0001
0000
0001
1000
0010
0001
0010
0100
,  // measure 61
0001
1000
0100
1000
0001
0010
1000
0010
,  // measure 62
0100
1000
0001
1000
0010
0001
1000
0100
,  // measure 63
0002
0000
0023
0000
2030
0000
3010
0001
,  // measure 64
1000
0001
0100
0010
0002
0000
2003
0000
,  // measure 65
3100
0001
1000
0001
0010
1000
0001
0100
,  // measure 66
2000
0000
3020
0000
0032
0000
0013
1000
,  // measure 67
0001
1000
0100
0010
2000
0000
3002
0000
,  // measure 68
0103
1000
0001
1000
0010
0010
0001
0010
,  // measure 69
0010
0100
1000
1000
0100
0001
0001
0100
,  // measure 70
0010
1000
1001
0001
0010
0010
1000
0010
,  // measure 71
0010
0100
0001
0001
0100
1000
1000
0100
,  // measure 72
0010
0000
0001
0000
1001
0000
0001
0010
0001
0000
1000
0000
1000
0100
0001
0100
,  // measure 73
1000
0000
0000
0000
0001
0000
1000
0010
1000
0000
0010
0000
0100
0001
0010
0100
,  // measure 74
0010
0000
1001
0000
0001
0000
1000
0010
1000
0000
0001
0000
0001
0100
1000
0100
,  // measure 75
0001
0000
0000
0000
1000
0000
0001
0010
0001
0000
0010
0000
0100
1000
0010
0100
,  // measure 76
0010
1001
0110
0000
0010
0000
0001
0000
,  // measure 77
0100
0010
0100
0000
0010
0000
0110
0000
,  // measure 78
0100
0000
0001
0000
1000
0100
1000
0000
,  // measure 79
0001
0000
0100
1000
0000
0100
0001
0000
,  // measure 80
0010
0110
0100
1000
,  // measure 81
0001
0010
0001
0000
1000
0000
1001
0000
,  // measure 82
0001
0000
1000
0010
0100
0001
0100
0010
,  // measure 83
0100
0000
0001
0010
0100
1000
0100
0010
,  // measure 84
0200
0000
0310
0000
0010
0100
1000
0000
,  // measure 85
0001
1000
0010
1000
0100
0000
1100
0000
,  // measure 86
1000
0000
0010
0000
0010
0100
0001
0000
,  // measure 87
1000
0001
0010
0001
0100
0000
0101
0000
,  // measure 88
0001
0000
0010
0000
0010
0100
1000
0000
,  // measure 89
0001
1000
0010
1000
0100
0000
1100
0000
,  // measure 90
1000
0000
0010
1000
0100
1000
0010
0100
,  // measure 91
0001
0000
0010
0001
0100
0001
0010
0100
,  // measure 92
1000
0000
1000
0100
0001
0000
0100
1000
,  // measure 93
0001
0100
0010
1000
0100
0000
0011
0000
,  // measure 94
1001
0000
0001
0100
1000
0000
0100
0001
,  // measure 95
1000
0100
0010
0001
0100
0000
1010
0000
,  // measure 96
1001
0000
0001
0100
1000
0000
0100
0001
,  // measure 97
0010
0100
1000
0010
0100
0000
0110
0000
,  // measure 98
1001
0000
0010
0100
1000
0010
0100
0001
,  // measure 99
0010
0001
0100
0010
1000
0100
0020
0000
,  // measure 100
0000
0000
0000
0000
0000
0000
0000
0000
0000
0000
0000
0000
0000
0030
0000
0000
,  // measure 101
0000
0000
0000
0000
0000
0000
0000
0000
0000
0000
0000
0000
0000
0000
0000
0000
0000
0000
0000
0000
0000
0000
0000
0000
0000
0000
0000
0000
0000
0000
0000
0000
0000
0000
0000
0000
0000
0000
0000
0000
0000
0000
0000
0000
0000
2002
0000
0000
0000
0000
0000
0000
0000
0000
0000
0000
0000
0000
0000
0000
0000
0000
0000
0000
,  // measure 102
0000
0000
0000
0000
,  // measure 103
0000
0000
0000
0000
,  // measure 104
0000
0000
0000
0000
0000
0000
0000
0000
0000
0000
0000
0000
0000
0000
0000
0000
0000
0000
0000
0000
0000
0000
0000
0000
0000
0000
0000
0000
0000
0000
0000
0000
0000
0000
0000
0000
0000
0000
0000
0000
0000
0000
0000
0000
0000
3003
0000
0000
0000
0000
0000
0000
0000
0000
0000
0000
0000
0000
0000
0000
0000
0000
0000
0000
;

//---------------dance-single - Copied from Challeng----------------
#NOTES:
     dance-single:
     Copied from Challeng:
     Hard:
     9:
     0.496,0.662,0.234,0.028,0.078: // measure 1
0000
0000
0000
0000
,  // measure 2
0000
0000
0000
0000
0000
0000
0000
0000
0000
0000
0000
0000
0000
0000
0000
0000
0000
0000
0000
0000
0000
0000
0000
0000
0000
0000
0000
0000
0000
0010
0000
0000
0000
0000
0000
0000
0000
0000
0000
0000
0000
0000
0000
0000
0000
0000
0000
0000
,  // measure 3
0000
0000
0000
0000
0000
0000
0000
0000
0000
0000
0000
0000
0000
0000
0000
0000
0000
0000
0000
0000
0000
0000
0000
0000
0000
0000
0000
0000
0000
0000
0000
0000
0000
0000
0000
0000
0000
0000
0000
0000
0000
0000
0000
0000
0000
0000
0000
0000
0000
0000
0000
0000
0000
0000
1001
0000
0000
0000
0000
0000
0000
0000
0000
0000
0000
0000
0000
0000
0000
0000
0000
0000
0000
0000
0000
0000
0000
0000
0000
0000
0000
0000
0000
0000
0000
0000
0000
0000
0000
0000
0000
0000
0000
0000
0000
0000
0000
0000
0000
0000
0000
0000
0000
0000
0000
0000
0000
0000
0000
0000
0000
0000
0000
0000
0000
0000
0000
0000
0000
0000
0000
0000
0000
0000
0000
0000
0000
0000
0000
0000
0000
0000
0000
0000
0000
0000
0001
0000
0000
0000
0000
0000
0000
0000
0000
0000
0000
0000
0000
0000
0000
0000
0000
0000
0000
0000
0000
0000
0000
0000
0010
0000
0000
0000
0000
0000
0000
0000
0000
0000
0000
0000
0000
0000
0000
0000
0100
0000
0000
0000
0000
0000
0000
0000
0000
0000
0000
0000
0000
0000
0000
0000
,  // measure 4
1000
0000
0010
1000
0000
0001
1000
0100
0010
0001
0000
0100
,  // measure 5
0001
0000
1000
0001
0000
0010
0100
1000
0001
0100
0010
1000
,  // measure 6
0100
0000
0000
0000
0000
0000
0000
0000
0010
0000
0000
0000
0100
0000
0000
0000
0000
0000
0000
0000
1000
0000
0000
0000
0001
0000
0000
0000
0000
0110
0000
0000
0000
0000
0000
0000
0000
0000
0000
0000
0000
0000
0000
0000
0000
0000
0000
0000
,  // measure 7
1000
0001
1000
0010
,  // measure 8
0100
0100
0000
0010
,  // measure 9
1000
0001
1000
0100
,  // measure 10
0010
0010
0000
0010
,  // measure 11
0001
1000
0001
0010
,  // measure 12
0100
0100
0000
0010
,  // measure 13
0001
1000
0001
0100
,  // measure 14
0010
0010
0000
0010
,  // measure 15
1000
0100
0010
0001
,  // measure 16
1000
1000
0000
0010
,  // measure 17
0100
0001
1000
0100
,  // measure 18
0010
0010
0000
0010
,  // measure 19
0001
0100
0010
1000
,  // measure 20
0001
0001
1000
0100
,  // measure 21
0010
0001
0100
0010
,  // measure 22
1001
1000
0001
0010
,  // measure 23
0100
0000
1000
0010
,  // measure 24
0010
1000
0100
1000
,  // measure 25
0001
0000
0001
0010
,  // measure 26
0010
0100
1000
0010
,  // measure 27
0100
0000
0001
0010
,  // measure 28
0010
0001
0100
0010
,  // measure 29
1000
0000
1000
0010
,  // measure 30
0010
0001
0010
1000
,  // measure 31
0001
0000
0001
0100
,  // measure 32
0100
1000
0100
0001
,  // measure 33
1000
0000
0001
0010
,  // measure 34
0010
1000
0010
0001
,  // measure 35
1000
0000
1000
0100
,  // measure 36
0100
0001
0100
1000
,  // measure 37
0001
1000
0010
0100
,  // measure 38
0100
1001
0001
0010
,  // measure 39
0100
0000
1000
0001
,  // measure 40
0000
1000
0100
0100
,  // measure 41
0010
0000
0001
1000
0000
1000
0001
0000
,  // measure 42
0100
0010
1000
0100
,  // measure 43
0010
0100
0001
0100
,  // measure 44
0000
1000
0010
0001
,  // measure 45
0010
1000
0100
0001
,  // measure 46
0100
1000
0010
0100
,  // measure 47
0001
0010
0001
0101
,  // measure 48
0100
0001
0010
0100
,  // measure 49
1000
0010
1000
1100
,  // measure 50
0100
0010
0001
0100
,  // measure 51
0010
1000
0001
1001
,  // measure 52
1000
0000
0010
0100
0010
0100
0010
0000
,  // measure 53
0100
0000
0001
1000
0001
1000
0001
0000
,  // measure 54
1000
0000
1100
0000
0100
1000
0000
1000
,  // measure 55
0010
0000
0101
0000
0100
0001
0000
0001
,  // measure 56
0010
0000
1001
0000
0100
1000
0000
1000
,  // measure 57
0010
0000
0010
0100
0000
0100
0001
0000
,  // measure 58
0011
0000
0010
0001
1000
0100
0000
0100
,  // measure 59
1000
0000
0010
1000
0001
0100
0000
0100
,  // measure 60
0001
0000
0010
0001
1000
0100
0000
0100
,  // measure 61
0010
0000
0010
0001
0000
0001
0100
0000
,  // measure 62
0110
0000
1001
0000
0010
1000
0100
1000
,  // measure 63
0010
0000
0110
0000
0101
0000
0001
0010
,  // measure 64
0100
1000
0000
0001
0100
0000
1010
0000
,  // measure 65
0010
1000
0100
0000
0010
0001
0100
0001
,  // measure 66
0010
0000
0110
0000
1100
0000
1000
0010
,  // measure 67
0100
0001
0000
1000
0100
0000
0011
0000
,  // measure 68
0010
0001
0100
0000
0100
1000
0000
1000
,  // measure 69
0001
0000
0001
0010
0000
0010
1000
0000
,  // measure 70
1001
0000
1100
0000
0100
0001
0000
0001
,  // measure 71
1000
0000
1000
0010
0000
0010
0001
0000
,  // measure 72
1001
0000
0110
0000
0010
0000
0100
0001
,  // measure 73
1001
0000
0000
0000
1000
0000
0001
0000
0010
0000
0000
0000
0100
0010
0100
0000
,  // measure 74
1000
1000
0010
1000
0100
0000
0100
1000
,  // measure 75
1001
0000
0000
0000
0001
0000
1000
0000
0010
0000
0000
0000
0100
0010
0100
0000
,  // measure 76
0001
0001
1001
0000
0001
0000
0010
0000
,  // measure 77
0100
1000
0001
1000
,  // measure 78
0000
0000
0001
0000
0100
0010
0100
0000
,  // measure 79
0010
0000
1000
0001
0000
0001
1000
0000
,  // measure 80
0100
0010
0001
0100
,  // measure 81
0010
0100
1000
0100
,  // measure 82
0000
0000
0001
0100
0010
0100
0001
0000
,  // measure 83
0001
0000
1000
0100
0010
0100
1000
0000
,  // measure 84
2000
3001
0010
1000
,  // measure 85
0010
0000
0001
0000
1000
0010
0100
0000
,  // measure 86
0001
1000
0010
0001
,  // measure 87
0010
0000
1000
0000
0001
0010
0100
0000
,  // measure 88
1000
0001
0100
1000
,  // measure 89
0100
0000
0001
0000
0010
0100
1000
0000
,  // measure 90
0001
0000
1000
0010
0100
0010
0100
0010
,  // measure 91
1000
0000
0001
0010
0100
0010
0100
0010
,  // measure 92
0001
0000
1000
0010
0100
0000
0001
0100
,  // measure 93
0010
1000
0100
0011
,  // measure 94
0011
0000
0001
0010
0100
0000
1000
0100
,  // measure 95
0010
0001
0100
1010
,  // measure 96
1010
0000
1000
0100
0010
0000
0001
0100
,  // measure 97
0010
1000
0001
0110
,  // measure 98
0110
0000
0100
0010
0100
0010
0100
0010
,  // measure 99
1000
0001
1000
0001
1000
0100
0020
0000
,  // measure 100
0000
0000
0000
0000
0000
0000
0000
0000
0000
0000
0000
0000
0000
0030
0000
0000
,  // measure 101
0000
0000
0000
0000
0000
0000
0000
0000
0000
0000
0000
0000
0000
0000
0000
0000
0000
0000
0000
0000
0000
0000
0000
0000
0000
0000
0000
0000
0000
0000
0000
0000
0000
0000
0000
0000
0000
0000
0000
0000
0000
0000
0000
0000
0000
2002
0000
0000
0000
0000
0000
0000
0000
0000
0000
0000
0000
0000
0000
0000
0000
0000
0000
0000
,  // measure 102
0000
0000
0000
0000
,  // measure 103
0000
0000
0000
0000
,  // measure 104
0000
0000
0000
0000
0000
0000
0000
0000
0000
0000
0000
0000
0000
0000
0000
0000
0000
0000
0000
0000
0000
0000
0000
0000
0000
0000
0000
0000
0000
0000
0000
0000
0000
0000
0000
0000
0000
0000
0000
0000
0000
0000
0000
0000
0000
3003
0000
0000
0000
0000
0000
0000
0000
0000
0000
0000
0000
0000
0000
0000
0000
0000
0000
0000
;

//---------------dance-single - ----------------
#NOTES:
     dance-single:
     :
     Medium:
     7:
     0.386,0.588,0.262,0.092,0.021: // measure 1
0000
0000
0000
0000
,  // measure 2
0000
0000
0000
0000
,  // measure 3
0000
0000
0000
0000
0000
0000
0000
0000
0000
0000
0000
0000
0000
0000
0000
0000
0000
0001
0000
0000
0000
0000
0000
0000
,  // measure 4
1000
0000
0000
0000
0000
0000
0001
0000
0000
0000
0000
0000
0200
0000
0000
0000
0000
0310
0000
0000
0000
0000
0000
0000
,  // measure 5
0100
0000
0000
0000
0000
0000
0000
0000
0000
0000
0000
0000
0010
0000
0000
0000
0000
0000
0000
0000
0000
0000
0000
0000
2000
0000
0000
0000
0000
0000
0000
0000
0000
0000
0000
3002
0000
0000
0000
0000
0000
0000
0000
0000
0000
0000
0103
0000
,  // measure 6
0000
0000
0000
0000
0000
0000
0000
0000
0000
0000
0000
0000
0010
0000
0000
0000
0000
0000
0000
0000
0000
0000
0000
0000
0100
0000
0000
0000
0000
0110
0000
0000
0000
0000
0000
0000
0000
0000
0000
0000
0000
0000
0000
0000
0000
0000
0000
0000
,  // measure 7
0010
0000
0100
0000
,  // measure 8
0001
0001
0010
0000
,  // measure 9
0100
0000
0010
0000
,  // measure 10
0001
0001
0100
0000
,  // measure 11
0010
0000
0010
0000
,  // measure 12
1000
1000
0100
0000
,  // measure 13
0010
0000
0100
0000
,  // measure 14
1000
1000
0000
0010
,  // measure 15
0100
0000
0001
0000
,  // measure 16
0001
0001
0000
0010
,  // measure 17
0100
0000
1000
0000
,  // measure 18
1000
1000
0000
0010
,  // measure 19
0100
0000
0001
0000
,  // measure 20
0001
0001
0010
0100
,  // measure 21
1000
0000
0100
0010
,  // measure 22
0001
1000
0001
0100
,  // measure 23
0000
0001
0000
1010
,  // measure 24
0000
1000
0100
0010
,  // measure 25
0000
0100
0000
1001
,  // measure 26
0000
0001
1000
0100
,  // measure 27
0000
1000
0000
0011
,  // measure 28
0000
0001
0100
0010
,  // measure 29
0000
0100
0000
1001
,  // measure 30
0000
1000
0010
1000
,  // measure 31
0001
0010
0000
1100
,  // measure 32
0000
0001
0010
0001
,  // measure 33
1000
0010
0000
0101
,  // measure 34
0000
1000
0100
1000
,  // measure 35
0001
0100
0000
1010
,  // measure 36
0000
0001
0100
0001
,  // measure 37
1000
0100
0000
0011
,  // measure 38
0000
0002
0000
0103
,  // measure 39
0010
0000
0000
0100
,  // measure 40
0000
1000
0000
0100
,  // measure 41
0000
0001
0000
1000
,  // measure 42
1000
0002
0000
0003
,  // measure 43
2000
0000
3100
0010
,  // measure 44
0000
0010
0100
0010
,  // measure 45
0100
1000
0001
1000
,  // measure 46
0000
0001
1000
0010
,  // measure 47
0100
0001
1000
0100
,  // measure 48
0100
0000
1000
0100
,  // measure 49
0010
0001
1000
0010
,  // measure 50
0010
0000
0001
0010
,  // measure 51
0100
1000
0001
0100
,  // measure 52
0100
0000
0001
0100
,  // measure 53
0010
1000
0001
0010
,  // measure 54
0010
0000
1001
0000
0000
1000
0000
0010
,  // measure 55
0010
0000
0110
0000
0000
0100
0000
0001
,  // measure 56
0001
0000
1001
0000
0000
1000
0000
0100
,  // measure 57
0100
0000
0000
0010
0000
0001
0001
0000
,  // measure 58
1000
0000
0110
0000
0010
1000
0000
0001
,  // measure 59
0001
0000
0110
0000
0010
0001
0000
1000
,  // measure 60
1000
0000
0110
0000
0100
0010
0000
0001
,  // measure 61
0100
0000
0100
0010
0000
1000
0100
0000
,  // measure 62
0010
0000
1001
0000
0000
0110
0000
0010
,  // measure 63
0100
1100
0101
1001
,  // measure 64
0000
0110
0000
1000
0001
0000
1001
0000
,  // measure 65
0110
0000
1001
0000
0000
0110
0000
0100
,  // measure 66
0010
1010
0011
1001
,  // measure 67
0000
0110
0000
0001
1000
0000
1001
0000
,  // measure 68
0010
0100
0010
0000
1000
0100
0000
0010
,  // measure 69
0001
0000
0001
0010
0000
0100
1000
0000
,  // measure 70
0001
0000
1000
0000
0001
0100
0000
0010
,  // measure 71
1000
0000
1000
0010
0000
0100
0001
0000
,  // measure 72
1000
0000
0001
0000
1000
0100
0010
0000
,  // measure 73
0110
0000
0001
0010
0100
0000
1000
0000
,  // measure 74
1100
1100
0001
0000
0001
0100
0010
0000
,  // measure 75
0110
0000
1000
0010
0100
0000
0001
0000
,  // measure 76
0011
0011
2000
0000
0000
0000
3100
0000
,  // measure 77
0010
0000
0010
0100
,  // measure 78
0000
0001
0000
0100
,  // measure 79
0000
1000
0000
0001
,  // measure 80
0001
2000
0000
0000
,  // measure 81
3002
0000
0103
0010
,  // measure 82
0000
0100
0001
0010
,  // measure 83
0100
1000
0100
0010
,  // measure 84
0002
1003
0001
1000
,  // measure 85
0001
0000
0010
0001
,  // measure 86
1000
0001
0100
0001
,  // measure 87
0100
0000
0010
1000
,  // measure 88
0001
1000
0100
1000
,  // measure 89
0100
0000
0010
0001
,  // measure 90
1000
0001
0100
0010
,  // measure 91
1000
0010
0100
0001
,  // measure 92
0000
0010
0001
1000
,  // measure 93
0001
0100
0010
1000
,  // measure 94
1000
0010
1000
0001
,  // measure 95
1000
0100
0010
0001
,  // measure 96
0001
0100
0010
1000
,  // measure 97
0100
0010
0001
0100
,  // measure 98
0010
1000
0010
0001
,  // measure 99
0010
1000
0100
0020
,  // measure 100
0000
0000
0000
0000
0000
0000
0000
0000
0000
0000
0000
0000
0000
0030
0000
0000
,  // measure 101
0000
0000
0000
0000
0000
0000
0000
0000
0000
0000
0000
0000
0000
0000
0000
0000
0000
0000
0000
0000
0000
0000
0000
0000
0000
0000
0000
0000
0000
0000
0000
0000
0000
0000
0000
0000
0000
0000
0000
0000
0000
0000
0000
0000
0000
2002
0000
0000
0000
0000
0000
0000
0000
0000
0000
0000
0000
0000
0000
0000
0000
0000
0000
0000
,  // measure 102
0000
0000
0000
0000
,  // measure 103
0000
0000
0000
0000
,  // measure 104
0000
0000
0000
0000
0000
0000
0000
0000
0000
0000
0000
0000
0000
0000
0000
0000
0000
0000
0000
0000
0000
0000
0000
0000
0000
0000
0000
0000
0000
0000
0000
0000
0000
0000
0000
0000
0000
0000
0000
0000
0000
0000
0000
0000
0000
3003
0000
0000
0000
0000
0000
0000
0000
0000
0000
0000
0000
0000
0000
0000
0000
0000
0000
0000
;

//---------------dance-single - ----------------
#NOTES:
     dance-single:
     :
     Easy:
     6:
     0.316,0.478,0.220,0.064,0.011: // measure 1
0000
0000
0000
0000
,  // measure 2
0000
0000
0000
0000
,  // measure 3
0000
0000
0000
0000
0000
0000
0000
0000
0000
0000
0000
0000
0000
0000
0000
0000
0000
0001
0000
0000
0000
0000
0000
0000
,  // measure 4
1000
0100
0010
0100
,  // measure 5
0001
0100
1000
0010
,  // measure 6
0001
0000
0000
0000
0000
0000
0000
0000
0000
0000
0000
0000
0010
0000
0000
0000
0000
0000
0000
0000
0000
0000
0000
0000
0100
0000
0000
0000
0000
0110
0000
0000
0000
0000
0000
0000
0000
0000
0000
0000
0000
0000
0000
0000
0000
0000
0000
0000
,  // measure 7
0010
0000
1000
0000
,  // measure 8
1000
0100
0000
0000
,  // measure 9
0010
0000
0001
0000
,  // measure 10
0001
0100
0000
0000
,  // measure 11
0100
0000
0010
0000
,  // measure 12
1000
0001
0000
0000
,  // measure 13
0100
0000
0010
0000
,  // measure 14
0100
0000
1001
0000
,  // measure 15
0100
0000
1000
0000
,  // measure 16
1010
0000
0010
0000
,  // measure 17
0100
0000
0001
0000
,  // measure 18
0011
0000
0010
0000
,  // measure 19
0100
0000
1000
0000
,  // measure 20
1010
0000
1000
0001
,  // measure 21
0100
0000
0001
1000
,  // measure 22
0100
1000
0000
0100
,  // measure 23
0000
0000
0001
0001
,  // measure 24
0000
1000
0000
0010
,  // measure 25
0000
0000
0001
0001
,  // measure 26
0000
0001
0000
0100
,  // measure 27
0000
0000
1000
1000
,  // measure 28
0000
0001
0000
0010
,  // measure 29
0000
0000
1000
1000
,  // measure 30
0000
1001
0000
0001
,  // measure 31
0100
0000
0010
0010
,  // measure 32
0000
1010
0000
1000
,  // measure 33
0100
0000
0010
0010
,  // measure 34
0000
0011
0000
0001
,  // measure 35
0100
0000
0010
0010
,  // measure 36
0000
1000
0001
1000
,  // measure 37
0000
0100
0010
0100
,  // measure 38
0000
2100
0000
0000
,  // measure 39
3010
0000
0000
1100
,  // measure 40
0000
1000
0000
0010
,  // measure 41
0000
0100
0000
0001
,  // measure 42
0001
0020
0000
0000
,  // measure 43
0230
0000
0000
1300
,  // measure 44
0000
0010
0100
0001
,  // measure 45
0000
0010
0100
1000
,  // measure 46
0000
0100
0000
0001
,  // measure 47
0000
0100
0000
1000
,  // measure 48
1000
0010
0000
0001
,  // measure 49
0000
0010
0000
1000
,  // measure 50
1000
0100
0000
0001
,  // measure 51
0000
0010
0000
1000
,  // measure 52
1000
0001
1000
0001
,  // measure 53
0100
0010
0100
0010
,  // measure 54
0000
0000
1001
0000
0000
0010
0000
0000
,  // measure 55
0001
0000
0101
0000
0000
0010
0000
0000
,  // measure 56
1000
0000
1100
0000
0000
1000
0000
0000
,  // measure 57
0100
0000
0000
0001
0000
0010
1000
0000
,  // measure 58
0001
0000
1001
0000
0000
0100
0000
0000
,  // measure 59
0010
0000
0011
0000
0000
0100
0000
0000
,  // measure 60
0010
0000
1010
0000
0000
1000
0000
0000
,  // measure 61
0010
0000
0000
0001
0000
0100
0010
0000
,  // measure 62
0100
0110
0001
1000
,  // measure 63
0100
0010
0001
0110
,  // measure 64
0000
0110
0000
0010
0100
0000
0001
0000
,  // measure 65
0100
0110
1000
0001
,  // measure 66
0100
0010
1000
0110
,  // measure 67
0000
0110
0000
0010
0100
0000
1000
0000
,  // measure 68
0100
0000
0110
0000
0000
0001
0000
0000
,  // measure 69
0010
0000
0000
1000
0000
0000
0100
0000
,  // measure 70
0001
0000
1001
0000
0000
1000
0000
0000
,  // measure 71
0010
0000
0000
0001
0000
0000
0100
0000
,  // measure 72
1000
1001
0001
0100
,  // measure 73
0110
0010
1000
0001
,  // measure 74
0110
0010
0001
0000
1000
0000
0100
0000
,  // measure 75
0110
0010
0001
1000
,  // measure 76
0110
0010
2000
0000
0000
0000
0000
0000
,  // measure 77
3100
0000
1000
0010
,  // measure 78
0000
1000
0000
0100
,  // measure 79
0000
0010
0000
0001
,  // measure 80
0001
0200
0000
0000
,  // measure 81
0320
0000
0000
1030
,  // measure 82
0000
0100
1000
0100
,  // measure 83
1000
0001
0100
0001
,  // measure 84
0000
1001
0000
1000
,  // measure 85
0100
0010
0000
0001
,  // measure 86
0001
1000
0000
0001
,  // measure 87
0100
0010
0000
1000
,  // measure 88
1000
0001
0000
0010
,  // measure 89
0001
0100
0000
0100
,  // measure 90
0100
0010
1000
0010
,  // measure 91
1000
0001
0010
0001
,  // measure 92
0000
1000
0001
0100
,  // measure 93
0000
0010
0010
0100
,  // measure 94
0000
0001
1000
0100
,  // measure 95
0000
0010
0010
0100
,  // measure 96
0000
0010
0001
0100
,  // measure 97
0000
0010
1000
0100
,  // measure 98
0000
0010
0001
0100
,  // measure 99
0010
1000
0100
0020
,  // measure 100
0000
0000
0000
0000
0000
0000
0000
0000
0000
0000
0000
0000
0000
0030
0000
0000
,  // measure 101
0000
0000
0000
0000
0000
0000
0000
0000
0000
0000
0000
0000
0000
0000
0000
0000
0000
0000
0000
0000
0000
0000
0000
0000
0000
0000
0000
0000
0000
0000
0000
0000
0000
0000
0000
0000
0000
0000
0000
0000
0000
0000
0000
0000
0000
2002
0000
0000
0000
0000
0000
0000
0000
0000
0000
0000
0000
0000
0000
0000
0000
0000
0000
0000
,  // measure 102
0000
0000
0000
0000
,  // measure 103
0000
0000
0000
0000
,  // measure 104
0000
0000
0000
0000
0000
0000
0000
0000
0000
0000
0000
0000
0000
0000
0000
0000
0000
0000
0000
0000
0000
0000
0000
0000
0000
0000
0000
0000
0000
0000
0000
0000
0000
0000
0000
0000
0000
0000
0000
0000
0000
0000
0000
0000
0000
3003
0000
0000
0000
0000
0000
0000
0000
0000
0000
0000
0000
0000
0000
0000
0000
0000
0000
0000
;

//---------------dance-single - ----------------
#NOTES:
     dance-single:
     :
     Beginner:
     4:
     0.172,0.257,0.099,0.021,0.007:
0000
0000
0000
0000
,
0000
0000
0000
0000
,
0000
0000
0000
0000
,
1000
0000
0001
0001
,
0000
0000
0100
0100
,
0100
0000
0000
0000
0000
0000
0000
0000
0000
0000
0000
0000
0000
0000
0000
0000
0000
0000
0000
0000
0000
0000
0000
0000
0000
0000
0000
0000
0000
0110
0000
0000
0000
0000
0000
0000
0000
0000
0000
0000
0000
0000
0000
0000
0000
0000
0000
0000
,
0000
0000
0010
0000
,
0000
0000
1000
0000
,
0000
0000
0010
0000
,
0000
0000
0100
0000
,
0000
0000
0001
0000
,
0000
0000
0100
0000
,
0000
0000
0010
0000
,
0000
0000
0010
0000
,
0010
0000
1000
0000
,
0000
0000
0100
0000
,
0000
0000
0010
0000
,
0000
0000
0010
0000
,
0010
0000
0001
0000
,
0000
0000
1000
0000
,
1000
0000
0001
0000
,
0001
0000
0000
0001
,
0000
0000
0000
0100
,
0000
0000
0000
0100
,
0000
0000
0000
1000
,
0000
1000
0000
1000
,
0000
0000
0000
0100
,
0000
0000
0000
0100
,
0000
0000
0000
0001
,
0000
1000
0000
1000
,
0000
0000
0000
0100
,
0000
0000
0000
0100
,
0000
0000
0000
0001
,
0000
0001
0000
0001
,
0000
0000
0000
0100
,
0000
0000
0000
0100
,
0000
0000
0000
1000
,
0000
1001
0000
0000
,
0000
0001
0000
0000
,
0000
1000
0000
0000
,
0000
0010
0000
0000
,
0000
0100
0000
0000
,
0000
0001
0000
0000
,
0000
1000
0000
1000
,
0000
0001
0000
0001
,
0000
0100
0000
0100
,
0000
0001
0000
0000
,
0000
0010
0000
0010
,
0000
0001
0000
0000
,
0000
0100
0000
0100
,
0000
1000
0000
0000
,
0000
0010
0000
0010
,
0000
0100
0000
0100
,
0000
1001
0000
0000
,
0000
0110
0000
0000
,
0000
0010
0000
0100
,
0000
0010
0000
0100
,
0000
1001
0000
0000
,
0000
0110
0000
0000
,
0000
0010
0000
0100
,
0000
0010
0000
0100
,
0000
1001
0000
0010
,
0000
1000
1000
0001
,
0000
0010
0000
0100
,
0010
0010
0000
0010
,
0000
0001
0001
1000
,
0000
0010
0000
0100
,
0010
0010
0000
0001
,
0000
0010
0000
1000
,
0000
0010
0000
0001
,
0000
0100
0000
0010
,
0000
0110
0000
0000
,
1001
0000
0000
0010
,
0110
0000
0000
0000
,
0110
0000
0000
0000
,
1001
1001
0000
0000
,
0100
0000
0000
1000
,
0000
1000
0000
0000
,
0000
0100
0000
0001
,
0000
0001
0000
0000
,
1000
0000
0000
0100
,
0000
0010
0000
0001
,
0000
0010
0000
0100
,
0000
1000
0000
0001
,
0000
0000
0000
0100
,
0000
0001
0000
1000
,
0000
0000
0000
0010
,
0000
1000
0000
0001
,
0000
0000
0000
0010
,
0000
0001
0000
1000
,
0000
0010
0000
0100
,
0000
0001
0000
0001
,
0000
0010
0000
0100
,
0000
1000
0000
1000
,
0000
0010
0000
0100
,
0000
0001
0000
0001
,
0000
0010
0000
0100
,
0000
1000
0000
0010
,
0000
0100
0000
0002
,
0000
0000
0000
0003
,
0000
0000
0000
0000
0000
0000
0000
0000
0000
0000
0000
0000
0000
0000
0000
0000
0000
0000
0000
0000
0000
0000
0000
0000
0000
0000
0000
0000
0000
0000
0000
0000
0000
0000
0000
0000
0000
0000
0000
0000
0000
0000
0000
0000
0000
2002
0000
0000
0000
0000
0000
0000
0000
0000
0000
0000
0000
0000
0000
0000
0000
0000
0000
0000
,
0000
0000
0000
0000
,
0000
0000
0000
0000
,
0000
0000
0000
0000
0000
0000
0000
0000
0000
0000
0000
0000
0000
0000
0000
0000
0000
0000
0000
0000
0000
0000
0000
0000
0000
0000
0000
0000
0000
0000
0000
0000
0000
0000
0000
0000
0000
0000
0000
0000
0000
0000
0000
0000
0000
3003
0000
0000
0000
0000
0000
0000
0000
0000
0000
0000
0000
0000
0000
0000
0000
0000
0000
0000
;
