#TITLE:Powell;
#SUBTITLE:80^2 Trance Gate Mix Ver.1.0;
#ARTIST:Levo Lution XII [Lix];
#TITLETRANSLIT:;
#SUBTITLETRANSLIT:;
#ARTISTTRANSLIT:;
#CREDIT:Kewing Darksun;
#BANNER:Powell.png;
#BACKGROUND:Powell-bg.png;
#LYRICSPATH:;
#CDTITLE:!Kewing DarkSun v2 (cdtitle).png.png;
#MUSIC:Powell.mp3;
#OFFSET:-0.145;
#SAMPLESTART:25.753;
#SAMPLELENGTH:13.200;
#SELECTABLE:YES;
#BPMS:0.000=150.000;
#STOPS:;
#BGCHANGES:;

//---------------dance-single - ----------------
#NOTES:
     dance-single:
     :
     Hard:
     8:
     0.499,0.515,0.344,0.000,0.029:
0000
0000
0000
0000
,
0000
0000
0000
0000
,
0000
0000
0000
0000
,
0000
0000
0000
0000
,
1001
0000
0000
0000
,
0000
0000
0000
0000
,
0000
0000
0000
0000
,
0000
0000
0000
0000
,
0001
0000
0100
0000
0000
0001
0000
1000
,
0000
0000
0000
0001
0100
0000
0100
0010
,
1000
0000
0100
0000
0000
1000
0000
0001
,
0000
0000
0000
1000
0100
0000
0100
0010
,
0001
0000
1000
0000
0000
1010
0000
0001
,
0000
0000
0000
0100
0001
0000
0010
0000
,
0110
0000
1000
0000
0000
0110
0000
0001
,
0000
0000
0000
0100
0110
0000
1001
0000
,
0110
0000
1000
0001
1000
0100
0010
0001
,
0100
0000
0001
1000
0000
1000
0001
0100
,
0000
0001
0010
0100
1000
0000
0001
0100
,
0010
0000
0100
0010
1000
0010
0100
0001
,
0010
0000
0001
1000
0001
0100
0010
1000
,
0100
0000
1000
0001
0000
0001
1000
0100
,
0000
1000
0010
0100
0001
0000
1000
0100
,
0010
0000
0100
0010
0001
0010
0100
1000
,
0010
0000
1000
0010
0100
0001
1000
0001
,
0010
0000
0001
0100
0000
0010
1000
0100
,
0000
0010
0001
0010
0100
0010
0001
0100
,
0000
0010
1000
0010
0100
0010
1000
0100
,
0010
0000
0001
0010
0100
1000
0001
1000
,
0010
0100
0010
1000
0000
0001
0000
1000
,
0100
0001
0100
1000
0001
0000
1000
0001
,
0100
1000
0100
0001
1000
0000
0100
0010
,
0110
0000
0000
0000
0001
0000
1000
0100
1000
0000
0010
0000
1000
0000
0010
0000
,
0001
0000
0010
1000
0000
1001
0000
1000
,
0100
0000
0010
0001
1000
0000
0010
0100
,
0001
1000
0000
0110
0000
1001
0000
0100
,
0010
0000
0000
0000
1000
0000
0001
0100
0001
0000
0010
0000
0001
0000
0010
0000
,
1000
0000
0010
0001
0000
1001
0000
0001
,
0100
0010
1000
0000
0101
0000
1000
0100
,
0010
0001
0000
0110
0000
1001
0000
0100
,
0010
0000
0000
0000
0010
0000
0001
1000
0001
0000
0000
0000
1000
0000
0010
0000
,
0100
0000
0000
0000
0001
0000
0010
0100
0010
0000
0001
0000
1000
0000
0001
0000
,
0100
0000
0000
0000
0010
0000
1000
0001
1000
0000
0000
0000
0001
0000
0010
0000
,
0100
0000
0000
0000
1000
0000
0010
0100
0010
0000
1000
0000
0001
0000
1000
0000
,
1000
0100
0010
0001
0001
1000
0010
0100
,
0100
0001
0010
0100
0100
1000
0010
0001
,
0001
0010
1000
0001
0001
1000
0100
0001
,
0001
0100
1000
0001
0100
0000
0110
0000
,
0010
1000
0001
0000
0010
0100
0000
0100
,
1000
0001
0101
0000
1000
0001
0101
0000
,
0010
0001
1000
0000
0010
0100
0000
0100
,
0001
1000
1100
0000
0001
1000
1100
0000
,
0010
0001
1001
0000
0010
0100
0000
1000
,
0010
0100
0101
0000
0010
0100
0101
0000
,
0010
1000
1001
0000
0010
0100
0000
0001
,
0010
0100
1000
0010
0110
0000
1001
0000
,
1000
0010
0100
0000
0001
1000
0000
0001
,
0010
0000
1000
0100
0001
0000
1000
0000
,
0001
0010
0100
0000
1000
0001
0000
1000
,
0010
0000
0001
0100
1000
0000
0010
0000
,
0110
0000
0101
0000
0000
0110
0000
1000
,
1010
0001
1100
0001
,
0110
0000
1100
0000
0000
0110
0000
0001
,
0011
1000
0110
0000
;

//---------------dance-single - ----------------
#NOTES:
     dance-single:
     :
     Medium:
     7:
     0.419,0.455,0.344,0.000,0.000:
0000
0000
0000
0000
,
0000
0000
0000
0000
,
0000
0000
0000
0000
,
0000
0000
0000
0000
,
1001
0000
0000
0000
,
0000
0000
0000
0000
,
0000
0000
0000
0000
,
0000
0000
0000
0000
,
0001
0000
0100
0000
0000
0001
0000
1000
,
0000
0000
1000
0001
,
1000
0000
0100
0000
0000
1000
0000
0001
,
0000
0000
0001
1000
,
1001
0000
1000
0000
0000
0010
0000
0100
,
0000
0000
0010
0010
,
1000
0000
0001
0000
0000
0010
0000
0100
,
0000
0000
1001
0110
,
1001
0000
1000
0010
1000
0000
1000
0100
,
1000
0000
1000
0010
0000
0100
0000
0001
,
0000
1000
0100
0000
0001
0000
0100
1000
,
0000
0010
0100
0000
0010
1000
0010
0100
,
0001
0000
0001
0010
0001
0000
0001
0100
,
0001
0000
0001
0010
0000
0100
0000
1000
,
0000
0001
0100
0000
1000
0000
0100
0001
,
0000
0010
0100
0000
0010
0001
0010
0100
,
1000
0000
0001
0100
0010
0000
0100
0001
,
0010
0000
0001
0100
0000
0010
0000
1000
,
0000
0001
0010
0000
0100
1000
0100
0010
,
0000
0010
0001
0000
0100
0001
0100
0010
,
1000
0000
1000
0100
0010
0000
0100
1000
,
0010
0000
1000
0100
0000
0010
0000
0001
,
0000
1000
0010
0000
0100
0001
0100
0010
,
0000
0010
1000
0000
0100
1000
0100
0010
,
0110
0000
0001
1000
0001
0100
0001
0100
,
0010
0000
0100
0001
0000
0001
0000
1000
,
0100
0000
0110
0000
0110
0000
0100
1000
,
0000
0010
0000
0110
0000
0110
0000
0100
,
0001
0000
1000
0001
1000
0100
1000
0100
,
0010
0000
0100
1000
0000
1000
0000
0001
,
0100
0000
1010
0000
1010
0000
0100
0001
,
0000
0101
0000
0011
0000
0011
0000
0001
,
1000
0000
0001
0010
1000
0000
0010
0000
,
0001
0000
1000
0100
0010
0000
0100
1000
,
0001
0000
1000
0010
0001
0000
0010
0000
,
1000
0000
0001
0100
0010
0000
0100
0001
,
1000
0000
0001
0010
0000
0110
0000
1000
,
0000
0110
0000
0010
0001
0000
1000
0001
,
0100
0000
0010
1000
0010
0001
0000
0001
,
0010
1000
0000
0100
0010
0000
0110
0000
,
1001
0000
1001
0000
0001
0100
0000
0001
,
1000
0000
0001
0100
0010
0000
1000
0000
,
1001
0000
1001
0000
1000
0100
0000
1000
,
0001
0000
1000
0100
0010
0000
0001
0000
,
1001
0000
0101
0000
0001
1000
0000
0010
,
1000
0000
0010
0100
0001
0000
1000
0000
,
1001
0000
1100
0000
1000
0001
0000
0010
,
0001
0000
0010
0100
0110
0000
0100
0000
,
1001
0000
0001
0000
0000
0100
0000
0001
,
0010
1100
0010
1100
,
1001
0000
1000
0000
0000
0100
0000
1000
,
0010
0101
0010
0101
,
1001
0000
0001
0000
0000
0100
0000
0001
,
0010
0100
1000
0001
,
1001
0000
1000
0000
0000
0100
0000
1000
,
0010
0100
1001
0000
;

//---------------dance-single - ----------------
#NOTES:
     dance-single:
     :
     Easy:
     4:
     0.297,0.364,0.172,0.210,0.000: // measure 1
0000
0000
0000
0000
,  // measure 2
0000
0000
0000
0000
,  // measure 3
0000
0000
0000
0000
,  // measure 4
0000
0000
0000
0000
,  // measure 5
1001
0000
0000
0000
,  // measure 6
0000
0000
0000
0000
,  // measure 7
0000
0000
0000
0000
,  // measure 8
0000
0000
0000
0000
,  // measure 9
0001
0001
0000
0001
,  // measure 10
0000
1000
0000
0100
,  // measure 11
1000
1000
0000
1000
,  // measure 12
0000
0001
0000
0100
,  // measure 13
0110
0000
0000
0010
,  // measure 14
0010
0000
0001
0001
,  // measure 15
0001
0001
0000
1000
,  // measure 16
1000
0000
1001
0110
,  // measure 17
1001
1000
0001
0100
,  // measure 18
0020
1000
2030
0000
,  // measure 19
3010
0100
0001
0020
,  // measure 20
0030
0010
0001
0100
,  // measure 21
0000
0001
1000
0100
,  // measure 22
0020
0001
0032
0000
,  // measure 23
0013
0100
1000
0020
,  // measure 24
0030
0010
1000
0100
,  // measure 25
0110
0010
0001
0100
,  // measure 26
0020
1000
2030
0000
,  // measure 27
3001
1000
0010
0002
,  // measure 28
0003
0001
0010
1000
,  // measure 29
0000
0010
1000
0100
,  // measure 30
0020
0001
0032
0000
,  // measure 31
0023
0100
0130
2000
,  // measure 32
0001
3001
0100
0010
,  // measure 33
1001
0000
1000
0100
,  // measure 34
0001
0100
0010
0000
,  // measure 35
0001
0010
0200
0000
,  // measure 36
1300
0000
1010
0000
,  // measure 37
2000
0000
3001
0100
,  // measure 38
1000
0100
0010
0000
,  // measure 39
1000
0010
0200
0000
,  // measure 40
0301
0000
0011
0000
,  // measure 41
0202
0303
2000
0000
,  // measure 42
3100
0010
0001
1000
,  // measure 43
2200
3300
0002
0000
,  // measure 44
0103
0010
1000
0001
,  // measure 45
0101
0100
0010
1000
,  // measure 46
0100
0010
0001
1000
,  // measure 47
0001
0100
1000
0010
,  // measure 48
0100
0010
0001
1000
,  // measure 49
1001
0001
0000
0001
,  // measure 50
0100
0010
0100
0010
,  // measure 51
1010
1000
0000
1000
,  // measure 52
0100
0010
0100
0010
,  // measure 53
0011
0001
0000
0001
,  // measure 54
0100
1000
0100
0001
,  // measure 55
0101
0001
0000
1000
,  // measure 56
0100
0001
1001
0000
,  // measure 57
0010
1000
0000
0001
,  // measure 58
0100
0001
0010
0000
,  // measure 59
0010
0001
0000
1000
,  // measure 60
0100
1000
0010
0000
,  // measure 61
0110
0100
0000
0001
,  // measure 62
0100
0100
1000
0000
,  // measure 63
0100
0010
0000
1000
,  // measure 64
0100
0100
0001
0000
;

//---------------dance-single - ----------------
#NOTES:
     dance-single:
     :
     Beginner:
     2:
     0.191,0.243,0.124,0.000,0.000:
0000
0000
0000
0000
,
0000
0000
0000
0000
,
0000
0000
0000
0000
,
0000
0000
0000
0000
,
1001
0000
0000
0000
,
0000
0000
0000
0000
,
0000
0000
0000
0000
,
0000
0000
0000
0000
,
0000
0001
0000
0001
,
0000
0001
0000
0001
,
0001
0001
0000
1000
,
0000
1000
0000
1000
,
1000
0000
0000
0000
,
0100
0000
0000
0000
,
0010
0000
0000
0000
,
0010
0000
0110
0000
,
1001
0000
1000
0000
,
1000
0000
0100
0000
,
0010
0000
0001
0000
,
0001
0000
1000
1000
,
1000
0000
0001
0000
,
0001
0000
0100
0000
,
0010
0000
1000
0000
,
1000
0000
0001
0001
,
0001
0000
1000
0000
,
0100
0000
1000
0000
,
0010
0000
0100
0000
,
0001
0000
1000
1000
,
1000
0000
0001
0000
,
0100
0000
0001
0000
,
0010
0010
0010
0000
,
0100
0100
0100
0000
,
0110
0000
0010
0000
,
0001
0000
0100
0000
,
1000
1000
1000
0000
,
0001
0001
0001
0000
,
0110
0000
0010
0000
,
1000
0000
0100
0000
,
0001
0001
0001
0000
,
1000
1000
1000
0000
,
0110
0000
1001
0000
,
0001
0000
0100
0000
,
0110
0000
1001
0000
,
1000
0000
0100
0000
,
0110
0000
0100
0000
,
0001
0000
1000
0000
,
0010
0010
0010
0000
,
0100
0100
0100
0000
,
1001
0001
0000
0100
,
0000
0100
0000
0001
,
0001
0001
0000
0010
,
0000
0010
0000
0001
,
0001
0001
0000
1000
,
0000
1000
0000
0010
,
0010
0010
0000
0100
,
0100
0100
0100
0000
,
1001
0001
0000
0100
,
0000
0010
0000
0010
,
0000
1000
0000
0100
,
0000
0010
0000
0010
,
0010
0010
0000
0000
,
1000
0000
0100
0000
,
0001
0000
0000
0000
,
1000
0000
0110
0000
;
