#TITLE:Pluto The First;
#SUBTITLE:;
#ARTIST:WHITE WALL;
#TITLETRANSLIT:;
#SUBTITLETRANSLIT:;
#ARTISTTRANSLIT:;
#CREDIT:Kewing Darksun;
#BANNER:Pluto The First.png;
#BACKGROUND:Pluto the First-bg.png;
#LYRICSPATH:;
#CDTITLE:!Kewing DarkSun v3 (cdtitle).png;
#MUSIC:Pluto The First.ogg;
#OFFSET:-0.031;
#SAMPLESTART:25.030;
#SAMPLELENGTH:14.490;
#SELECTABLE:YES;
#DISPLAYBPM:*;
#BPMS:0.000=115.000,47.000=50.000,55.000=200.000,97.000=439.998,210.000=110.000,226.000=230.000,257.000=440.000,320.000=420.000,345.000=220.000;
#STOPS:34.750=0.522
,95.000=0.150
,95.500=0.150
,96.000=0.150
,96.500=0.150
,116.000=0.273
,137.000=0.409
,179.000=0.273
,241.500=0.261
,269.000=0.136
,275.000=0.136
,276.000=0.273
,282.000=0.136
,290.000=0.136
,295.000=0.273
,307.000=0.136
,309.000=0.273
,312.000=0.136
,314.000=0.273
,320.000=0.273
;
#BGCHANGES:;

//---------------dance-single - ----------------
#NOTES:
     dance-single:
     :
     Hard:
     10:
     0.777,1.000,0.249,0.020,0.278: // measure 1
0000
0000
0000
0000
,  // measure 2
0000
0000
0000
0000
,  // measure 3
0000
0000
0000
0000
0000
1001
0000
0000
,  // measure 4
0101
0100
0001
0100
1000
0100
0001
1000
,  // measure 5
0100
1000
0001
0100
0101
0001
0010
1000
,  // measure 6
0010
0100
0110
0001
1000
1001
0100
0010
,  // measure 7
1000
0100
0010
0000
0001
0000
0100
0000
0010
0000
1000
0000
0100
1000
0010
0000
,  // measure 8
0010
0000
0100
0001
0010
0000
0011
0000
0001
0010
0100
0000
1000
0000
0010
0000
,  // measure 9
0100
0000
0001
0000
0010
0001
0100
0000
0100
0000
0010
1000
0100
0010
0001
0000
,  // measure 10
0100
0000
0001
0010
0100
0000
1000
0000
0010
0100
0001
0000
0010
0000
0001
0100
,  // measure 11
0010
0000
1000
0000
0001
0010
0100
0000
0001
0000
0100
0010
0001
0000
1000
0000
,  // measure 12
1001
0000
0000
0000
1000
0000
0000
0000
0100
0000
0000
0000
1010
0000
0000
0000
0001
0000
0000
0000
0100
0000
0000
0000
0011
0000
0000
0010
0000
0000
1000
0000
,  // measure 13
0000
0001
0000
0000
0100
0000
0010
0000
0100
0000
1000
0000
0100
0000
0010
0000
0001
0000
0100
0000
0010
0000
1000
0000
1010
0000
0000
0010
0000
0000
0001
0000
,  // measure 14
0000
1000
0000
0000
0100
0000
0001
0000
0101
0000
0100
0000
0010
0000
1000
0000
0001
0010
0100
0000
1000
0010
0100
0001
1000
0000
0000
0000
0000
0000
0000
0000
,  // measure 15
0001
0000
1000
0000
0010
1000
0001
1000
,  // measure 16
0010
0100
0010
1000
0001
0000
0010
0001
,  // measure 17
1000
0000
0100
1000
0001
1000
0010
0100
,  // measure 18
0010
1000
0001
0010
0100
0000
0100
0000
,  // measure 19
1000
0000
0001
0000
0100
0001
1000
0001
,  // measure 20
0010
1000
0010
0001
1000
0000
0010
1000
,  // measure 21
0001
0000
0100
0001
1000
0100
0010
1000
,  // measure 22
0010
0001
1000
0010
0100
0000
0001
0010
,  // measure 23
0001
0100
0010
0001
0010
1000
0001
0100
,  // measure 24
0001
1000
0001
0010
0100
1000
0001
0100
,  // measure 25
0010
1000
1001
0000
1000
0000
0100
0000
,  // measure 26
0010
0100
0010
0001
,  // measure 27
0010
1000
0010
0001
,  // measure 28
1000
1000
0001
0100
,  // measure 29
0001
1000
0100
0001
,  // measure 30
0100
1100
1000
0001
,  // measure 31
1000
0001
0100
1000
,  // measure 32
0100
0001
1000
1000
,  // measure 33
0001
0010
0001
1000
,  // measure 34
0010
0001
0010
0100
,  // measure 35
0001
1000
0100
0000
,  // measure 36
0010
0000
0011
0010
,  // measure 37
0100
1000
0001
0100
,  // measure 38
1000
0100
0001
1000
,  // measure 39
1000
0100
0010
0001
,  // measure 40
0010
1000
0010
0001
,  // measure 41
0100
0010
0100
0001
,  // measure 42
1000
0000
0100
0000
0010
0000
0001
1000
,  // measure 43
0001
0100
0100
0001
,  // measure 44
1000
0010
0001
0010
,  // measure 45
1000
0100
0010
0110
,  // measure 46
1001
0000
1000
0010
0100
0000
0001
0000
,  // measure 47
0010
0001
1000
0100
,  // measure 48
0001
0100
0010
0100
,  // measure 49
1000
0001
0100
0010
,  // measure 50
0100
0000
0001
0010
0100
0000
1000
0000
,  // measure 51
0001
2002
0000
0000
,  // measure 52
0000
0000
0000
0000
,  // measure 53
0000
0000
0000
0000
0000
0000
3003
0000
1000
0001
0100
0010
0100
0000
0100
1000
,  // measure 54
0100
0001
1000
0001
0000
0001
0100
0001
0010
0100
1000
0010
1000
0000
1000
0100
,  // measure 55
0010
0001
0100
0010
0000
0000
1001
0000
0001
1000
0100
0010
0100
0000
0100
0001
,  // measure 56
0100
0010
0001
1000
0000
1000
0010
1000
0100
0010
0001
0100
1000
0100
0001
1000
,  // measure 57
0100
0010
0001
0100
0010
0000
1000
0000
0001
0000
0100
0000
0001
0000
0100
0000
,  // measure 58
1000
0000
1000
0100
0010
1000
0010
1000
,  // measure 59
0000
1000
0010
0100
0001
0010
1000
0010
,  // measure 60
1000
0000
1000
0010
0001
0010
0001
0100
,  // measure 61
0010
0000
0010
0100
0110
1001
0000
0000
,  // measure 62
1000
0100
0010
0100
0001
0100
0000
0100
,  // measure 63
0010
0001
0100
0010
1000
0010
0001
0000
,  // measure 64
0001
0010
1000
0001
1000
0100
0000
0100
,  // measure 65
0010
0001
0100
0000
0001
0000
0010
0000
,  // measure 66
0001
0100
0010
1000
,  // measure 67
0100
1000
0010
0001
,  // measure 68
0010
1000
0001
1000
,  // measure 69
0100
0000
0010
0001
0100
0000
0010
0000
,  // measure 70
1001
0110
0010
1000
,  // measure 71
0010
0001
0100
0001
,  // measure 72
0010
0000
0001
0100
0010
0000
1000
0000
,  // measure 73
0100
1000
0001
0010
,  // measure 74
0100
0000
1000
0000
0010
0100
0001
0000
,  // measure 75
0011
1100
1000
0001
,  // measure 76
0100
0001
0010
0000
0010
0000
0100
0000
,  // measure 77
0100
1000
0010
0000
0001
0000
0010
0000
,  // measure 78
1000
0100
0001
0100
,  // measure 79
0010
0100
1001
1000
,  // measure 80
0010
0000
0001
0000
0010
1000
0100
0000
,  // measure 81
0010
0000
0010
0001
0010
0001
1000
0000
,  // measure 82
0001
0000
0100
0001
0100
0001
1000
0000
,  // measure 83
0100
0000
1000
0010
1000
0010
0100
0000
,  // measure 84
0010
0000
0100
0001
0100
0001
0010
0000
,  // measure 85
0100
0000
1000
0100
0010
0001
0010
0000
,  // measure 86
0100
0000
1000
0010
0100
0001
0100
0000
,  // measure 87
0010
0000
1000
0100
0010
0100
0001
0010
,  // measure 88
0001
0100
1000
0000
0001
0100
1000
0010
,  // measure 89
1000
0001
0000
0000
0000
0000
0000
0000
;

//---------------dance-single - ----------------
#NOTES:
     dance-single:
     :
     Medium:
     9:
     0.581,0.964,0.239,0.010,0.050:
0000
0000
0000
0000
,
0000
0000
0000
0000
,
0000
0000
0000
0000
,
0101
0100
0001
0010
0000
0010
0001
0100
,
0001
1000
0000
1000
0100
1000
0010
0100
,
0001
1000
1100
0000
0000
0110
0000
0000
,
0011
0001
0100
0001
1000
0001
0100
0010
,
0100
0001
0000
1010
0101
0001
0010
0001
,
1000
0001
0010
0100
0010
0001
1000
0010
,
0001
0010
0100
0100
0001
1000
0100
0010
,
0001
1000
0001
0010
1000
0010
0100
0100
,
1000
0010
0100
0001
0010
0100
1001
0001
,
0100
0000
0010
0010
0010
0000
0100
0000
0001
0000
1000
1000
1001
0000
0001
0000
,
0010
0000
0100
0000
0110
0000
0100
0000
1000
0100
0010
0001
0100
0000
0000
0000
,
0001
0000
0100
0000
0001
1000
0010
0000
,
1000
0010
0100
0001
0010
0000
0001
0000
,
0010
0000
0001
1000
0100
0000
1000
0100
,
0010
0001
0100
0000
0001
0000
0010
0000
,
0100
0000
1000
0001
0100
0000
0001
0100
,
0010
1000
0010
1000
0100
0000
0010
0000
,
0001
0000
1000
0001
0010
0000
0001
0010
,
0100
1000
0100
1000
0010
0000
0100
0010
,
1000
0100
0010
0001
0100
0000
0010
0000
,
0100
0000
0010
0000
0100
0000
0001
0010
,
0100
1001
0000
0001
,
0000
1000
0010
0100
,
0000
0001
1000
0100
,
0000
0010
0001
1000
,
0000
1010
0000
0010
,
0100
1001
0000
1000
,
0000
0001
0010
0100
,
0000
1000
0001
0100
,
0000
0010
1000
0100
,
0000
0110
0000
0010
,
0001
0100
0000
0000
,
0010
0000
0110
0000
,
0010
1000
0001
0000
,
0100
0001
0010
0100
,
0010
0000
0001
1000
,
0010
0000
0110
0000
,
0100
0001
1000
0000
,
0100
1000
0010
0100
,
0010
0000
1000
0001
,
0010
0000
0100
1000
,
0001
0100
0000
0110
,
0010
1000
0100
0000
,
0001
0000
0100
1000
,
0010
0000
0100
0001
,
0010
0000
0100
1000
,
0010
0100
0001
0000
,
1000
1002
0000
0000
,
0000
0000
0000
0000
,
0000
0000
0000
0000
0000
0000
0000
0000
1003
0000
0010
0000
0100
0000
0001
1000
,
0001
0000
0010
0000
0001
0000
0000
0000
0001
0000
0010
0000
0100
0000
1000
0001
,
1000
0000
0010
0000
1000
0000
0001
0000
0100
0001
1000
0000
0001
0000
0100
0010
,
0100
0000
0001
0000
0010
0000
0000
0000
0100
1000
0001
0000
1000
0000
0100
0010
,
0100
1000
0010
0000
0100
0001
1000
0000
,
0100
0000
0010
1000
0010
0000
0100
0000
,
1000
0000
0010
0000
0100
0001
1000
0000
,
0100
0000
0010
1000
0010
0100
1000
0000
,
0001
0000
0100
0010
1000
0001
0000
0000
,
0100
0001
1000
0001
0010
0000
0001
0000
,
0100
0000
0010
0001
0010
0000
0100
0000
,
0010
1000
0001
1000
0100
0000
1000
0000
,
0010
0100
0001
1000
,
0000
0100
1000
0010
,
1000
0010
0100
0000
,
0101
0000
0001
0010
,
0001
0010
0000
0100
,
1100
1000
0100
0010
,
0001
0000
0101
0000
,
1000
0001
0100
0010
,
1000
0000
1100
0000
,
0010
0100
1000
0010
,
0100
0100
0001
0010
,
0000
0110
0000
0100
,
1000
0010
0100
0010
,
0000
0110
0100
0001
,
0010
0000
1100
1000
,
0100
0001
0100
1000
,
0010
0000
1000
0100
,
0010
0001
1000
0010
,
0100
0001
0010
0100
,
1000
0001
0100
1000
,
0100
0001
1000
0100
,
0001
0100
1000
0010
,
0001
0000
0010
1000
0001
0000
1000
0100
,
0001
0100
1000
0000
0001
0100
1000
0000
,
0100
0001
0000
0000
0000
0000
0000
0000
;

//---------------dance-single - ----------------
#NOTES:
     dance-single:
     :
     Easy:
     8:
     0.470,0.701,0.249,0.000,0.000:
0000
0000
0000
0000
,
0000
0000
0000
0000
,
0000
0000
0000
0000
,
1000
0100
1000
0100
0000
0000
0010
0001
,
0010
0001
0000
0000
0100
0010
0100
0010
,
1000
0001
1001
0000
0000
0110
0000
0000
,
1000
0001
0100
0001
0000
0000
1000
0001
,
0010
0001
0000
1000
0010
0100
0010
1000
,
0000
0001
0010
0100
0010
0001
1000
0100
,
1000
0010
0000
0000
1000
0010
1000
0100
,
0000
0010
0001
0100
0010
1000
0000
0010
,
1000
0100
0010
0001
0010
1000
1001
0000
,
1000
0001
0100
0000
0010
0100
1001
0100
,
0010
1000
0001
0010
0100
1000
0001
0000
,
0100
0000
0001
0000
0100
1000
0100
0000
,
0010
0001
1000
0100
,
1000
0000
0100
0000
0010
0001
0010
0000
,
1000
0100
0010
0001
,
0100
0000
0001
0000
0100
0001
0100
0010
,
0100
1000
0001
1000
,
0001
0000
0100
0010
0100
1000
0100
0000
,
1000
0000
0001
0000
1000
0000
0001
1000
,
0010
0100
0010
1000
0001
0000
0010
0000
,
0100
0010
0100
0110
,
0110
1001
0000
0001
,
0000
0100
0000
0001
,
0000
0010
0000
0100
,
0000
1000
0000
0100
,
0010
0001
0000
1000
,
0000
1001
0000
1000
,
0000
0010
0000
0100
,
0000
0001
0100
0010
,
0000
1000
0000
0001
,
0000
1001
0000
0001
,
0100
0010
0000
0000
,
0000
0000
0110
0000
,
0010
0100
0001
0000
,
1000
0000
0100
0010
,
0001
0000
0010
0000
,
0110
0000
0010
0000
,
0001
0100
0010
0000
,
1000
0000
0001
0010
,
0100
0000
1000
0000
,
0010
0000
0110
0000
,
0010
0000
1000
0001
,
1000
0000
1100
0000
,
0100
0000
0010
0001
,
0100
0000
0010
0000
,
1000
0000
0101
0000
,
0010
1000
0100
0000
,
1000
0001
0000
0000
,
0000
0000
0000
0000
,
0000
0000
0000
0000
0100
0001
0100
0000
,
0100
0010
1000
0001
0100
0001
0010
0000
,
0010
0001
0010
0000
0100
1000
0100
0000
,
0100
0010
0001
1000
0100
1000
0010
0100
,
0001
0100
1000
0000
0100
0000
0001
0000
,
0100
0000
0000
0000
0010
0100
0010
0000
,
1000
0000
0100
0000
1000
0001
0100
0000
,
1000
0000
0000
0000
0100
0010
0100
0000
,
0001
0000
1000
0000
0000
1001
0000
0000
,
0000
0000
0010
0100
0010
0000
0001
0000
,
0100
0000
0001
1000
0100
0000
0001
0000
,
0000
0000
0100
0010
0100
0000
1000
0000
,
0001
0010
0000
0001
,
0000
0100
0000
0010
,
1000
0000
0100
0000
,
0010
0000
0000
0010
,
0000
0001
0000
1000
,
1001
1000
0000
0001
,
0100
0000
0010
0100
,
0000
0001
1000
0000
,
0100
0000
0010
0000
,
0001
0000
0010
0100
,
0110
0000
1000
0001
,
0000
0100
0010
1000
,
0000
0100
0000
0001
,
0000
1000
0100
0010
,
0100
0000
1001
0001
,
0000
0100
0000
1000
,
0001
0000
0110
0000
,
0010
0001
0011
0000
,
0100
1000
1100
0000
,
0001
0100
0101
0000
,
0001
1000
1001
0000
,
0100
0010
0110
0000
,
0000
1001
1000
0100
,
1000
0010
0100
0000
0001
0000
1000
0000
,
0100
0001
0000
0000
0000
0000
0000
0000
;

//---------------dance-single - ----------------
#NOTES:
     dance-single:
     :
     Beginner:
     6:
     0.233,0.395,0.209,0.000,0.000:
0000
0000
0000
0000
,
0000
0000
0000
0000
,
0000
0000
0000
0000
,
1001
0000
0000
0010
,
0000
0000
0110
0000
,
0000
0000
1001
0000
0000
0010
0000
0000
,
1001
0000
0000
1001
,
0000
0000
0110
0000
,
0000
0000
0010
0000
0000
0010
0000
0000
,
1000
0000
1000
0000
1000
0000
0000
1000
,
0000
0001
0001
0001
,
1001
0000
0000
0110
0000
0000
1001
0000
,
0000
0001
0000
1001
,
0000
0110
0000
0001
,
0000
0001
0000
0100
,
0000
1000
0000
0001
,
0000
1000
0000
0100
,
0000
0001
0000
0001
,
0000
0010
0000
1000
,
0000
0001
0000
1000
,
0000
0100
0000
0001
,
0000
1000
0000
0001
,
0000
0010
0000
1000
,
0000
0100
0000
0010
,
0000
1000
0000
0000
,
0001
0000
0000
0100
,
0000
0000
0010
0000
,
0000
1000
0000
1000
,
0000
1000
0000
0000
,
0000
0010
0000
0000
,
0100
0000
0000
0001
,
0000
0001
0000
0001
,
0000
0000
1000
0000
,
0000
0100
0000
0000
,
0010
0000
0000
0000
,
0000
0000
1001
0000
,
0000
0000
0010
0000
,
0000
0100
0000
0000
,
0001
0000
0001
0000
,
0100
0000
0000
0010
,
0000
0000
1000
0000
,
0000
0100
0000
0000
,
0110
0000
0000
0100
,
0000
0000
1000
0000
,
0001
0000
0000
1001
,
0000
0000
1000
0000
,
0001
0000
0000
0000
,
0100
0000
0000
0000
,
0010
0000
0010
0000
,
0100
0000
0100
0000
,
0000
1001
0000
0000
,
0000
0000
0000
0000
,
0000
0000
0001
0000
,
1000
0100
0100
0000
,
0010
0001
0001
0000
,
0100
0010
0010
0000
,
1000
0000
0001
0000
,
0000
0000
0001
0000
,
0010
0000
1000
0000
,
0000
0000
1000
0000
,
0010
0000
0001
0000
,
0000
0001
0000
0100
,
0000
1000
0000
0000
,
0000
1000
0000
0010
,
0000
0001
0000
0000
,
0000
1000
0000
0000
,
0000
0100
0000
0000
,
0010
0000
0000
0000
,
0000
0001
0000
0000
,
1001
0000
0000
1000
,
0000
0000
0010
0000
,
0000
0001
0000
0000
,
0010
0000
0000
0000
,
1000
0000
1000
0000
,
0000
0000
0001
0000
,
0000
0010
0000
0100
,
0000
0100
0000
0010
,
0000
0010
0000
0100
,
0000
0000
0110
0010
,
0000
0000
0001
0000
,
1000
0000
0010
0000
,
0100
0000
0110
0000
,
0000
0000
1000
0000
,
0001
0000
1001
0000
,
0000
0000
0010
0000
,
0100
0000
0110
0000
,
0000
1001
0000
1000
,
1000
0100
0000
0100
,
0100
0001
0000
0000
;
