#TITLE:PRISON BREAK;
#SUBTITLE:[Extended Version];
#ARTIST:Ramin Djawadi & Ferry Corsten;
#TITLETRANSLIT:;
#SUBTITLETRANSLIT:;
#ARTISTTRANSLIT:;
#CREDIT:Kewing DarkSun;
#BANNER:PRISON BREAK [Extended Version].png;
#BACKGROUND:PRISON BREAK [Extended Version]-bg.png;
#LYRICSPATH:;
#CDTITLE:!Kewing DarkSun (cdtitle).png;
#MUSIC:PRISON BREAK [Extended Version].mp3;
#OFFSET:0.352;
#SAMPLESTART:13.862;
#SAMPLELENGTH:16.740;
#SELECTABLE:YES;
#BPMS:0.000=135.000;
#STOPS:;
#BGCHANGES:0.125=PRISON BREAK.avi=1.000=0=0=1
,64.750=PRISON BREAK [Extended Version]-bg2.png=1.000=1=0=1
;

//---------------dance-single - Oni----------------
#NOTES:
     dance-single:
     Oni:
     Challenge:
     8:
     0.543,0.576,0.418,0.209,0.071:
0000
2001
0000
0000
,
0000
3002
0000
0000
,
0000
0000
0000
0000
0000
0203
0000
0000
0000
0000
0000
0000
0000
0000
0000
0000
,
0000
0000
0020
0000
0000
0000
0000
0330
,
1001
0000
1000
0100
0100
0010
0001
0100
,
0101
0000
0001
0100
0100
0010
1000
0100
,
1100
0000
0100
0010
0010
0100
1000
0010
,
0110
0000
0100
0010
0010
0100
0001
0010
,
0110
0000
0000
0010
0001
0000
1001
0000
0000
0000
0010
0000
0001
0000
0100
0000
,
0110
0000
0000
0010
1000
0000
1001
0000
0000
0000
0010
0000
1000
0000
0100
0000
,
0110
0000
0110
0010
0001
0101
0100
0010
,
1000
0010
0110
0010
1000
1100
0100
0010
,
0001
0010
0100
1000
0010
0100
1001
0000
,
0001
1000
0000
0010
0000
1000
0001
0000
,
1000
0001
0000
0010
0000
0001
1000
0000
,
0001
1000
0000
0100
0000
1000
0001
0000
,
1000
0001
0000
0100
0000
0001
1001
0000
,
1000
0100
0000
0100
0010
0001
0001
0000
,
0001
0100
0000
0100
0010
1000
1000
0000
,
1000
0100
0000
0001
0100
1000
1000
0000
,
0001
0100
0000
1000
0100
0001
0001
0000
,
0001
1000
0100
0010
0100
1000
1000
0000
,
0100
1000
0010
0100
0001
1000
1000
0000
,
1000
0001
0100
0010
0100
0001
0001
0000
,
0100
0001
0010
0100
1000
0001
0001
0000
,
0001
0100
0010
1000
0000
1000
0100
0000
,
1000
0100
0010
0001
0000
0001
0100
0000
,
0001
0100
0001
0010
0000
0010
0100
0000
,
1000
0100
1000
0010
0000
0010
0110
0000
,
0010
0000
0010
0000
1000
0000
0100
0000
0100
0000
1000
0000
0001
1000
0001
0000
,
0010
0000
0010
0000
0001
0000
0100
0000
0100
0000
0001
0000
1000
0001
1000
0000
,
0010
1000
0100
0010
0001
1000
2002
0000
,
0000
0000
3003
0110
,
0010
0001
0010
0100
1000
0100
1100
0000
,
0010
1000
0010
0100
0001
0100
0101
0000
,
0001
0010
0100
1000
0001
1000
1100
0000
,
1000
0010
0100
0001
1000
0001
0101
0000
,
1000
0100
0001
0100
1000
0001
0011
0000
,
0001
0100
1000
0100
0001
1000
1010
0000
,
0010
1000
0100
0001
0100
1000
1001
0000
,
0010
0001
0100
1000
0100
0001
1001
0000
,
1000
0010
0000
0100
0000
0001
0001
0000
,
1000
0000
0100
0010
0000
0000
0010
0000
0000
0000
0001
0000
1000
0000
0000
0000
,
1000
0000
0010
0100
0000
0000
0100
0000
0000
0000
0001
0000
0010
0000
0000
0000
,
0010
0000
0001
0100
0000
0000
0100
0000
0000
0010
1000
0000
0010
0000
0000
0000
,
0010
0000
1000
0100
0000
0000
0100
0000
0000
0000
1000
0000
1000
0000
0000
0000
,
0001
0000
0100
0010
0000
0000
0010
0000
0000
0000
1000
0000
0001
0000
0000
0000
,
0001
0000
0010
0100
0000
0000
0100
0000
0000
0000
1000
0000
0010
0000
0000
0000
,
0010
0000
1000
0100
0000
0000
0100
0000
0000
0010
0001
0000
0010
0000
0000
0000
,
0010
0000
0001
0100
0000
0000
0100
0000
0010
0000
1000
0000
1200
0000
0000
0000
,
1300
1200
0310
1200
,
0301
1200
1300
0201
,
0301
0201
0310
0201
,
1300
0201
0301
1020
,
0130
0021
0130
0210
,
1300
0210
0301
0012
,
0103
0210
1300
2100
,
3010
0120
0130
1001
;

//---------------dance-single - Heavy----------------
#NOTES:
     dance-single:
     Heavy:
     Hard:
     7:
     0.467,0.467,0.437,0.352,0.005:
0000
2001
0000
0000
,
0000
3002
0000
0000
,
0000
0000
0000
0000
0000
0203
0000
0000
0000
0000
0000
0000
0000
0000
0000
0000
,
0000
0320
0000
0030
,
1001
0000
1000
0000
0100
0000
0010
0001
,
0011
0000
0100
0000
1000
0000
0010
1000
,
1010
0000
1000
0000
0010
0000
0100
0001
,
0101
0001
1000
0001
,
0110
0000
0001
1001
0000
0101
0000
0000
,
0110
0000
1000
1001
0000
1100
0000
0000
,
0110
0000
1100
0000
0010
1001
0000
0110
,
0000
0000
0101
0000
0010
1001
0000
0110
,
0000
0010
0001
0100
0001
1000
1001
0000
,
0000
0010
0000
0010
0000
0000
0100
0000
,
1000
0010
0000
0010
0000
0000
0100
0000
,
0001
0010
0000
0010
0000
0000
0100
0000
,
1000
0010
0000
0010
0000
0000
1100
0000
,
0100
0010
0000
0001
0000
0000
0001
0000
,
0100
0010
0000
1000
0000
0000
0001
0000
,
0010
0100
0000
1000
0000
0000
1000
0000
,
0010
0100
0000
0001
0000
0000
1001
0000
,
1000
0100
0000
0110
0000
0010
0001
0000
,
0001
0100
0000
0110
0000
0010
1000
0000
,
1000
0010
0000
0110
0000
0100
0001
0000
,
0001
0010
0000
0110
0000
0100
1000
0000
,
0001
0100
0000
0110
0000
0100
0001
0000
,
1000
0100
0000
0110
0000
0100
1000
0000
,
1000
0010
0000
0110
0000
0010
1000
0000
,
0001
0010
0000
0110
0000
0010
1001
0000
,
0010
0100
0001
0010
0100
1000
1001
0000
,
0010
0100
1000
0010
0100
0001
1001
0000
,
0010
0100
0110
0000
0010
0000
2002
0000
,
0000
0000
3003
1001
,
0100
0010
1000
0100
0010
0100
1000
0000
,
1000
0010
0000
0100
0001
0010
0100
0000
,
0100
0010
0001
0100
0010
0100
0001
0000
,
0001
0010
0000
0100
1000
0010
0100
0000
,
0001
0010
0001
1000
0010
0001
0010
0000
,
1000
0100
0010
0001
0000
0001
1000
0000
,
1000
0010
1000
0001
0010
1000
0010
0000
,
0001
0100
0010
1000
0000
1000
1001
0000
,
0100
0010
0000
0010
0000
0000
0001
0000
,
1000
0000
0101
0100
0000
0000
0001
0000
,
1000
0000
0011
0010
0000
0000
0001
0000
,
1000
0000
0110
0100
0000
0010
1000
0000
,
0001
0000
0110
0100
0000
0000
1000
0000
,
0001
0000
1100
0100
0000
0000
1000
0000
,
0001
0000
1010
0010
0000
0000
1000
0000
,
0001
0000
0110
0100
0000
0010
0001
0000
,
0100
0000
0110
0100
0001
1000
2001
0000
,
3200
2300
3020
2030
,
3002
2003
3200
0320
,
0032
0203
0302
0023
,
2030
3020
0032
2003
,
3200
2300
3020
2030
,
3002
2003
3020
0230
,
0302
0023
0032
0203
,
2300
3200
0310
1001
;

//---------------dance-single - Standard----------------
#NOTES:
     dance-single:
     Standard:
     Medium:
     6:
     0.360,0.357,0.238,0.190,0.000:
0000
2002
0000
0000
,
0000
0000
0000
0000
,
0000
0000
0000
0000
,
0000
0000
0000
3003
,
1001
1000
0100
0001
,
0101
0001
0100
1000
,
1001
0001
0100
1000
,
1100
1000
0100
0001
,
1001
0000
0001
0010
0000
1100
0000
0000
,
1001
0000
1000
0010
0000
0101
0000
0000
,
1000
0000
0110
0000
0000
1100
0000
0101
,
0000
0000
0110
0000
0000
0011
0000
1010
,
0000
0010
0100
0000
0110
0000
1001
0000
,
0000
1000
0000
0001
,
0000
1000
0000
1000
0000
0000
0001
0000
,
0000
0100
0000
0100
0000
0000
0001
0000
,
0000
0010
0000
0010
0000
0000
1001
0000
,
0000
0100
0000
0010
0000
0000
0100
0000
,
0000
0001
0000
1000
0000
0000
0001
0000
,
0000
0010
0000
0100
0000
0000
0010
0000
,
0000
0001
0000
1000
0000
0000
1001
0000
,
0010
1000
0000
1000
0000
0000
1000
0000
,
0001
1000
0000
1000
0000
0000
1000
0000
,
0100
0010
0000
0010
0000
0000
0001
0000
,
0010
0001
0000
0001
0000
0000
0001
0000
,
1000
0001
0000
0001
0000
0000
0001
0000
,
0100
0010
0000
0010
0000
0000
1000
0000
,
0001
0100
0000
0100
0000
0000
0001
0000
,
1000
0100
0000
0100
0000
0000
1001
0000
,
0001
0100
0000
0001
0010
0100
1000
0000
,
1000
0100
0000
1000
0010
0100
0001
0000
,
1000
0100
0001
0000
1000
0000
2002
0000
,
0000
0000
3003
1001
,
0100
1000
0000
0100
0000
0010
0100
0000
,
0100
0010
0000
0001
0000
0100
0001
0000
,
0001
0100
0000
0100
0000
0010
0100
0000
,
0100
0010
0000
1000
0000
0100
1000
0000
,
0100
0010
0000
0001
0000
0001
1000
0000
,
0100
1000
0000
0001
0000
0100
0001
0000
,
0100
0010
0000
1000
0000
1000
0001
0000
,
0100
0001
0000
1000
0000
0100
1000
0000
,
0010
0100
0000
0110
0000
0000
0100
0000
,
0001
0000
1000
0100
0000
0000
1000
0000
,
0010
0001
1000
0010
,
0001
0000
0100
0010
0000
0100
0001
0000
,
1000
0000
0100
0010
0000
0000
0100
0000
,
1000
0000
0001
0100
0000
0000
0001
0000
,
0010
1000
0001
0010
,
1000
0000
0100
0010
0000
0100
1000
0000
,
0001
0000
0100
0010
0100
0000
2001
0000
,
3100
0020
0031
0020
,
0130
2000
3001
0002
,
0103
0020
1030
0020
,
0130
0002
1003
0200
,
0301
0200
1300
2000
,
3010
0200
0301
0020
,
1030
0020
0031
0002
,
0103
0020
0130
1001
;

//---------------dance-single - Light----------------
#NOTES:
     dance-single:
     Light:
     Easy:
     4:
     0.292,0.357,0.143,0.171,0.000: // measure 1
0000
0000
0000
0000
,  // measure 2
0000
0000
0000
0000
,  // measure 3
0000
0000
0000
0000
,  // measure 4
0000
0000
0000
0000
,  // measure 5
1001
0000
0100
0100
,  // measure 6
0001
0000
0100
0100
,  // measure 7
1000
0000
0010
0010
,  // measure 8
0001
0000
0010
0010
,  // measure 9
1000
0000
0000
0100
0000
0010
0000
0000
,  // measure 10
0001
0000
0000
0010
0000
0100
0000
0000
,  // measure 11
1000
0000
1100
0000
0000
1000
0000
0010
,  // measure 12
0000
0000
0101
0000
0000
0001
0000
0010
,  // measure 13
0000
0110
0100
1001
,  // measure 14
0000
0100
0000
0001
,  // measure 15
0000
1000
0000
0100
,  // measure 16
0000
0010
0000
0001
,  // measure 17
0000
1000
0000
1001
,  // measure 18
0000
0001
0001
0010
,  // measure 19
0000
0001
0001
1000
,  // measure 20
0000
0001
0001
0100
,  // measure 21
0000
0010
0010
0110
,  // measure 22
0100
0001
0100
0001
,  // measure 23
0010
0100
0010
0100
,  // measure 24
0100
1000
0100
1000
,  // measure 25
0010
0100
0010
0100
,  // measure 26
0001
0010
0100
1000
,  // measure 27
1000
0100
0010
0001
,  // measure 28
0001
0100
0010
1000
,  // measure 29
0000
0001
0000
1001
,  // measure 30
1000
0100
1000
1010
,  // measure 31
0001
0100
0001
0011
,  // measure 32
0100
1001
0100
2002
,  // measure 33
0000
0000
3003
0010
,  // measure 34
0001
0100
0001
1000
,  // measure 35
0100
1000
0001
0100
,  // measure 36
0010
1000
0100
0010
,  // measure 37
0100
1000
0001
0100
,  // measure 38
0010
1000
0100
1000
,  // measure 39
0001
0100
0001
1000
,  // measure 40
0100
0010
0001
0100
,  // measure 41
0010
1000
0100
0110
,  // measure 42
0000
0000
0000
0001
,  // measure 43
0100
0001
0000
1000
,  // measure 44
0100
1000
1000
0001
,  // measure 45
0010
0001
0000
1000
,  // measure 46
0010
1000
0000
1000
,  // measure 47
0100
1000
0000
0001
,  // measure 48
0100
0001
0001
1000
,  // measure 49
0010
1000
0000
0001
,  // measure 50
0010
0001
0000
2001
,  // measure 51
3100
0200
0310
0020
,  // measure 52
0031
0002
0103
0200
,  // measure 53
0310
0020
1030
2000
,  // measure 54
3001
0002
0103
0200
,  // measure 55
0310
0020
0130
0200
,  // measure 56
0301
0002
1003
2000
,  // measure 57
3100
0200
0310
0020
,  // measure 58
0130
0200
0310
1001
;

//---------------dance-single - Beginner----------------
#NOTES:
     dance-single:
     Beginner:
     Beginner:
     2:
     0.160,0.247,0.133,0.000,0.000:
0000
0000
0000
0000
,
0000
0000
0000
0000
,
0000
0000
0000
0000
,
0000
0000
0000
0000
,
1000
0000
0000
0000
,
0001
0000
0000
0000
,
1000
0000
0000
0000
,
0001
0000
0000
0000
,
0100
0000
0100
0000
,
0010
0000
0010
0000
,
1000
1001
0000
1001
,
0000
1001
0000
1001
,
0000
1001
1001
1001
,
0000
0000
0000
1000
,
0000
0000
0000
0010
,
0000
0000
0000
1000
,
0000
0000
0000
1001
,
0000
0000
0000
0001
,
0000
0000
0000
0010
,
0000
0000
0000
0001
,
0000
0000
0000
1001
,
0000
1000
0000
0100
,
0000
0100
0000
0010
,
0000
0010
0000
0100
,
0000
0100
0000
1000
,
0000
1000
0000
0001
,
0000
0001
0000
0100
,
0000
0100
0000
0010
,
0000
0010
0000
1001
,
0000
1000
0000
0100
,
0000
0001
0000
0010
,
0000
0100
0000
1001
,
0000
0000
0000
1000
,
0000
0001
0000
0100
,
0000
0010
0010
0010
,
0000
1000
0000
0010
,
0000
0100
0100
0100
,
0000
0001
0000
1000
,
0000
0100
0100
0100
,
0000
0010
0000
0001
,
0000
0010
0010
0110
,
0000
0000
0000
0001
,
0000
0000
0000
1000
,
0000
0000
0000
0010
,
0000
0100
0000
0010
,
0000
0100
0000
0001
,
0000
0000
0000
1000
,
0000
0000
0000
0100
,
0000
0010
0000
0100
,
0000
0010
0000
1001
,
1000
1000
0000
0100
,
0100
0100
0000
0010
,
0010
0010
0000
0001
,
0001
0001
0000
0010
,
0010
0010
0000
0100
,
0100
0100
0000
1000
,
1000
1000
0000
0001
,
0001
0001
0000
0110
;

//---------------dance-double - ----------------
#NOTES:
     dance-double:
     :
     Hard:
     7:
     0.470,0.467,0.447,0.342,0.005:
00000000
20010000
00000000
00000000
,
00000000
30020000
00000000
00000000
,
00000000
00000000
00000000
00000000
00030000
02000000
00000000
00000000
00000000
00000000
00000000
00000000
00000000
00000000
00000000
00000000
,
00000000
00000000
03000000
00100000
00000000
00000000
00000000
00000000
,
01001000
00000000
01000000
00000000
00100000
00000000
00010000
00001000
,
00011000
00000000
00100000
00000000
01000000
00000000
00010000
01000000
,
01010000
00000000
01000000
00000000
00010000
00000000
00100000
00001000
,
00101000
00001000
01000000
00001000
,
00011000
00000000
00000100
00100000
00000000
00010100
00010000
00000000
,
00011000
00000000
00100000
00100000
00000000
00110000
00010000
00000000
,
00011000
00000000
00110000
00000000
00001100
00100000
00000000
00011000
,
00000000
00000000
00010100
00000000
00101000
00100000
00000000
00011000
,
00000000
00000100
00000010
00001000
00000010
00010000
00010010
00000000
,
00000000
00000100
00000000
00000100
00000000
00000000
00001000
00000000
,
00010000
00000100
00000000
00000100
00000000
00000000
00001000
00000000
,
00000010
00000100
00000000
00000100
00000000
00000000
00001000
00000000
,
00001000
00000010
00000000
00000010
00000000
00000000
00001100
00000000
,
00000100
00000010
00000000
00000001
00000000
00000000
00000101
00000000
,
00000100
00000010
00000000
00001000
00000000
00000000
00000011
00000000
,
00000010
00000100
00000000
00001000
00000000
00000000
00001010
00000000
,
00000100
00001000
00000000
00000010
00000000
00000000
00010010
00000000
,
00010000
00001000
00000000
00001100
00000000
00000100
00000010
00000000
,
00000010
00001000
00000000
00001100
00000000
00000100
00010000
00000000
,
00010000
00000100
00000000
00001100
00000000
00001000
00000010
00000000
,
00000100
00001000
00000000
00011000
00000000
00010000
00100000
00000000
,
00000100
00010000
00000000
00011000
00000000
00010000
00000100
00000000
,
00100000
00010000
00000000
00011000
00000000
00010000
00100000
00000000
,
00100000
00001000
00000000
00011000
00000000
00001000
00100000
00000000
,
00001000
00010000
00000000
00110000
00000000
00010000
01001000
00000000
,
00010000
00100000
00001000
00010000
00100000
01000000
01001000
00000000
,
00010000
00100000
01000000
00010000
00100000
00001000
01001000
00000000
,
00010000
00100000
00110000
00000000
00010000
00000000
02002000
00000000
,
00000000
00000000
03003000
01001000
,
00100000
00010000
01000000
00100000
00010000
00100000
01000000
00000000
,
01000000
00010000
00000000
00100000
00001000
00010000
00100000
00000000
,
00100000
00010000
00001000
00100000
00010000
00100000
00001000
00000000
,
00010000
00100000
00000000
01000000
10000000
00100000
01000000
00000000
,
00010000
00100000
00010000
10000000
00100000
00010000
00100000
00000000
,
10000000
01000000
00100000
00010000
00000000
00010000
10000000
00000000
,
10000000
00100000
10000000
00010000
00100000
10000000
00100000
00000000
,
00001000
00100000
00010000
01000000
00000000
01000000
01001000
00000000
,
00100000
00010000
00000000
00010000
00000000
00000000
00001000
00000000
,
01000000
00000000
00101000
00100000
00000000
00000000
00001000
00000000
,
01000000
00000000
00011000
00010000
00000000
00000000
00001000
00000000
,
00100000
00000000
00011000
00010000
00000000
00001000
00100000
00000000
,
00000100
00000000
00011000
00010000
00000000
00000000
00100000
00000000
,
00000100
00000000
00110000
00010000
00000000
00000000
00100000
00000000
,
00000100
00000000
00101000
00001000
00000000
00000000
00100000
00000000
,
00000010
00000000
00001100
00001000
00000000
00000100
00000010
00000000
,
00001000
00000000
00001100
00001000
00000010
00010000
00020010
00000000
,
00032000
00023000
00030200
00020300
,
00030020
00020030
00032000
00003200
,
00000302
00000203
00000302
00000023
,
00002030
00003020
00000032
00002003
,
00003200
00002300
00003020
00002030
,
00003002
00002003
00003020
00000230
,
00000320
00000230
00000320
00002030
,
00023000
00032000
00003100
00010010
;
