#TITLE:PARANOiA HRX;
#SUBTITLE:;
#ARTIST:HiROKEY;
#TITLETRANSLIT:;
#SUBTITLETRANSLIT:;
#ARTISTTRANSLIT:;
#CREDIT:Kewing Darksun;
#BANNER:PARANOiA HRX.png;
#BACKGROUND:PARANOiA HRX-bg.png;
#LYRICSPATH:;
#CDTITLE:!Kewing DarkSun (cdtitle).png;
#MUSIC:PARANOiA HRX.mp3;
#OFFSET:-0.494;
#SAMPLESTART:67.393;
#SAMPLELENGTH:12.000;
#SELECTABLE:YES;
#BPMS:0.000=190.000;
#STOPS:;
#BGCHANGES:;

//---------------dance-single - Kewing----------------
#NOTES:
     dance-single:
     Kewing:
     Challenge:
     9:
     0.660,0.758,0.925,0.000,0.096: // measure 1
0000
0000
0000
0000
,  // measure 2
0000
0000
0000
0000
,  // measure 3
0000
0000
0000
0000
,  // measure 4
0000
0000
0000
0000
,  // measure 5
1010
1000
0010
0101
,  // measure 6
0001
0010
0001
1100
,  // measure 7
0100
0010
0000
0010
0001
0000
0001
0100
,  // measure 8
0000
0100
0010
0000
0100
0010
1000
0000
,  // measure 9
0100
0011
0100
1000
,  // measure 10
0001
1000
0010
0000
0100
0001
0010
0000
,  // measure 11
0100
0000
1000
0000
0001
0000
1000
0000
0010
0100
0010
0100
0010
0000
0000
0000
,  // measure 12
0001
0010
1000
0000
1001
0000
0000
0000
,  // measure 13
0011
0001
0010
1100
,  // measure 14
1000
0010
1000
0101
,  // measure 15
0100
0010
0000
0010
1000
0000
1000
0100
,  // measure 16
0000
0100
0010
0000
0100
0010
0001
0000
,  // measure 17
0100
1010
0100
1001
,  // measure 18
0100
0011
1000
0110
,  // measure 19
0010
1000
0100
0010
0110
0000
1001
0000
,  // measure 20
1000
0110
0001
0000
,  // measure 21
0010
0100
1000
0000
0010
0000
0001
0010
,  // measure 22
1000
0100
1000
0000
0001
0000
1001
0000
,  // measure 23
1000
0100
0001
0000
1000
0010
0001
0000
,  // measure 24
0001
1000
0010
0000
1100
0000
0000
0000
,  // measure 25
1000
0000
0011
0000
1000
0010
0100
0000
,  // measure 26
0001
0000
1010
0000
0001
0010
0100
0000
,  // measure 27
1000
0100
0000
0010
0001
0000
1000
0010
,  // measure 28
0000
0100
0001
0000
1000
0001
0110
0000
,  // measure 29
0100
0000
0010
0000
0001
1000
0010
0000
,  // measure 30
0100
0000
1000
1100
0000
0101
0000
0000
,  // measure 31
1001
0000
0110
0000
0000
0101
0000
0001
,  // measure 32
0100
0000
1000
0000
0010
0000
0100
0000
0001
1000
0001
1000
0001
0000
0000
0000
,  // measure 33
0001
0100
1000
0000
0001
0010
1000
0000
,  // measure 34
0100
0010
0001
0000
0100
0010
1000
0000
,  // measure 35
1000
0010
1000
0000
1001
0000
0000
0000
0001
0010
0001
0000
1001
0000
0000
0000
,  // measure 36
0001
0100
0010
1000
1100
0000
0011
0000
,  // measure 37
1001
0000
0010
0000
1000
0100
1000
0100
,  // measure 38
0000
0011
0000
0000
0001
1000
0000
0000
,  // measure 39
0010
1000
0010
1000
0000
0000
0101
0000
,  // measure 40
0001
1000
0000
0000
1000
0001
0000
0000
,  // measure 41
0110
0000
0000
0000
0001
0100
0001
0100
,  // measure 42
0000
1010
0000
0000
1000
0001
0000
0000
,  // measure 43
0010
0001
0010
0001
0000
0000
1100
0000
,  // measure 44
1000
0001
0000
0000
0001
1000
0000
0000
,  // measure 45
0110
0000
0000
0000
1000
0010
1000
0010
,  // measure 46
0000
0101
0000
0000
0001
1000
0000
0000
,  // measure 47
0100
1000
0100
1000
0000
0000
0011
0000
,  // measure 48
0001
1000
0000
0000
1000
0001
0000
0000
,  // measure 49
0110
0000
0000
0000
0010
0001
0010
0001
,  // measure 50
0000
1100
0000
0000
1000
0001
0000
0000
,  // measure 51
0100
0001
0100
0001
0000
0000
1010
0000
,  // measure 52
1000
0001
0000
0000
0001
1000
0100
0000
,  // measure 53
0010
0000
1001
1001
,  // measure 54
1000
0100
0001
0000
1000
0010
0001
0000
,  // measure 55
0100
0010
1000
0100
0010
0100
1000
0000
,  // measure 56
1001
0101
0011
0110
,  // measure 57
1100
0110
1001
0101
,  // measure 58
0001
0100
1000
0000
0001
0010
1000
0000
,  // measure 59
0100
0010
0001
0100
0010
0100
0001
0000
,  // measure 60
1001
1100
1010
0110
,  // measure 61
0101
0110
1001
1100
,  // measure 62
1001
0001
0100
0000
0100
1000
0100
0000
,  // measure 63
0100
0001
0010
0100
1000
0001
1000
0010
,  // measure 64
1010
0101
0011
0110
,  // measure 65
0011
0101
1001
0110
,  // measure 66
1001
1000
0100
0000
0100
0001
0100
0000
,  // measure 67
0100
1000
0010
0100
0001
1000
0001
0010
,  // measure 68
0011
1100
1010
0110
,  // measure 69
1010
1100
1001
0110
,  // measure 70
1001
0000
0000
1000
0010
0000
0000
0010
0100
0000
0000
0100
0001
0000
0000
1000
,  // measure 71
0100
0000
0000
0100
0001
0000
0000
0100
0010
0000
0000
0100
1000
0000
0000
0000
,  // measure 72
1010
1001
0011
0110
,  // measure 73
1010
0101
0110
1100
,  // measure 74
1001
0000
0000
0100
1000
0000
0000
0100
0010
0000
0000
0100
0001
0000
0000
0010
,  // measure 75
1000
0000
0000
0010
0001
0000
0000
0100
1000
0000
0000
0100
0001
0000
0000
0000
,  // measure 76
0011
1001
1010
0110
,  // measure 77
0011
1100
0110
0101
,  // measure 78
0001
0100
0000
0010
1000
0000
0001
0010
,  // measure 79
0000
0100
1000
0000
0001
1000
0110
0000
;

//---------------dance-single - Kewing----------------
#NOTES:
     dance-single:
     Kewing:
     Hard:
     9:
     0.614,0.645,0.376,0.000,0.000:
0000
0000
0000
0000
,
0000
0000
0000
0000
,
0000
0000
0000
0000
,
0000
0000
0000
0000
,
1010
0100
0010
1000
,
0001
0010
1000
0000
0010
0000
0001
0000
,
0001
0100
0000
0100
0010
0000
0010
0100
,
0000
0100
1000
0000
1000
0100
0001
0000
,
1010
0000
0010
0000
1000
0100
0001
0000
,
0100
0000
0010
0000
0001
0100
1000
0000
,
0100
0001
1000
0100
0010
0000
1001
0000
,
0100
0010
0100
0000
0001
0000
1000
0000
,
0001
1000
0100
0000
0010
0000
0001
0000
,
1000
0010
0001
0000
0010
0000
1000
0000
,
1000
0100
0000
0100
0010
0000
0010
0100
,
0000
0100
0001
0000
0001
0100
1000
0000
,
0011
0000
0010
0000
0001
0100
1000
0000
,
0100
0010
0100
0001
0010
0100
0010
0000
,
0100
1000
0100
0001
0100
0000
0110
0000
,
1000
0010
0100
0000
0101
0000
0000
0000
,
0100
0001
0010
0000
1000
0010
0100
0000
,
0010
0001
0100
0010
1000
0100
0001
0000
,
0100
0001
0101
0000
0100
1000
1100
0000
,
1000
0001
0100
1000
1000
0000
0000
0000
,
1010
0000
0010
0000
1000
0100
0001
0000
,
0100
0010
0100
1000
0010
0000
0101
0000
,
0001
0100
0000
1000
0100
0000
0001
0010
,
0000
1000
0010
0000
0100
0010
1001
0000
,
0100
0001
0010
0000
0100
1000
0010
0000
,
0110
0000
0010
1000
0010
0001
0010
0000
,
0100
0001
1000
0000
0000
0110
0000
0010
,
0100
0001
0100
1000
0010
0100
1001
0000
,
0100
1000
0010
0000
0001
0010
0100
0000
,
0010
1000
0100
0010
0001
0100
1000
0000
,
0010
1000
1100
0000
0010
0001
0101
0000
,
1000
0001
1000
0001
0110
0000
1001
0000
,
0100
0000
0000
1000
0000
0000
0010
0000
,
0000
0100
0000
0100
0001
0100
1000
0000
,
0100
0000
0000
0010
0000
0000
1000
0000
,
0000
0100
0000
0100
1000
0100
0001
0000
,
0100
0000
0000
1000
0000
0000
0010
0000
,
0000
0001
0000
0010
1000
0100
0010
0000
,
0010
0000
0000
0001
0000
0000
0010
0000
,
0000
1000
0000
0010
0001
0100
0010
0000
,
0010
0000
0000
1000
0000
0000
0100
0000
,
0000
0010
0000
0010
0001
0010
1000
0000
,
0010
0000
0000
0100
0000
0000
1000
0000
,
0000
0010
0000
0010
1000
0010
0001
0000
,
0010
0000
0000
1000
0000
0000
0100
0000
,
0000
0001
0000
0100
1000
0010
0100
0000
,
0100
0000
0000
0001
0000
0000
0100
0000
,
0000
1000
0000
0100
0001
0010
0100
0000
,
0100
0000
0110
0110
,
0010
0001
0100
0000
1000
0100
0010
0000
,
1000
0100
0010
0000
1000
0010
0001
0000
,
0001
0100
0001
0100
1000
0100
0010
0000
,
1000
0100
0001
0100
0001
0100
0010
0000
,
0100
0010
0001
0000
0001
0100
1000
0000
,
0001
0010
0100
0010
1000
0100
0010
0000
,
0001
0010
0100
0010
1000
0010
0001
0000
,
0001
0100
1000
0100
0010
0000
0110
0000
,
0010
1000
0100
0000
0001
0100
0010
0000
,
0001
0100
0010
0000
0001
0010
1000
0000
,
1000
0100
1000
0100
0001
0100
0010
0000
,
0001
0100
1000
0100
1000
0100
0010
0000
,
0100
0010
1000
0000
1000
0100
0001
0000
,
1000
0010
0100
0010
0001
0100
0010
0000
,
1000
0010
0100
0010
0001
0010
1000
0000
,
1000
0100
0001
0100
0010
0000
0110
0000
,
0010
0001
1000
0010
0100
1000
0100
0010
,
0001
0010
1000
0100
0001
0100
0010
0000
,
0110
0011
1100
0101
,
0110
1100
1010
0101
,
0100
0010
1000
0100
0010
1000
0010
0001
,
0100
1000
0001
0010
0100
0001
1000
0000
,
1001
1100
0110
0101
,
1001
0011
0110
1010
,
1000
0100
0000
0001
0100
0000
1000
0010
,
0000
0001
0010
0000
0100
0010
1001
0000
;

//---------------dance-single - Kewing----------------
#NOTES:
     dance-single:
     Kewing:
     Medium:
     7:
     0.501,0.531,0.212,0.039,0.000:
0000
0000
0000
0000
,
0000
0000
0000
0000
,
0000
0000
0000
0000
,
0000
0000
0000
0000
,
1010
0001
0100
0001
,
1000
0100
0010
0000
,
0010
0100
0000
1000
0100
0000
0010
0100
,
0000
1000
0100
0000
0010
0001
0100
0000
,
0002
0000
0010
1003
,
0100
0000
0010
0001
,
0100
0010
0100
0010
0100
0000
1000
0000
,
0100
0001
0010
0000
,
0011
1000
0100
1000
,
0001
0100
0010
0000
,
0010
0100
0000
0001
0100
0000
0010
0100
,
0000
0001
0100
0000
0010
1000
0100
0000
,
2000
0000
0010
3001
,
0100
0000
0010
1000
,
0100
0010
0100
0010
0100
0000
1001
0000
,
1000
0001
0100
0000
0010
0000
0000
0000
,
0001
1000
0100
0000
0010
0000
0100
0000
,
1000
0010
0100
0001
,
1000
0001
0010
0000
0100
1000
0001
0000
,
1000
0001
0100
0000
,
0210
0010
0001
0310
,
1000
0100
1000
0000
0100
0000
0010
0000
,
0001
1000
0000
1000
0010
0000
0010
0100
,
0000
0100
0001
0000
0010
0001
1000
0000
,
0100
0001
0100
1000
,
0001
0000
0100
0010
0000
0110
0000
0000
,
0010
0000
1001
0000
0000
0001
0000
0010
,
0100
1000
0001
0100
0001
0000
0011
0000
,
0210
0010
1000
0310
,
0001
0100
0001
0000
0100
0000
0010
0000
,
0010
1000
0100
0000
0010
0001
0100
0000
,
0001
1000
0100
0010
0100
0000
1001
0000
,
0100
0000
0000
0001
0000
0000
1000
0000
,
0000
1000
0000
0000
0010
0000
0001
0000
,
0100
0000
0000
1000
0000
0000
0001
0000
,
0000
0001
0000
0000
0100
0000
1000
0000
,
0010
0000
0000
0001
0000
0000
0001
0000
,
0000
1000
0000
0000
0100
0000
0001
0000
,
0010
0000
0000
1000
0000
0000
0001
0000
,
0000
0001
0000
0000
0010
0000
1000
0000
,
0100
0000
0000
0001
0000
0000
0100
0000
,
0000
1000
0000
0000
0001
0000
0010
0000
,
1000
0000
0000
1000
0000
0000
0100
0000
,
0000
0001
0000
0000
1000
0000
0010
0000
,
0001
0000
0000
1000
0000
0000
0010
0000
,
0000
0001
0000
0000
1000
0000
0100
0000
,
0001
0000
0000
0001
0000
0000
0010
0000
,
0000
1000
0000
0000
0001
0000
0100
0000
,
1000
0000
0010
0110
,
1001
0001
0010
1000
,
0010
0001
0100
1000
,
0100
0001
0100
0000
0010
1000
0001
0000
,
0100
1000
0100
0000
0010
1000
0001
0000
,
1001
1000
0010
0001
,
0010
1000
0100
0001
,
0100
1000
0100
0000
0010
0001
1000
0000
,
0100
0001
0100
0000
0010
0001
1000
0000
,
1001
1000
0100
0101
,
0001
0010
1000
1010
,
0010
1000
0010
0100
0001
0000
0011
0000
,
0010
0001
0010
0100
1000
0000
1010
0000
,
1001
1000
0010
0011
,
0001
0100
1000
1010
,
1000
0100
0001
0100
1000
0000
0011
0000
,
0001
0100
1000
0100
0001
0000
1010
0000
,
0100
0001
0100
0000
0010
0100
0010
0000
,
1000
0010
1000
0000
0100
1000
0100
0000
,
0001
0100
1000
0100
0010
0001
0010
0000
,
0001
0100
0010
1000
0001
1000
0100
0000
,
0100
1000
0100
0000
0010
0100
0010
0000
,
0001
0010
0001
0000
0100
0001
0100
0000
,
1000
0100
0001
0100
0010
1000
0010
0000
,
1000
0100
0010
0001
1000
0001
0100
0000
,
0001
0100
0000
1000
0100
0000
0001
0100
,
0000
1000
0100
0000
0001
0100
1000
0000
;

//---------------dance-single - Kewing----------------
#NOTES:
     dance-single:
     Kewing:
     Easy:
     6:
     0.439,0.531,0.279,0.039,0.000:
0000
0000
0000
0000
,
0000
0000
0000
0000
,
0000
0000
0000
0000
,
0000
0000
0000
0000
,
1010
0010
1000
0100
,
0010
0100
1000
0000
,
0001
0000
0000
0010
0000
0000
0001
0000
,
0000
1000
0000
0000
0001
1000
0100
0000
,
0010
0001
0200
0000
,
1300
0000
0100
0001
,
0010
0100
0010
0000
0001
0000
0101
0000
,
0010
1000
0100
0000
,
0011
0010
0001
0100
,
0010
0100
0001
0000
,
1000
0000
0000
0010
0000
0000
1000
0000
,
0000
0001
0000
0000
1000
0001
0100
0000
,
0010
1000
0200
0000
,
0301
0000
0100
0000
,
1000
0001
1000
0001
1000
0000
0101
0000
,
0010
1000
0100
0000
,
1000
0001
1000
0000
0010
0000
0100
0000
,
0001
0010
0100
0000
,
1001
0100
1001
0010
,
0100
0001
1000
0000
,
1000
0101
0020
0000
,
1030
0100
0010
0000
,
0010
0000
0000
0001
0000
0000
0100
0000
,
0000
1000
0000
0000
0100
0001
1000
0000
,
0001
0010
0100
1000
,
0001
0000
0000
1010
0000
1010
0000
0000
,
0101
0000
0101
0000
0000
0010
0000
0100
,
1000
0000
0001
0000
0100
0001
1000
0000
,
0001
1100
0020
0000
,
0031
0100
0010
1000
,
0001
0100
0010
0000
1000
0010
0100
0000
,
0001
0010
0100
0000
0110
0000
1001
0000
,
0100
0000
0000
0001
0000
0000
1000
0000
,
0000
1000
0000
0000
0010
0000
0010
0000
,
0100
0000
0000
0001
0000
0000
1000
0000
,
0000
1000
0000
0000
0100
0000
0100
0000
,
0010
0000
0000
0001
0000
0000
0010
0000
,
0000
0100
0000
0000
1000
0000
1000
0000
,
0001
0000
0000
1000
0000
0000
0010
0000
,
0000
0100
0000
0000
0001
0000
0001
0000
,
1000
0000
0000
0100
0000
0000
0010
0000
,
0000
0001
0000
0000
0001
0000
0100
0000
,
1000
0000
0000
0100
0000
0000
0010
0000
,
0000
0100
0000
0000
1000
0000
0100
0000
,
0001
0000
0000
0100
0000
0000
0010
0000
,
0000
1000
0000
0000
1000
0000
0100
0000
,
0001
0000
0000
0100
0000
0000
0010
0000
,
0000
0100
0000
0000
0001
0000
0100
0000
,
1000
0000
1000
1001
,
0011
0001
0010
0100
,
1000
0010
0001
0010
,
1000
1000
0100
0100
,
0001
0001
0100
1000
,
1010
1000
0010
0100
,
0001
0010
1000
0010
,
0001
0001
0100
0100
,
1000
1000
0100
0001
,
1001
1000
0010
0001
,
0100
1000
0001
0100
,
0001
0010
0001
0000
1000
0000
0100
0000
,
1000
0010
1000
0000
0001
0000
0100
0000
,
1001
0001
0010
1000
,
0100
0001
1000
0100
,
1000
0010
1000
0000
0001
0000
0100
0000
,
0001
0010
0001
0000
1000
0000
0100
0000
,
1001
0000
0010
0000
0010
0001
1000
0000
,
1000
0010
0100
0000
0001
0010
0001
0000
,
0100
0110
0010
1010
,
0100
0011
0100
0110
,
1001
0000
0010
0000
0010
1000
0001
0000
,
0001
0010
0100
0000
1000
0010
1000
0000
,
0100
0110
0010
0011
,
0100
1010
0100
0110
,
1000
1000
0000
0010
0010
0000
0100
0100
,
0000
0001
0001
0000
1000
0100
0001
0000
;

//---------------dance-single - Kewing----------------
#NOTES:
     dance-single:
     Kewing:
     Beginner:
     3:
     0.271,0.379,0.308,0.000,0.000:
0000
0000
0000
0000
,
0000
0000
0000
0000
,
0000
0000
0000
0000
,
0000
0000
0000
0000
,
1001
0000
0001
0000
,
0100
0000
0010
0000
,
1000
0000
0100
0000
,
0001
0000
0100
0100
,
0000
0000
0000
0000
,
1000
0000
0001
0000
,
0100
0100
0100
0000
,
0110
0000
0000
0000
,
1001
0000
1000
0000
,
0100
0000
0010
0000
,
0001
0000
0100
0000
,
1000
0000
0100
0100
,
0000
0000
0000
0000
,
0001
0000
1000
0000
,
0100
0100
0100
0000
,
0110
0000
0000
0000
,
1001
0000
1000
0000
,
0100
0000
0001
0000
,
0010
0010
0010
0010
,
0000
0000
0000
0000
,
0010
0000
1000
0000
,
0001
0000
0100
0000
,
1000
0000
0010
0000
,
0001
0000
1000
1000
,
0000
0000
0100
0000
,
1000
0000
0010
0000
,
0100
0100
0000
0010
,
0010
0010
0010
0000
,
1001
0000
0100
0000
,
0010
0000
0100
0000
,
0110
0000
1001
0000
,
0110
0100
0100
0000
,
1001
0000
1000
0000
,
0000
1000
0000
1000
,
1000
0000
0100
0000
,
0000
0100
0000
0100
,
0100
0000
0001
0000
,
0000
0001
0000
0001
,
0001
0000
1000
0000
,
0000
1000
0000
1000
,
1000
0000
0001
0000
,
0000
0001
0000
0001
,
0001
0000
0010
0000
,
0000
0010
0000
0010
,
0010
0000
1000
0000
,
0000
1000
0000
1000
,
1000
0000
0100
0000
,
0000
0010
0000
0100
,
0100
0000
1001
1001
,
1001
0000
0100
0000
,
0010
0000
1000
0000
,
0100
0100
0100
0000
,
0010
0010
0010
0000
,
1001
0000
0100
0000
,
0010
0000
0001
0000
,
0100
0100
0100
0000
,
0010
0010
0010
0000
,
1001
0000
0010
0000
,
1001
0000
0100
0000
,
0001
0001
1000
0000
,
1000
1000
0001
0000
,
1001
0000
0010
0000
,
1001
0000
0100
0000
,
1000
1000
0001
0000
,
0001
0001
1000
0000
,
0110
0000
1001
0000
,
1001
0000
0110
0000
,
1001
0001
1000
0000
,
1001
1000
0001
0000
,
1001
0000
0110
0000
,
0110
0000
1001
0000
,
0110
0100
0010
0000
,
0110
0010
0100
0000
,
0010
0000
0001
0000
,
1000
0000
1001
0110
;
