#TITLE:PARANOiA EVOLUTION MEGAMIX;
#SUBTITLE:;
#ARTIST:200;
#TITLETRANSLIT:;
#SUBTITLETRANSLIT:;
#ARTISTTRANSLIT:;
#CREDIT:Kewing Darksun;
#BANNER:PARANOIA EVOLUTION MEGAMIX.png;
#BACKGROUND:PARANOIA EVOLUTION MEGAMIX-bg.png;
#LYRICSPATH:;
#CDTITLE:!Kewing DarkSun v2 (cdtitle).png;
#MUSIC:PARANOiA EVOLUTION MEGAMIX.ogg;
#OFFSET:-0.177;
#SAMPLESTART:67.260;
#SAMPLELENGTH:12.000;
#SELECTABLE:YES;
#BPMS:0.000=200.000;
#STOPS:;
#BGCHANGES:;

//---------------dance-single - ----------------
#NOTES:
     dance-single:
     :
     Hard:
     9:
     0.645,0.682,0.442,0.000,0.000: // measure 1
0000
0000
0000
0000
,  // measure 2
0000
0000
0000
0000
,  // measure 3
0000
0000
0000
0000
,  // measure 4
0000
0000
0000
0000
,  // measure 5
0000
0000
0000
0000
,  // measure 6
0000
0000
0000
0000
,  // measure 7
0000
0000
0000
0000
,  // measure 8
1010
0000
0101
0000
1000
0100
0000
0010
,  // measure 9
0001
0000
0100
0000
0001
1000
0100
0000
,  // measure 10
1000
0000
0010
0000
0100
0010
0001
0010
,  // measure 11
0100
0000
0010
0000
1000
0001
0010
0000
,  // measure 12
0100
1100
0110
1100
,  // measure 13
0011
0000
0001
0010
1000
0000
0010
0000
,  // measure 14
0001
0000
1000
0001
0100
0010
0000
0110
,  // measure 15
0000
1001
0000
0000
0110
0000
1010
0000
,  // measure 16
0100
0000
0001
0000
0010
0100
1000
0001
,  // measure 17
1000
0000
0100
0000
1000
0001
0100
0000
,  // measure 18
0001
0000
0010
0000
0100
0010
1000
0010
,  // measure 19
0100
0000
0010
0000
0001
1000
0010
0000
,  // measure 20
0100
0000
0110
0000
0010
1000
0100
0001
,  // measure 21
0100
0000
0010
0000
0001
1000
0100
0000
,  // measure 22
0100
1000
0010
0100
0001
0010
0000
0110
,  // measure 23
0000
1001
0000
0000
0110
0000
0011
0000
,  // measure 24
0100
1100
1010
1001
,  // measure 25
1000
0100
0000
0110
0000
0001
1000
0000
,  // measure 26
1000
0010
0000
0101
0000
0000
0000
0000
,  // measure 27
0000
0100
0001
0010
0001
1000
0001
0010
,  // measure 28
0001
0000
0100
0010
0000
1000
0001
0000
,  // measure 29
0001
0100
0000
0110
0000
1000
0001
0000
,  // measure 30
0001
0010
0000
1100
0000
0000
0000
0000
,  // measure 31
0100
1000
0001
1000
0010
1000
0001
1000
,  // measure 32
0100
0001
0010
1000
,  // measure 33
0010
1000
0010
0100
0010
0001
0000
0010
,  // measure 34
0100
1000
0100
0001
1000
0000
0000
0000
,  // measure 35
0001
0010
1100
0000
,  // measure 36
0010
0000
1000
0001
0100
0001
0000
0000
,  // measure 37
0010
0001
0010
0100
0010
1000
0000
0010
,  // measure 38
0100
0001
0100
1000
0010
0000
0000
0000
,  // measure 39
0010
1000
0101
0000
,  // measure 40
0011
0000
1100
0000
0001
0100
0000
0010
,  // measure 41
1000
0100
0000
0101
0000
0100
0010
0000
,  // measure 42
0001
1000
0000
0110
0000
0000
0000
0000
,  // measure 43
0000
0100
1000
0010
1000
0001
1000
0010
,  // measure 44
1000
0000
0100
0010
0000
0001
1000
0000
,  // measure 45
0001
0100
0000
1100
0000
0100
0010
0000
,  // measure 46
1000
0001
0000
0110
0000
0000
0000
0000
,  // measure 47
0100
0001
1000
0001
0010
0001
1000
0001
,  // measure 48
0100
1000
0010
0001
,  // measure 49
0010
0100
0001
0100
1000
0010
0001
0010
,  // measure 50
0100
1000
0100
0010
1000
0000
0000
0000
,  // measure 51
1000
0010
0101
0000
,  // measure 52
0010
0000
0001
1000
0100
1000
0000
0000
,  // measure 53
0010
0100
1000
0100
0001
0010
1000
0010
,  // measure 54
0100
0001
0100
1000
0010
0000
0000
0000
,  // measure 55
0001
0010
1100
0000
,  // measure 56
1010
0000
0101
0000
1000
0100
0000
0010
,  // measure 57
0001
0000
0100
0001
0010
0001
1000
0000
,  // measure 58
0001
0010
1000
0000
0010
0100
1000
0010
,  // measure 59
0001
0000
0011
0000
0001
0010
1000
0000
,  // measure 60
1010
0000
0101
0000
0100
0001
0100
1000
,  // measure 61
0100
0110
1010
1000
,  // measure 62
0001
0010
0100
1000
0001
0100
1000
0100
,  // measure 63
0010
1000
0010
0000
0100
0001
0100
0000
,  // measure 64
0001
0010
1000
0010
0001
0100
0010
1000
,  // measure 65
0100
0000
0100
1000
0010
1000
0001
0000
,  // measure 66
1000
0010
0001
0000
0010
0100
0001
0010
,  // measure 67
1000
0000
1010
0000
1000
0010
0001
0000
,  // measure 68
0011
0000
1100
0000
0100
1000
0100
0001
,  // measure 69
0100
0110
0011
0001
,  // measure 70
1000
0010
0100
0001
1000
0100
0001
0100
,  // measure 71
0010
0001
0010
0000
0100
1000
0100
0000
,  // measure 72
1000
0010
0001
0010
1000
0100
0001
0100
,  // measure 73
1000
0001
0100
0000
1000
0100
0010
0000
,  // measure 74
0010
0001
0010
0100
1000
0100
0001
0000
,  // measure 75
0001
1000
0100
0000
0001
0100
0010
0000
,  // measure 76
0010
1000
0010
0100
0001
0100
1000
0010
,  // measure 77
0100
0001
0010
0000
0100
1000
0010
0000
,  // measure 78
0010
0001
0010
0100
1000
0100
0010
1000
,  // measure 79
0100
1000
0001
0010
0100
0001
0100
0010
,  // measure 80
0001
0100
1000
0100
0001
0010
1000
0100
,  // measure 81
0001
0000
0000
0000
;

//---------------dance-single - ----------------
#NOTES:
     dance-single:
     :
     Easy:
     6:
     0.452,0.682,0.311,0.080,0.000:
0000
0000
0000
0000
,
0000
0000
0000
0000
,
0000
0000
0000
0000
,
0000
0000
0000
0000
,
0000
0000
0000
0000
,
0000
0000
0000
0000
,
0000
0000
0000
0000
,
0000
0000
0000
0000
,
1100
0001
0100
0001
,
0100
0001
1000
0010
,
0001
0010
1000
0001
,
1000
0001
1000
0001
,
0100
0001
0100
0001
,
0100
0001
1000
0100
,
0001
0100
1000
0001
,
0010
0001
0010
0001
,
0101
1000
0100
1000
,
0100
1000
0001
0010
,
1000
0010
0001
1000
,
0001
1000
0010
1010
,
0101
0100
0001
0010
,
0100
1100
0100
0010
,
0011
0001
1000
1001
,
0001
1000
0001
1000
,
0001
1000
0000
0100
0000
0000
0100
0000
,
0000
1000
0000
0010
0000
0000
0000
0000
,
1000
1000
1000
0100
,
0000
0010
0010
0000
,
1000
0001
0000
0100
0000
0000
0100
0000
,
0000
0001
0000
0010
0000
0000
0000
0000
,
0100
0100
0100
0100
,
1000
0001
0100
0100
,
0000
0001
0100
0010
1000
0001
0000
1000
,
0010
0100
0001
1000
0000
0000
0000
0000
,
1000
1000
1100
0000
,
0001
0010
0100
0000
,
0000
1000
0100
0010
0001
1000
0000
0001
,
0010
0100
1000
0001
0000
0000
0000
0000
,
0001
0001
0101
0000
,
1000
0100
0010
0001
,
1000
0001
0000
0100
0000
0000
0010
0000
,
0000
1000
0000
0100
0000
0000
0000
0000
,
0001
0001
0001
0100
,
0000
0010
0010
0000
,
0001
1000
0000
0100
0000
0000
0010
0000
,
0000
0001
0000
0100
0000
0000
0000
0000
,
0100
0100
0100
0100
,
0001
1000
0100
0100
,
0000
0100
1000
0001
0100
0010
0000
0100
,
0010
1000
0001
0010
0000
0000
0000
0000
,
0001
0001
0101
0000
,
1000
0010
0100
0000
,
0000
0100
0001
1000
0100
0010
0000
0100
,
0010
0001
1000
0010
0000
0000
0000
0000
,
1000
1000
1100
0000
,
0001
0010
0100
1000
,
1100
0001
0100
1000
,
0100
1000
0100
0001
,
0100
1000
0100
0010
,
1000
0100
0010
0001
,
0101
0001
0010
1000
,
0010
0001
0100
0001
,
1000
0100
0001
0100
,
1000
0010
0100
0001
,
0101
1000
0100
0001
,
0100
0001
0100
1000
,
0100
0001
0100
0010
,
0001
0100
0010
1000
,
1100
1000
0010
0001
,
0010
1000
0100
1000
,
0001
0100
1000
0100
,
0001
0010
0100
1000
,
2100
3001
0102
0000
,
0013
0001
0101
1001
,
2010
3001
0012
0000
,
0013
1000
0010
0001
,
0102
1003
2100
0000
,
3010
1000
1100
1001
,
0012
1003
2010
3001
,
0100
0101
0110
1100
,
1001
0000
0000
0000
;

//---------------dance-single - ----------------
#NOTES:
     dance-single:
     :
     Medium:
     7:
     0.517,0.602,0.371,0.000,0.000:
0000
0000
0000
0000
,
0000
0000
0000
0000
,
0000
0000
0000
0000
,
0000
0000
0000
0000
,
0000
0000
0000
0000
,
0000
0000
0000
0000
,
0000
0000
0000
0000
,
1100
0000
0011
0000
1000
0010
0000
0100
,
0001
0010
0100
0010
,
0001
0010
0100
0001
,
0100
0001
0100
1000
,
0100
0000
1100
0000
0100
1000
0001
0000
,
0101
0100
0010
1000
,
0010
1000
0010
0001
,
0010
0001
0010
1000
,
0001
0000
0100
0000
0001
0010
0100
0000
,
1000
0010
0100
0010
,
1000
0010
0100
1000
,
1100
1000
0100
0001
,
0101
0100
0110
1001
,
0110
0100
0001
1000
,
1100
0100
0010
0011
,
1001
0101
0100
0010
,
1010
1000
0001
1000
,
0001
1000
0000
0001
0000
0000
1000
0000
,
0010
1000
0000
0010
0000
0000
0000
0000
,
0000
0010
0000
0001
0000
0010
0000
1000
,
0000
0000
0100
1000
0000
0000
0001
0000
,
1000
0001
0000
1000
0000
0000
0001
0000
,
0010
0001
0000
0010
0000
0000
0000
0000
,
0010
1000
0010
0001
,
0101
0110
0101
1001
,
0000
0001
0100
0010
1000
0100
0000
1000
,
0010
0100
0001
0010
0000
0000
0000
0000
,
0100
1000
0001
0000
,
0100
0000
0010
0000
1000
0001
0000
0000
,
0000
1000
0100
0010
0001
0100
0000
0001
,
0010
0100
1000
0010
0000
0000
0000
0000
,
0100
0001
1000
0000
,
1100
0000
0011
0000
1000
0010
0000
0100
,
0001
0010
0000
0100
0000
0000
0010
0000
,
0001
0100
0000
0010
0000
0000
0000
0000
,
0000
0010
0000
0001
0000
0010
0000
1000
,
0000
0000
0001
1000
0000
0000
0010
0000
,
1000
0100
0000
0010
0000
0000
0100
0000
,
1000
0010
0000
0100
0000
0000
0000
0000
,
0010
0001
0010
1000
,
1100
0110
1100
1001
,
0000
0001
0100
1000
0100
0001
0000
1000
,
0100
0001
0100
1000
0000
0000
0000
0000
,
0100
1000
0001
0000
,
0100
0000
0010
0000
1000
0001
0000
0000
,
0000
0001
0010
1000
0010
0001
0000
1000
,
0010
0001
0010
1000
0000
0000
0000
0000
,
0010
1000
0001
0000
,
1100
0000
0011
0000
1000
0010
0000
0100
,
0001
0000
1000
0000
0001
1000
0100
0000
,
1000
0000
0001
0000
0100
0010
0000
0110
,
0000
0001
0001
1000
,
0010
0000
1000
0000
0100
1000
0100
1000
,
0001
0101
0010
1010
,
0100
0000
0010
0000
1000
0100
0000
0110
,
0000
1001
0000
0000
0001
0000
0100
0000
,
1000
0100
0001
0000
1000
0010
1000
0100
,
1000
0000
0001
0000
1000
0001
0100
0000
,
0001
0000
1000
0000
0100
0010
0000
0110
,
0000
1000
1000
0001
,
0010
0000
0001
0000
0100
0001
0100
0001
,
1000
1100
0010
0011
,
0100
0000
0010
0000
0001
0100
0000
0110
,
0000
1001
0000
0000
1000
0000
0100
0000
,
0001
0100
1000
0000
0001
0010
0001
0100
,
0001
0000
0010
0000
0100
1000
0100
0000
,
1000
0000
0010
1000
0001
1000
0010
0000
,
1010
0000
0001
0000
0100
0010
0100
0000
,
0010
0000
1000
0001
1000
0010
1000
0100
,
1000
0000
0010
0000
0100
0001
0100
0000
,
0001
0000
0010
0001
1000
0001
0010
0000
,
0100
1000
0010
0000
0100
0001
0010
0000
,
0001
0100
0010
1000
0100
0010
0001
0100
,
1000
0000
0000
0000
;

//---------------dance-single - ----------------
#NOTES:
     dance-single:
     :
     Beginner:
     3:
     0.234,0.281,0.080,0.000,0.000:
0000
0000
0000
0000
,
0000
0000
0000
0000
,
0000
0000
0000
0000
,
0000
0000
0000
0000
,
0000
0000
0000
0000
,
0000
0000
0000
0000
,
0000
0000
0000
0000
,
0010
0000
0000
0000
,
1001
0000
0001
0000
,
0100
0000
0000
1000
,
1000
0000
0100
0000
,
0001
0000
0000
0000
,
0001
0000
1000
0000
,
0100
0000
0000
0001
,
0001
0000
0100
0000
,
1000
0000
0001
0001
,
0001
0000
0100
0000
,
0010
0000
0000
1000
,
1000
0000
0100
0000
,
0010
0000
1000
1000
,
1000
0000
0010
0000
,
0001
0001
0001
0000
,
1001
0000
1000
0000
,
0010
0000
0100
0000
,
0110
0000
0000
0000
,
0100
0000
0000
0000
,
0000
0010
0000
0010
,
0010
0000
0000
0000
,
0100
0000
0000
0000
,
0100
0000
0000
0000
,
0010
0000
0010
0000
,
1000
1000
1000
1000
,
0000
0100
0100
0100
,
0000
0001
0001
0000
,
0000
0000
0100
0000
,
0000
1000
1000
0000
,
0000
0010
0010
0010
,
0000
0001
0001
0000
,
0000
0000
0010
0000
,
1000
0000
0100
0000
,
0110
0000
0000
0000
,
0100
0000
0000
0000
,
0000
0010
0000
0010
,
0010
0000
0000
0000
,
0100
0000
0000
0000
,
0100
0000
0000
0000
,
0010
0000
0010
0000
,
0001
0001
0001
0001
,
0000
0100
0100
0100
,
0000
1000
1000
0000
,
0000
0000
0010
0000
,
0000
0001
0001
0000
,
0000
0010
0010
0010
,
0000
1000
1000
0000
,
0000
0000
0100
0000
,
0001
0001
0000
1000
,
1000
0000
0010
0000
,
0100
0000
0010
0010
,
0010
0000
1000
0000
,
0100
0000
0001
0000
,
1001
0000
1000
0000
,
0100
0000
0001
0001
,
0001
0000
1000
0000
,
0001
0001
0001
0001
,
0001
0000
0010
0000
,
0100
0000
0010
0010
,
0010
0000
0001
0000
,
0100
0000
1000
0000
,
1001
0000
0001
0000
,
0100
0000
1000
1000
,
1000
0000
0010
0000
,
0100
0100
0100
0000
,
1001
0000
1000
0000
,
0100
0000
0010
0010
,
0010
0000
1000
0000
,
0010
0010
0010
0000
,
0110
0000
0001
0000
,
0100
0000
0010
0010
,
0010
0000
0001
0000
,
1000
1000
1000
1000
,
1000
0000
0000
0000
;
