#TITLE:P8107;
#SUBTITLE:;
#ARTIST:Onoken;
#TITLETRANSLIT:;
#SUBTITLETRANSLIT:;
#ARTISTTRANSLIT:;
#CREDIT:Kewing Darksun;
#BANNER:P8107.png;
#BACKGROUND:P8107-bg.png;
#LYRICSPATH:;
#CDTITLE:!Kewing DarkSun v3 (cdtitle).png;
#MUSIC:P8107.ogg;
#OFFSET:-0.568;
#SAMPLESTART:73.703;
#SAMPLELENGTH:11.360;
#SELECTABLE:YES;
#BPMS:0.000=180.000;
#STOPS:176.250=3.220
,209.500=0.280
;
#BGCHANGES:;

//---------------dance-single - ----------------
#NOTES:
     dance-single:
     :
     Hard:
     9:
     0.608,0.624,0.228,0.000,0.000: // measure 1
0000
0000
0000
0000
,  // measure 2
0000
0000
0000
0000
,  // measure 3
0000
0000
0000
0000
,  // measure 4
0000
0000
0000
0000
,  // measure 5
0001
0000
0100
0010
0000
1000
0100
0000
,  // measure 6
0001
0000
0100
1000
0000
0100
0010
0000
,  // measure 7
0001
0000
0100
1000
0000
1000
0100
0000
,  // measure 8
0001
0000
0010
0001
1000
0001
0010
0100
,  // measure 9
1000
0000
0100
0010
0000
0001
0100
0000
,  // measure 10
1000
0000
0100
0001
0000
0100
0010
0000
,  // measure 11
1000
0000
0100
0001
0000
0001
0100
0000
,  // measure 12
1000
0010
1000
0001
1000
0010
0100
0001
,  // measure 13
1001
1000
0000
0100
0000
1000
0010
0000
,  // measure 14
0100
0000
0001
0101
0000
0110
0010
0000
,  // measure 15
1000
1010
0000
1000
0000
0100
0001
0000
,  // measure 16
0100
1000
0010
0100
0001
0010
0100
1000
,  // measure 17
1001
0001
0000
0100
0000
0001
0010
0000
,  // measure 18
0100
0000
1000
1100
0000
0110
0010
0000
,  // measure 19
0001
0011
0000
0001
0000
0100
1000
0000
,  // measure 20
0100
0001
0010
0100
1000
0010
0100
0001
,  // measure 21
0011
0010
0000
1000
0000
0010
0001
0000
,  // measure 22
0100
0000
0001
1001
0000
1000
1010
0000
,  // measure 23
1100
1100
0000
1000
0000
0001
0010
0000
,  // measure 24
1000
0010
0001
0100
0001
0010
0100
1000
,  // measure 25
1010
0010
0000
0001
0000
0010
1000
0000
,  // measure 26
0100
0000
1000
1001
0000
0001
0011
0000
,  // measure 27
0101
0101
0100
0010
1000
0001
0100
0010
,  // measure 28
1000
0000
1000
1000
0100
0100
0010
0010
,  // measure 29
0001
0000
0001
0001
0000
0001
0100
0000
,  // measure 30
0100
0010
0000
0010
1000
0010
0001
0000
,  // measure 31
0010
0000
1000
1000
0000
1000
0100
0000
,  // measure 32
0100
0010
0000
0010
1000
0010
0001
0000
,  // measure 33
0001
0000
0100
0100
0000
0100
1000
0000
,  // measure 34
1000
0100
0000
0100
0010
0001
0010
0000
,  // measure 35
1000
0000
0100
0100
0000
0100
0001
0000
,  // measure 36
0001
0100
0000
0100
1000
0001
0001
0001
,  // measure 37
0001
0000
0001
0100
0000
0100
1000
0000
,  // measure 38
0001
0010
0000
0010
1000
0100
1000
0000
,  // measure 39
0010
0000
0100
0010
0000
0010
0001
0000
,  // measure 40
0001
0010
0000
0010
1000
0001
0010
0000
,  // measure 41
0100
0000
1000
0100
0000
0100
0001
0000
,  // measure 42
1000
0010
0000
0010
0001
0100
0001
0000
,  // measure 43
0010
0000
0100
0010
1000
0010
0100
0010
,  // measure 44
0001
0100
0010
1000
0001
0000
0000
0000
,  // measure 45
0110
0000
1000
0000
0100
0010
0001
1000
,  // measure 46
0001
0000
1000
0000
0010
0100
0001
0010
,  // measure 47
0100
0000
0001
0000
0100
1000
0010
0100
,  // measure 48
0001
0100
0001
0000
0010
0100
1000
0010
,  // measure 49
0100
0000
1000
0000
0100
0001
0010
0100
,  // measure 50
1000
0100
1000
0000
0010
0100
0001
1000
,  // measure 51
0001
0000
1000
0100
0010
0001
0010
1000
,  // measure 52
0010
0000
0100
0001
0100
1000
0010
0100
,  // measure 53
0001
0010
0100
0000
0000
0000
1001
0001
,  // measure 54
0100
1000
0000
0100
0001
0000
1000
0010
,  // measure 55
0100
0010
0000
0001
0010
0000
1000
0001
,  // measure 56
0100
0001
0010
0001
1000
0000
0100
0001
,  // measure 57
0100
1000
0010
0100
0010
0000
1001
1000
,  // measure 58
0100
0001
0000
0100
1000
0000
0001
0010
,  // measure 59
0100
0010
0000
1000
0010
0000
0001
1000
,  // measure 60
0100
1000
0010
1000
0001
0000
0100
1000
,  // measure 61
0100
0001
0010
0100
0010
0000
0011
0001
,  // measure 62
0100
1000
0000
0100
0010
0000
1000
0001
,  // measure 63
0010
0100
0000
0100
0010
1000
0010
0100
,  // measure 64
1000
0010
0100
1000
0100
0000
0010
0100
,  // measure 65
1000
0100
0001
0100
0010
0000
1010
1000
,  // measure 66
0100
0001
0000
0100
0010
0000
0001
1000
,  // measure 67
0010
0100
0000
0100
0010
0001
0010
0100
,  // measure 68
0001
0010
0100
0001
0100
0000
0010
0100
,  // measure 69
0001
0100
1000
0100
0010
0001
1000
0001
,  // measure 70
0100
1000
0100
0001
0010
0100
0001
0100
,  // measure 71
1000
0001
0100
0010
1000
0010
0001
0010
,  // measure 72
0100
1000
0100
0010
1000
0100
0010
1000
,  // measure 73
0010
0100
0010
0001
0100
1000
0000
0000
,  // measure 74
1001
0000
0000
0000
;

//---------------dance-single - ----------------
#NOTES:
     dance-single:
     :
     Easy:
     5:
     0.372,0.451,0.295,0.000,0.000:
0000
0000
0000
0000
,
0000
0000
0000
0000
,
0000
0000
0000
0000
,
0000
0000
0000
0000
,
0010
0100
0000
0001
,
0100
0010
0000
1000
,
0010
0100
0000
0001
,
0100
1000
0100
0001
,
0010
0100
0000
1000
,
0100
0010
0000
0001
,
0010
0100
0000
1000
,
0100
0001
0100
1000
,
1100
1001
0000
1000
,
0001
0100
0010
1000
,
0000
1100
0000
0000
0000
0000
0010
0000
,
0100
1000
0001
0100
,
0101
1001
0000
0001
,
1000
0100
0010
0001
,
0000
0101
0000
0000
0000
0000
0010
0000
,
0100
0001
1000
0100
,
1100
1001
0000
0100
,
0010
0001
1000
0001
,
0100
0110
0000
0100
,
0010
0100
0001
1000
,
1010
1001
0000
0100
,
0010
1000
0001
1000
,
0100
0110
0000
0100
,
0010
0000
0100
0000
1000
0001
1000
0000
,
1001
0000
1000
0100
,
0000
1000
0010
1000
,
0100
0000
0100
0010
,
0000
0001
0100
0010
,
0100
0000
0001
0100
,
0000
0001
0010
0001
,
0100
0000
0100
0010
,
0000
1000
0100
0010
,
1001
0000
1000
0100
,
0000
0100
0001
0100
,
1000
0000
0010
0100
,
0000
0001
0010
1000
,
0010
0000
0001
0100
,
0000
0100
1000
0100
,
0001
0000
0010
0100
,
0000
1000
0010
0000
,
0101
1000
0100
0100
,
0001
0100
1000
1000
,
0001
0100
0010
0010
,
0010
0001
0010
1000
,
1000
0001
0100
0100
,
1000
0100
0001
0001
,
1000
0100
0100
0100
,
0010
1000
0100
0001
,
1000
1001
0000
1000
,
1000
0010
0100
0010
,
1000
0100
0001
0100
,
0010
0010
0001
1000
,
0010
0010
0100
0001
,
0001
0010
0100
0010
,
0001
0100
1000
0100
,
0010
0010
1000
0001
,
0010
0010
0100
1001
,
0101
0100
1000
0100
,
0001
0010
0001
1000
,
1100
1000
0001
0100
,
0010
1000
0001
1001
,
1100
0100
0001
0100
,
1000
0010
1000
0001
,
0101
0001
1000
0100
,
0010
0001
1000
1100
,
1000
0100
0001
0101
,
0001
0100
1000
1010
,
0100
0011
0100
0101
,
0011
1010
1100
0000
,
1001
0000
0000
0000
;

//---------------dance-single - ----------------
#NOTES:
     dance-single:
     :
     Medium:
     7:
     0.472,0.624,0.228,0.000,0.000:
0000
0000
0000
0000
,
0000
0000
0000
0000
,
0000
0000
0000
0000
,
0000
0000
0000
0000
,
1000
0001
0100
0010
,
1000
0001
0100
1000
,
0100
0001
1000
0100
,
0010
0000
0100
0000
0100
1000
0001
0100
,
0001
1000
0100
0010
,
0001
1000
0100
0001
,
0100
1000
0001
0100
,
0010
0000
0100
0000
0100
0001
1000
0001
,
1000
0100
0000
0000
0001
0000
0100
0000
,
0010
0000
0000
0110
0000
1001
0000
0000
,
0000
0101
0000
0001
0000
0100
0001
0000
,
1000
0000
0100
0000
0010
0001
1000
0000
,
0001
0100
0000
0000
1000
0000
0100
0000
,
0010
0000
0000
0110
0000
1001
0000
0000
,
0000
1100
0000
1000
0000
0100
1000
0000
,
0001
0000
0100
0000
0010
1000
0001
0000
,
1000
0010
0000
0000
0001
0000
0010
0000
,
0100
0000
0001
0010
0000
1100
0000
0000
,
0001
0100
0000
0010
0000
1000
0100
0000
,
0001
0000
0100
0000
1000
0100
0010
0000
,
0001
0010
0000
0000
1000
0000
0010
0000
,
0100
0000
1000
0010
0000
0101
0000
0000
,
1000
0100
0000
0010
0000
0001
0010
0000
,
0100
0000
0100
1000
0100
1000
0001
1000
,
0010
0000
1000
1000
0000
0000
0001
0000
,
0000
0100
0000
0000
1000
0000
0001
0000
,
0100
0000
1000
1000
0000
0000
0001
0000
,
0000
0010
0000
0000
1000
0000
0001
0000
,
0010
0000
1000
1000
0000
0000
0001
0000
,
0000
0100
0000
0000
1000
0000
0010
0000
,
0001
0000
1000
1000
0000
0000
0001
0000
,
0000
0100
0000
0010
1000
0100
1000
0100
,
1000
0000
0001
1000
0000
0000
0100
0000
,
0000
0001
0000
0000
0100
1000
0100
0000
,
1000
0000
1000
0001
0000
0000
0100
0000
,
0000
1000
0000
0000
0100
0001
0100
0000
,
0001
0000
1000
0001
0000
0000
0010
0000
,
0000
1000
0000
0000
0010
0001
0010
0000
,
0001
0000
0001
1000
0000
0000
0010
0000
,
0000
0001
0000
0000
0100
0000
0000
0000
,
0110
0000
1000
0000
0001
0010
0100
0000
,
0001
0000
0100
0000
1000
0001
0100
0001
,
1000
0000
0001
0000
0010
0001
1000
0001
,
0010
0000
0001
0000
1000
0010
0100
0000
,
1000
0000
0100
0000
0001
1000
0100
1000
,
0001
0000
1000
0000
0010
1000
0001
1000
,
0010
1000
0100
0001
,
0010
0000
1000
0001
0100
0001
1000
0100
,
0010
0001
0100
0000
0000
0000
1010
1000
,
0000
0100
0000
1000
0100
0000
0010
0000
,
0001
1000
0000
1010
0000
0000
0100
0001
,
0000
1000
0000
0001
0100
0000
0010
0000
,
1000
0001
0100
0001
0010
0000
0011
0001
,
0000
0100
0000
0001
0100
0000
0010
0000
,
1000
0001
0000
0011
0000
0000
0100
1000
,
0000
0001
0000
1000
0100
0000
0010
0000
,
0001
1000
0100
1000
0010
0000
1100
0100
,
0000
0001
0000
0100
1000
0000
0100
0000
,
0010
0001
0000
0100
0001
0000
1000
0010
,
0000
0001
0000
0010
1000
0000
0100
0000
,
0010
0001
1000
0001
0100
0000
0101
0100
,
0000
1000
0000
0100
0001
0000
0100
0000
,
0010
1000
0000
0100
1000
0000
0001
0010
,
0000
1000
0000
0010
0001
0000
0010
0001
,
1000
0001
0100
1000
0100
0001
1001
0000
,
0100
0010
0001
1000
0001
0100
0101
0000
,
0100
0010
1000
0001
1000
0100
1100
0000
,
1000
0010
1010
0000
0001
0010
0011
0000
,
0110
1010
1001
0000
,
1001
0000
0000
0000
;

//---------------dance-single - ----------------
#NOTES:
     dance-single:
     :
     Beginner:
     3:
     0.243,0.347,0.124,0.000,0.000:
0000
0000
0000
0000
,
0000
0000
0000
0000
,
0000
0000
0000
0000
,
0000
0000
0000
0000
,
0001
0000
0001
0000
,
1000
0000
1000
0000
,
0100
0000
0001
0000
,
0100
0000
0010
0000
,
0001
0000
0001
0000
,
1000
0000
1000
0000
,
0010
0000
0001
0000
,
0010
0000
0100
0000
,
0110
0010
0000
0100
,
0000
0001
0001
0000
,
1000
0000
0100
0000
,
0001
0000
0100
0000
,
0010
0010
0000
0100
,
0000
1000
1000
0000
,
0001
0000
0100
0000
,
1000
0000
0100
0000
,
0110
0010
0000
1000
,
0000
0100
0100
0000
,
0001
0000
0100
0000
,
0010
0010
0010
0000
,
0110
0010
0000
0001
,
0000
0100
0100
0000
,
1000
0000
0100
0000
,
0010
0010
0010
0010
,
0010
0000
0100
0000
,
0000
1000
1000
0000
,
0100
0000
0010
0000
,
0000
0001
0001
0000
,
0010
0000
0100
0000
,
0000
1000
1000
0000
,
0100
0000
0010
0000
,
1000
0000
0001
0001
,
0001
0000
1000
1000
,
0000
0100
0100
0000
,
0010
0000
0001
0001
,
0000
0100
0100
0000
,
1000
0000
0100
0100
,
0000
0010
0010
0000
,
0001
0000
0010
0010
,
0000
0100
0100
0000
,
1001
0000
1000
0000
,
1000
0000
0100
0000
,
0001
0000
1000
0000
,
1000
0000
0010
0000
,
0001
0000
0001
0000
,
0100
0000
1000
0000
,
1000
0000
0010
0000
,
0100
0100
0100
0100
,
0000
0010
0000
1000
,
1000
0000
0010
0010
,
0000
0100
0100
0100
,
0000
1000
0000
0010
,
0000
0001
0000
1000
,
1000
0000
0100
0100
,
0000
0001
0001
0001
,
0000
0010
0000
0100
,
0100
0100
0000
1001
,
0001
0000
0100
0100
,
0000
1000
1000
1000
,
0000
0001
0000
0010
,
0010
0010
0000
1000
,
1000
0000
0100
0100
,
0000
0001
0001
0001
,
0000
0010
0000
0100
,
0100
0100
0000
1001
,
0000
1000
1000
1001
,
0000
0010
0010
0110
,
0000
1001
0000
0110
,
1001
0110
0000
0000
,
1001
0000
0000
0000
;
