#TITLE:Osc-Sync Carnival;
#SUBTITLE:(lightning) [F-ZERO GX];
#ARTIST:庄司 英徳;
#TITLETRANSLIT:;
#SUBTITLETRANSLIT:;
#ARTISTTRANSLIT:Shoji, Hidenori;
#CREDIT:Kewing Darksun;
#BANNER:Osc-Sync Carnival.png;
#BACKGROUND:Osc Sync Carnival-bg.png;
#LYRICSPATH:;
#CDTITLE:!Kewing DarkSun v3 (cdtitle).png;
#MUSIC:Osc-Sync Carnival (lightning).ogg;
#OFFSET:-0.491;
#SAMPLESTART:14.908;
#SAMPLELENGTH:14.500;
#SELECTABLE:YES;
#BPMS:0.000=266.000,56.000=133.000,60.000=266.000,411.000=133.000,421.000=266.000,445.000=133.000,449.000=266.000;
#STOPS:122.500=0.220
,412.250=0.900
,414.250=0.920
,416.250=0.900
,511.500=0.220
;
#BGCHANGES:;

//---------------dance-single - ----------------
#NOTES:
     dance-single:
     :
     Challenge:
     9:
     0.635,0.776,0.282,0.079,0.023: // measure 1
0000
0000
0000
0000
,  // measure 2
0000
0000
0000
0000
,  // measure 3
0000
0000
0000
0000
,  // measure 4
0000
0000
0000
0000
,  // measure 5
0000
0000
0000
0000
,  // measure 6
0000
0000
0000
0000
,  // measure 7
0000
0000
0000
0000
,  // measure 8
0000
0000
0000
0000
,  // measure 9
2010
0000
3002
0200
,  // measure 10
0303
0000
0000
0000
,  // measure 11
0000
0000
0000
0000
,  // measure 12
0000
0000
0000
0000
,  // measure 13
0012
0000
2003
0200
,  // measure 14
3300
0000
0000
0000
,  // measure 15
0100
0000
0000
1000
0000
0000
0010
0000
0000
0100
0000
0000
0001
0000
0010
0000
,  // measure 16
0100
0000
1000
0000
0010
0000
0000
1000
,  // measure 17
0000
1000
0000
1000
0100
0000
0000
0000
,  // measure 18
0010
0000
0001
0000
0100
0000
0000
0001
,  // measure 19
0000
0001
0000
0001
0010
0000
0000
0000
,  // measure 20
0001
0000
0100
0000
1000
0000
0000
0100
,  // measure 21
0000
0100
0000
0100
0001
0000
0000
0000
,  // measure 22
1000
0100
0010
0001
,  // measure 23
1000
0001
0000
0100
0010
0000
1000
0000
,  // measure 24
1001
0000
1000
0000
0100
0000
0000
1000
,  // measure 25
0000
0010
0000
1000
0100
0000
0010
0000
,  // measure 26
0010
0000
0001
0000
0100
0000
0000
0001
,  // measure 27
0000
0010
0000
0001
0100
0000
0100
0000
,  // measure 28
0001
0000
1000
0000
0100
0000
0000
0001
,  // measure 29
0000
0100
0000
1000
0100
0000
0100
0000
,  // measure 30
0010
0001
0100
0010
,  // measure 31
1000
1001
1001
0010
,  // measure 32
0001
0000
1000
0000
0100
1000
0000
0010
,  // measure 33
0000
1000
0100
0000
0000
0000
0100
0000
,  // measure 34
1000
0000
0001
0000
0100
0001
0000
0010
,  // measure 35
0000
0001
0100
0000
0000
0000
0010
0000
,  // measure 36
1000
0000
0100
0000
0010
0001
0000
1000
,  // measure 37
0000
0001
0100
0000
0010
0000
1000
0000
,  // measure 38
0010
0000
0001
0000
0010
0000
1000
0001
,  // measure 39
1000
0001
1000
0000
0100
0000
1100
0000
,  // measure 40
1000
0000
0001
0000
0010
0100
0000
1000
,  // measure 41
0000
0001
0100
0000
0010
0000
1000
0000
,  // measure 42
0001
0000
1000
0000
0010
0100
0000
0001
,  // measure 43
0000
1000
0100
0000
0010
0000
0001
0000
,  // measure 44
0010
0000
1000
0000
0010
0100
0000
1000
,  // measure 45
0000
0001
0100
0000
0010
0000
1000
0000
,  // measure 46
0100
0001
0100
1000
,  // measure 47
0010
0100
0000
1001
,  // measure 48
0001
0000
0010
0000
0100
1000
0100
0000
,  // measure 49
1000
0001
0000
0001
0100
0000
0001
0000
,  // measure 50
1000
0000
0010
0000
0100
0001
0100
0000
,  // measure 51
0001
1000
0000
1000
0100
0000
0010
0000
,  // measure 52
0001
0000
0100
0000
0010
1000
0010
0000
,  // measure 53
1000
0100
0000
1000
0010
0000
1000
0000
,  // measure 54
1000
0000
0100
0000
0010
0001
0010
0000
,  // measure 55
0001
0100
0000
0001
0010
0000
0110
0000
,  // measure 56
0100
0000
1000
0000
0010
1000
0010
1000
,  // measure 57
0010
1000
0000
1000
0001
0000
0100
0000
,  // measure 58
0010
0000
1000
0000
0100
1000
0100
1000
,  // measure 59
0100
1000
0000
1000
0001
0000
0010
0000
,  // measure 60
1000
0000
0010
0000
0100
1000
0100
1000
,  // measure 61
0100
1000
0000
1000
0010
0000
0001
0000
,  // measure 62
0010
0000
1000
0000
0001
0000
1000
0100
,  // measure 63
0010
0001
1000
0100
0010
0001
0100
0000
,  // measure 64
0000
0010
0000
0000
0110
0000
0000
1010
,  // measure 65
0000
0000
0010
0000
0100
0001
0100
0000
,  // measure 66
0010
0000
1000
0100
0000
0100
0010
0000
,  // measure 67
0010
0001
0000
0000
1000
0000
1100
0000
,  // measure 68
0000
0100
0000
0000
0110
0000
0000
0011
,  // measure 69
0000
0000
0010
0000
0100
0000
1000
0100
,  // measure 70
1000
0100
1000
0100
1000
0000
0001
0100
,  // measure 71
0001
0100
0001
0100
0001
0000
0011
0000
,  // measure 72
0000
0010
0000
0000
0110
0000
0000
1100
,  // measure 73
0000
0000
0100
0000
0010
0001
0010
0000
,  // measure 74
0100
0000
1000
0010
0000
0010
0100
0000
,  // measure 75
0100
0001
0000
0000
1000
0000
1010
0000
,  // measure 76
0000
0100
0000
0000
0110
0000
0000
0101
,  // measure 77
0000
0000
0100
0000
0010
0000
1000
0100
,  // measure 78
1000
0100
1000
0001
1000
0000
0001
0100
,  // measure 79
0001
0100
0001
1000
0001
0000
0101
0000
,  // measure 80
0000
1001
0000
0000
1100
0000
0000
0011
,  // measure 81
0000
0000
0010
0000
0001
0100
0001
0000
,  // measure 82
0010
0000
0100
1000
0000
1000
0010
0000
,  // measure 83
0010
0100
0000
0000
0001
0000
0011
0000
,  // measure 84
0000
1001
0000
0000
1010
0000
0000
0101
,  // measure 85
0000
0000
0100
0000
0010
0000
1000
0100
,  // measure 86
1000
0001
1000
0100
1000
0000
0001
0100
,  // measure 87
0001
1000
0001
0100
0001
0000
0011
0000
,  // measure 88
0000
1001
0000
0000
1010
0000
0000
0101
,  // measure 89
0000
0000
0100
0000
0001
0010
0001
0000
,  // measure 90
0100
0000
0010
1000
0000
1000
0100
0000
,  // measure 91
0100
0010
0000
0000
0001
0000
0101
0000
,  // measure 92
0000
1001
0000
0000
1100
0000
0000
0011
,  // measure 93
0000
0000
0010
0000
0100
1000
0001
0000
,  // measure 94
0100
0000
1000
0100
0000
0100
0001
0000
,  // measure 95
0001
0010
0000
0010
0100
0000
1001
0000
,  // measure 96
1000
0000
0010
1000
0001
0000
0001
0000
,  // measure 97
0100
0010
0000
0000
1000
0000
0001
0000
,  // measure 98
0001
0000
0010
0001
1000
0000
1000
0000
,  // measure 99
0100
0010
0000
0000
0010
0000
0001
0000
,  // measure 100
0001
0000
0010
0100
1000
0000
1000
0000
,  // measure 101
0001
0100
0000
0000
0010
0000
1000
0000
,  // measure 102
1000
0000
0010
0100
0001
0000
0001
0000
,  // measure 103
1000
0100
0000
0010
0001
0000
1001
0001
,  // measure 104
0100
0000
0000
0010
0100
0000
0001
0000
0010
0000
0000
0000
0001
0000
1000
0000
,  // measure 105
0100
0000
0000
0000
0010
0000
0100
0000
1000
0000
0001
0000
1000
0000
0001
1000
,  // measure 106
0001
1000
0001
0000
0102
0000
0000
0000
0000
0000
0000
0000
2003
0000
0000
0000
,  // measure 107
0020
3030
0010
0100
,  // measure 108
0001
1000
0001
1000
,  // measure 109
0001
1000
0001
1000
,  // measure 110
0100
2100
0000
3002
,  // measure 111
0020
0033
0010
0100
,  // measure 112
1000
0000
0000
0000
0001
0000
0000
0100
0000
0000
1000
0000
0000
0010
0000
0000
,  // measure 113
0001
0100
0010
0000
1000
0000
0001
0000
,  // measure 114
1000
0010
0000
0100
0000
0001
1000
0000
,  // measure 115
0100
0010
0001
1000
,  // measure 116
0001
0010
0000
0100
0000
1000
0001
0000
,  // measure 117
0100
0010
1000
0001
,  // measure 118
0010
0100
0000
1000
0000
0010
0100
0000
,  // measure 119
0001
1000
0100
1000
,  // measure 120
0001
0000
0100
0010
0100
0010
0100
0000
,  // measure 121
0001
1001
1000
0001
,  // measure 122
1000
0100
0000
0001
0000
0100
1000
0000
,  // measure 123
0100
0010
0001
1000
,  // measure 124
0001
0100
0000
1000
0000
0100
0001
0000
,  // measure 125
0010
0100
1000
0001
,  // measure 126
1000
0100
0000
0001
0000
0010
1000
0000
,  // measure 127
0100
0010
1000
0010
,  // measure 128
0001
1000
1001
1001
,  // measure 129
0010
1000
0000
1000
0100
0000
0100
0001
,  // measure 130
0000
0100
0000
1000
0000
0100
0010
0000
,  // measure 131
0010
0001
0000
0001
0100
0000
0100
1000
,  // measure 132
0000
0100
0000
0001
0000
0100
0010
0000
,  // measure 133
0100
0001
0100
0000
0010
0000
1000
0010
,  // measure 134
0000
0001
0000
0010
0000
1000
0001
0000
,  // measure 135
0001
1000
0000
1000
0100
0000
0100
0001
,  // measure 136
0000
0100
0000
0010
0000
0100
1000
0000
,  // measure 137
0010
1000
0010
0000
0100
0000
0001
0100
,  // measure 138
0000
1000
0000
0100
0000
0001
1000
0000
,  // measure 139
1000
0001
0000
0001
0010
0000
0010
1000
,  // measure 140
0000
0010
0000
0100
0000
0010
0001
0000
,  // measure 141
0010
0100
1000
0000
0001
0000
1000
0100
,  // measure 142
0000
0001
0000
0100
0000
0010
0001
0000
,  // measure 143
0010
0100
1000
0000
0001
0000
1000
0010
,  // measure 144
0000
0001
0000
0010
0000
0100
0001
0000
,  // measure 145
0010
0100
1000
0000
1000
0000
0001
0100
,  // measure 146
0000
1000
0000
0100
0000
0010
1000
0000
,  // measure 147
0100
0010
0001
0000
1000
0000
0001
0010
,  // measure 148
0000
1000
0000
0100
0000
0001
1000
0000
,  // measure 149
1001
0000
0000
0000
;
