#TITLE:OMAKENO Stroke;
#SUBTITLE:;
#ARTIST:t+pazolite;
#TITLETRANSLIT:;
#SUBTITLETRANSLIT:;
#ARTISTTRANSLIT:;
#GENRE:;
#CREDIT:Mr. Kewing;
#BANNER:OMAKENO Stroke.png;
#BACKGROUND:OMAKENO Stroke-bg.png;
#LYRICSPATH:;
#CDTITLE:!Kewing v3 (cdtitle);
#MUSIC:OMAKENO Stroke.ogg;
#OFFSET:-0.702615;
#SAMPLESTART:66.404999;
#SAMPLELENGTH:16.280001;
#SELECTABLE:YES;
#BPMS:0.000000=240.000000
,200.000000=120.000000
,232.000000=240.000000
,392.000000=120.000000
;
#STOPS:
;
#BGCHANGES:;
#KEYSOUNDS:;
#ATTACKS:;

//---------------dance-single - ----------------
#NOTES:
     dance-single:
     :
     Hard:
     14:
     0.629057,0.915926,0.343345,0.274676,0.060085,513.000000,473.000000,40.000000,32.000000,0.000000,0.000000,0.629057,0.915926,0.343345,0.274676,0.060085,513.000000,473.000000,40.000000,32.000000,0.000000,0.000000:
0000
0000
0000
0000
,
0000
0000
0000
0000
,
0011
0011
0000
0000
,
0110
0110
0000
0000
,
1010
1010
0000
0000
,
1000
0010
0001
0000
,
0101
0101
0000
0000
,
0110
0110
0000
0000
,
1100
1100
1000
0100
,
0001
0000
0000
0101
,
0001
0000
0010
0000
0100
0000
1000
0010
,
1000
0000
0100
0000
0010
0000
0001
0100
,
0001
1000
0010
0001
,
0010
0000
1000
0000
0100
0010
0000
0000
,
1100
0000
0000
0011
0000
0000
0101
0000
,
0100
0000
0010
0000
1000
0001
0000
0010
,
0100
1000
0001
1000
0010
1000
0100
0010
,
0000
0000
0000
0000
,
0010
0000
0000
0001
0000
0000
0100
0000
,
0000
0001
0000
0010
0000
0000
0001
0000
,
1000
0000
0000
0010
0000
0000
0001
0000
,
0000
0010
0000
1000
0000
0000
0001
0000
,
1000
0100
0010
0100
0000
0000
0011
0000
,
0000
1000
0000
0001
0010
0000
0010
0000
,
0001
0100
0010
0100
0000
0000
1010
0000
,
0000
0001
0000
1000
0100
0000
0100
0000
,
0010
0001
0100
0001
0000
0000
1010
0000
,
0000
1000
0000
0001
0010
0000
0010
0000
,
0100
1000
0010
1000
0000
0000
0101
0000
,
0000
0100
0000
0001
1000
0000
1000
0000
,
0001
0010
1000
0010
0000
0000
0011
0000
,
0000
0001
0000
1000
0010
0000
0010
0000
,
0100
1000
0010
0001
,
0000
0000
0000
0000
,
1000
0000
0100
0001
0000
0100
1000
0000
,
0100
0010
0000
0001
0100
0001
1000
0000
,
0001
0000
0100
1000
0000
0100
0001
0000
,
0010
0001
0100
0001
1000
0000
1001
0000
,
0001
0000
0010
1000
0000
0010
0001
0000
,
0010
0100
0000
1000
0010
1000
0001
0000
,
1000
0000
0010
0001
0000
0010
1000
0000
,
0100
0010
0100
1000
0001
0000
0001
0000
,
0001
0000
0100
1000
0000
0100
0001
0000
,
0010
0100
0000
1000
0010
1000
0001
0000
,
1000
0000
0010
0001
0000
0010
1000
0000
,
0100
0010
0001
0100
1000
0100
0001
0010
,
0100
0000
1000
1000
0000
0010
0010
0000
,
0100
0100
0000
0001
0001
0000
1001
0000
,
0001
0010
0100
1000
0001
0100
0010
2000
,
0000
3001
0010
0100
,
2000
0000
3000
0001
2000
0000
3020
0000
,
0032
0000
0003
0010
0200
0000
0301
0010
,
0200
0000
0300
1000
0002
0000
0203
0000
,
2300
0000
0000
0000
3000
0000
0000
0010
,
1000
0000
0100
0000
0100
0000
0010
0001
0000
1000
0001
0000
0001
0000
0100
0010
,
0000
1000
0010
0000
0010
0000
0100
0001
0000
0010
0001
0000
0001
0000
1000
0100
,
0000
0001
0100
0000
0100
0000
0010
0001
0000
0100
0001
0000
0001
0000
1000
0010
,
0000
0001
0010
0000
0010
0000
0100
0001
0000
0010
0001
0000
0001
0000
0100
0000
,
0020
0000
0000
2030
0000
0000
3200
0000
,
0000
0000
0001
0000
0300
0000
1000
0100
,
0020
0000
0000
0032
0000
0000
0203
0000
,
0000
0000
0310
0000
1000
0001
0000
0000
,
2000
0000
0000
3200
0000
0000
0302
0000
,
2003
0000
3020
0000
0031
0100
0000
0020
,
0100
0000
0100
0000
,
0130
0000
0010
0000
0100
0001
1000
0000
,
1001
0000
1000
0000
0100
0010
0000
0011
,
0000
0001
0000
0101
0000
0100
0001
0010
,
0100
0000
0001
0100
1000
0000
0001
0100
,
0000
1000
0000
0100
0001
0000
0001
0000
,
0010
0100
1000
0000
0010
0100
0010
1000
,
0000
1000
0100
0000
0010
1000
0010
0001
,
1000
0000
0010
0000
0100
1000
0000
0100
,
0001
0000
0010
0000
0100
1000
0001
0000
,
1001
0000
0001
0000
0100
0010
0000
1010
,
0000
1000
0000
1100
0000
0100
1000
0010
,
0100
0000
1000
0100
0001
0000
1000
0100
,
0000
0001
0000
0100
1000
0000
1000
0000
,
0010
0100
0001
0000
0010
0100
0010
0001
,
0000
0001
0100
0000
0010
0001
0010
1000
,
0001
1000
0100
0010
0001
0100
0010
1000
,
0100
0010
1001
0010
,
0100
0000
1000
0000
0001
0000
0100
0010
,
1000
0000
0001
0000
0010
0001
0010
0100
,
1000
0000
0010
0000
0100
0000
0001
0010
,
0000
1000
0000
0010
0001
1000
0001
0000
,
1000
0000
0010
0100
0001
0000
0010
0100
,
1000
0000
0001
0000
0100
0010
1000
0200
,
0010
0010
0010
0010
,
0310
0000
0000
0010
,
0011
0000
1100
0000
1001
0000
0010
1000
,
1010
0000
0101
0000
1001
0000
0010
0001
,
0011
0000
0101
0000
1010
0000
1000
0100
,
0000
0110
0000
0010
0001
1000
0001
0000
,
1000
0010
0100
0001
0100
1000
0100
0010
,
1000
0100
0010
0001
0010
1000
0010
0100
,
1000
0001
0100
1000
0001
0010
1000
0100
,
0010
0001
0100
0010
,
2000
0000
3000
0001
2000
0000
3200
0000
,
0302
0000
0003
0100
0020
0000
0031
0100
,
0020
0000
0030
1000
0002
0000
0023
0000
,
2030
0000
0000
0000
0000
3000
0000
0000
;

//---------------dance-single - ----------------
#NOTES:
     dance-single:
     :
     Medium:
     12:
     0.497850,0.653428,0.128754,0.257509,0.000000,406.000000,391.000000,15.000000,30.000000,0.000000,0.000000,0.497850,0.653428,0.128754,0.257509,0.000000,406.000000,391.000000,15.000000,30.000000,0.000000,0.000000:
0000
0000
0000
0000
,
0000
0000
0000
0000
,
0101
0100
0000
0000
,
1001
1000
0000
0000
,
0011
0010
0000
0000
,
0010
0100
1000
0000
,
1100
0100
0000
0000
,
1001
0001
0000
0000
,
1010
0010
0010
0100
,
0001
0000
0000
0000
,
1000
0001
1000
0200
,
0000
0310
0001
0010
,
0001
1000
0001
0200
,
0000
0000
0310
0000
1000
0001
0000
0000
,
0010
0000
0000
0100
0000
0000
0010
0000
,
0001
0000
1000
0000
0010
0100
0000
0010
,
1000
0000
0100
0000
0010
0000
0001
0100
,
0000
0000
0000
0000
,
1000
0000
0000
0001
0000
0000
1000
0000
,
0000
0100
0000
0100
0000
0000
0010
0000
,
0001
0000
0000
1000
0000
0000
0001
0000
,
0000
0100
0000
0100
0000
0000
0010
0000
,
0100
0010
0100
0000
0000
0000
1001
0000
,
0000
0010
0001
0001
,
1000
0001
1000
0000
0000
0000
0101
0000
,
0000
0010
1000
1000
,
0001
1000
0001
0000
0000
0000
1100
0000
,
0000
0010
0001
0001
,
0100
0001
0100
0000
0000
0000
1010
0000
,
0000
0010
1000
1000
,
0100
1000
0100
0000
0000
0000
0011
0000
,
0000
0001
1000
1000
,
0001
0100
0010
1000
,
0000
0000
0000
0000
,
1000
0000
0100
0010
0000
0100
0010
0000
,
0001
0000
1000
0000
0001
1000
0001
0000
,
1000
0000
0010
0100
0000
0010
0100
0000
,
0001
0000
1000
0100
1000
0000
0000
0000
,
0001
0000
0100
0010
0000
0100
0010
0000
,
1000
0000
0001
0000
1000
0001
1000
0000
,
0001
0000
0010
0100
0000
0010
0100
0000
,
1000
1000
1000
0000
,
0001
0000
0100
0010
0000
1000
0001
0000
,
0100
0000
0010
0000
1000
0010
1000
0000
,
0100
0000
1000
0001
0000
0100
0010
0000
,
1000
0000
0001
0100
0001
0000
0010
0000
,
0011
0000
0001
0100
0000
0000
1010
0000
,
1000
0100
0000
0000
0010
0000
0100
0000
,
0110
0000
1000
0001
0000
0100
0010
1000
,
0000
0001
0010
0100
,
2000
0000
3000
0001
2000
0000
3020
0000
,
0230
0000
0300
0010
2000
0000
3001
0010
,
0200
0000
0300
1000
0002
0000
0203
0000
,
0320
0000
0030
0000
,
1000
0001
0010
0001
0000
0010
0100
0010
,
0000
0100
0001
0100
0000
0001
1000
0001
,
0000
0010
0001
0010
0000
0100
0010
0100
,
0000
0010
1000
0010
0000
1000
0001
0010
,
0200
0000
0000
2300
0000
0000
3002
0000
,
0000
0000
0103
0000
0000
0100
0000
0000
,
0200
0000
0000
0302
0000
0000
2003
0000
,
0000
0000
3100
0000
0010
0001
0000
0000
,
0020
0000
0000
0230
0000
0000
1300
0000
,
0010
0000
0100
0000
0001
1000
0000
0200
,
0000
0000
0010
0000
,
0310
0000
0000
0000
,
1000
0000
0100
0000
0001
0000
0100
1000
,
0100
0000
0010
0000
1000
0000
0010
0001
,
0010
0000
0100
0000
1000
0000
0010
0100
,
0000
0100
0001
0001
,
0010
0000
0001
0000
0100
0010
0100
0000
,
1000
0000
0001
0000
1000
0000
0100
0010
,
0100
0001
0010
0100
,
1000
0000
0001
1000
,
0001
0000
0100
0000
1000
0000
0100
0001
,
0100
0000
0010
0000
0001
0000
0010
1000
,
0010
0000
0100
0000
0001
0000
0010
0100
,
0000
0100
1000
1000
,
0010
0000
1000
0000
0100
0010
0100
0000
,
0001
0000
1000
0000
0001
0000
0100
0010
,
0100
0000
1000
0000
0010
0100
0001
0010
,
0100
0000
1001
0000
,
0001
1000
0001
0100
,
0010
0000
1000
0000
0100
0000
1000
0001
,
1000
0100
0001
0100
,
1000
0000
0001
0000
0100
0010
0000
0000
,
0010
0000
1000
0000
0100
0000
0010
0001
,
0010
0000
0100
0000
1000
0001
0000
0001
,
0200
0010
0010
0010
,
0310
0000
0000
0010
,
1000
0000
0100
0000
0010
0000
0001
0100
,
0001
0000
0010
0000
0100
0000
1000
0010
,
1000
0100
0001
0100
,
0010
0000
0001
0000
0100
0010
0100
0000
,
0001
1000
0100
0000
0010
0001
1000
0000
,
0001
0100
0010
0000
1000
0100
0010
0000
,
0001
0010
0100
1000
0001
0100
0010
1000
,
0100
1000
0010
0100
,
0002
0000
0003
1000
0002
0000
0023
0000
,
0230
0000
0300
0010
0002
0000
1003
0010
,
0200
0000
0300
0001
2000
0000
3200
0000
,
0320
0000
0030
0000
;

//---------------dance-single - ----------------
#NOTES:
     dance-single:
     :
     Easy:
     9:
     0.365417,0.522742,0.145921,0.240341,0.000000,298.000000,281.000000,17.000000,28.000000,0.000000,0.000000,0.365417,0.522742,0.145921,0.240341,0.000000,298.000000,281.000000,17.000000,28.000000,0.000000,0.000000:
0000
0000
0000
0000
,
0000
0000
0000
0000
,
0010
0010
0000
0000
,
0001
0001
0000
0000
,
0100
0100
0000
0000
,
0010
0100
0001
0000
,
0100
0100
0000
0000
,
0001
0001
0000
0000
,
0010
0010
0100
0010
,
0001
0000
0000
0000
,
0001
0000
1000
0020
,
0000
0030
0010
1000
,
0001
0000
1000
0200
,
0000
0010
0310
0000
,
0001
0000
0000
1000
0000
0000
0001
0000
,
0000
1000
0000
0000
0001
0000
0000
0000
,
0001
0100
0010
1000
,
0000
0000
0000
0000
,
1000
0000
0000
0010
,
0000
0010
1000
0000
,
0001
0000
0000
0010
,
0000
0010
0001
0000
,
0001
0100
0000
0011
,
0000
0100
0001
0000
,
1000
0100
0000
1010
,
0000
0100
1000
0000
,
0001
0100
0000
1010
,
0000
0100
0001
0000
,
1000
0100
0000
0011
,
0000
0100
1000
0000
,
0010
0100
0000
1001
,
0000
0100
0010
0000
,
0001
0010
0100
1000
,
0000
0000
0000
0000
,
1000
0000
0000
0001
0000
0000
0100
0000
,
0000
0001
0100
0000
,
0001
0000
0000
1000
0000
0000
0100
0000
,
0010
0001
0010
0000
,
0001
0000
0000
1000
0000
0000
0010
0000
,
0000
1000
0010
0000
,
1000
0000
0000
0001
0000
0000
0010
0000
,
0001
1000
0001
0000
,
0010
0000
0000
0001
0000
0000
0100
0000
,
0000
0010
1000
0010
,
0100
0000
0000
0001
0000
0000
0010
0000
,
0100
1000
0001
0000
,
1001
0000
0000
0001
0000
0000
1001
0000
,
0000
1000
0000
0000
1001
0000
0001
0000
,
0010
0100
1000
0002
,
0000
0003
1000
0000
,
0200
0000
1300
0001
,
0200
0000
0310
1000
,
0200
0000
0310
0001
,
0200
0000
0300
0000
,
0001
1100
0001
1000
,
0010
1001
0100
0001
,
1000
0101
1000
0001
,
0010
1001
0100
1000
,
0002
0000
0000
2003
0000
0000
3002
0000
,
0000
0000
0003
0100
,
0200
0000
0000
0320
0000
0000
0230
0000
,
0000
0301
0001
0000
,
1000
0000
0010
1000
,
0200
0000
0310
0001
,
0200
0000
0010
0000
,
0310
0000
0100
0000
,
0110
0001
1000
0001
,
1000
0001
1000
0100
,
0010
0100
0010
0100
,
0000
0100
0100
0000
,
1001
0100
0010
0100
,
0010
0100
0010
0001
,
1000
0001
1000
0001
,
1000
0000
0100
0000
,
0110
1000
0001
1000
,
0001
1000
0001
0100
,
0010
0100
0010
0100
,
0000
0100
0100
0000
,
1001
0100
0010
0100
,
0010
0100
0010
1000
,
0001
1000
0001
0010
,
0100
0000
1001
0000
,
0002
0000
0000
2003
0000
0000
3010
0000
,
0020
0000
1030
0001
,
2000
0000
0000
3002
0000
0000
0023
0000
,
0000
0031
1000
0000
,
0020
0000
0000
0230
0000
0000
0310
0000
,
1000
0001
1000
0001
,
0020
0000
0100
0000
,
0130
0000
0000
0001
,
0001
1000
0001
0010
,
0010
0100
0010
0001
,
0001
0100
0001
1000
,
0100
1000
0001
0000
,
1000
0010
0100
0001
,
1000
0100
0010
0001
,
1000
0010
0001
0010
,
1000
0000
0001
0000
,
0020
0000
0031
1000
,
0020
0000
0130
0001
,
0020
0000
0130
1000
,
0020
0000
0030
0000
;

//---------------dance-single - ----------------
#NOTES:
     dance-single:
     :
     Beginner:
     5:
     0.171672,0.261371,0.025751,0.077253,0.000000,140.000000,137.000000,3.000000,9.000000,0.000000,0.000000,0.171672,0.261371,0.025751,0.077253,0.000000,140.000000,137.000000,3.000000,9.000000,0.000000,0.000000:
0000
0000
0000
0000
,
0000
0000
0000
0000
,
1000
0000
0000
0000
,
0001
0000
0000
0000
,
1000
0000
0000
0000
,
0000
0000
0000
0000
,
0001
0000
0000
0000
,
1000
0000
0000
0000
,
0001
0000
0000
0000
,
0000
0000
0000
0000
,
0010
0000
0000
0000
,
0100
0000
0000
0000
,
1000
0000
0000
0000
,
0001
0000
0000
0000
,
0100
0000
0000
0000
,
0010
0000
0000
0000
,
0010
0000
0010
0000
,
0010
0000
0000
0000
,
1000
0000
0000
0000
,
0000
0000
0000
0000
,
0001
0000
0000
0000
,
0000
0000
0000
0000
,
1000
0000
0000
1000
,
0000
0000
0000
0000
,
0001
0000
0000
0001
,
0000
0000
0000
0000
,
0010
0000
0000
0010
,
0000
0000
0000
0000
,
0100
0000
0000
0100
,
0000
0000
0000
0000
,
1000
0000
0000
0001
,
0000
0000
0100
0000
,
0010
0000
0100
0000
,
0000
0000
0000
0000
,
0001
0000
1000
0000
,
0100
0000
0000
0000
,
0010
0000
0001
0000
,
1000
0000
0000
0000
,
1000
0000
0001
0000
,
0100
0000
0000
0000
,
0010
0000
1000
0000
,
0001
0000
0001
0000
,
0001
0000
0100
0000
,
0010
0000
0000
0000
,
1000
0000
0100
0000
,
0010
0000
0100
0000
,
0110
0000
0000
1001
,
0000
0000
0001
0000
,
0100
0000
0010
0000
,
1000
0000
0000
0000
,
0002
0000
0003
0000
,
2000
0000
3000
0000
,
0200
0000
0300
0000
,
0002
0000
0003
0000
,
0000
0100
0000
0010
,
0000
0100
0000
0010
,
0000
0001
0000
1000
,
0000
0001
0000
1000
,
1000
0000
0010
0000
,
0100
0000
0000
0000
,
0001
0000
0010
0000
,
0100
0000
0000
0000
,
1000
0000
0000
0000
,
0001
0000
0000
0000
,
1000
0000
0010
0000
,
0100
0000
0000
0000
,
0001
0000
0100
0000
,
1000
0000
0100
0000
,
0001
0000
0100
0000
,
1000
0000
0000
0000
,
0001
0000
0010
0000
,
1000
0000
0010
0000
,
0001
0000
0010
0000
,
1000
0000
0000
0000
,
1000
0000
0100
0000
,
0001
0000
0100
0000
,
1000
0000
0100
0000
,
0001
0000
0000
0000
,
1000
0000
0010
0000
,
0001
0000
0010
0000
,
1000
0000
0010
0000
,
0001
0000
0000
0000
,
0010
0000
0001
0000
,
0100
0000
0000
0000
,
0010
0000
1000
0000
,
0100
0000
0000
0000
,
0010
0000
0001
0000
,
1000
0000
0001
0000
,
0200
0000
0000
0000
,
0300
0000
0000
0000
,
1001
0000
0001
0000
,
0010
0000
0100
0000
,
1000
0000
0010
0000
,
0100
0000
0001
0000
,
0010
0000
1000
0000
,
0010
0000
0100
0000
,
0001
0000
0010
0000
,
1000
0000
0000
0000
,
2000
0000
3000
0000
,
0002
0000
0003
0000
,
0200
0000
0300
0000
,
2000
0000
3000
0000
;
