#TITLE:Mr. Vain;
#SUBTITLE:;
#ARTIST:CULTURE BEAT;
#TITLETRANSLIT:;
#SUBTITLETRANSLIT:;
#ARTISTTRANSLIT:;
#CREDIT:;
#BANNER:Mr. Vain.png;
#BACKGROUND:Mr. Vain-bg.png;
#LYRICSPATH:;
#CDTITLE:!Kewing DarkSun (cdtitle).png;
#MUSIC:Mr. Vain.mp3;
#OFFSET:-0.013;
#SAMPLESTART:57.720;
#SAMPLELENGTH:14.420;
#SELECTABLE:YES;
#BPMS:0.000=133.000;
#STOPS:;
#BGCHANGES:;

//---------------dance-single - Heavy----------------
#NOTES:
     dance-single:
     Heavy:
     Hard:
     7:
     0.447,0.455,0.256,0.114,0.000: // measure 1
0000
0000
0000
0000
,  // measure 2
0000
0000
0000
0000
,  // measure 3
0000
0000
0000
0000
,  // measure 4
0000
0000
0000
0000
,  // measure 5
0001
1000
0001
0100
,  // measure 6
0010
0000
0100
0000
0001
0010
0001
0010
,  // measure 7
0001
0000
1000
0000
0001
0000
0010
0100
,  // measure 8
0010
0001
1000
0000
,  // measure 9
1100
0000
0001
0000
0100
0000
0010
1000
,  // measure 10
0010
0100
0000
0001
1000
0001
0100
0000
,  // measure 11
0101
0000
1000
0000
0100
0000
0010
0001
,  // measure 12
0010
0100
0000
1000
0001
1000
0100
0000
,  // measure 13
0110
0000
0100
0000
1000
0000
0010
0100
,  // measure 14
0010
0000
0000
0010
0100
0001
1000
0000
,  // measure 15
0110
0000
0100
0000
0001
0000
0010
0100
,  // measure 16
0010
0001
0000
0010
0100
1000
0001
0000
,  // measure 17
0001
0100
0001
0000
0010
0001
0010
0000
,  // measure 18
0100
1000
0100
0000
1000
0010
1000
0000
,  // measure 19
0010
0100
0010
0000
1000
0001
1000
0000
,  // measure 20
0100
0010
0100
0000
0001
1000
0001
0000
,  // measure 21
1000
0001
0100
0000
0010
0100
0001
0000
,  // measure 22
0001
1000
0100
0000
0010
0100
1000
0000
,  // measure 23
0001
0100
0010
0000
1000
0100
0010
0000
,  // measure 24
0001
0000
0100
0010
0100
0000
1001
0000
,  // measure 25
1000
0100
1000
0001
1000
0100
1000
0100
,  // measure 26
0010
0001
0010
0100
0010
0001
0010
0001
,  // measure 27
0100
0001
0100
0010
0100
0001
0100
0001
,  // measure 28
1000
0010
1000
0001
1000
0010
1000
0010
,  // measure 29
1000
0100
0010
0100
1000
0001
1000
0001
,  // measure 30
0100
0001
0100
0010
0100
0001
1000
0001
,  // measure 31
1000
0010
0100
0010
1000
0001
1000
0001
,  // measure 32
0010
0001
0010
0100
1000
0001
1001
0000
,  // measure 33
1000
0010
0100
0001
1000
0001
0000
0020
,  // measure 34
0000
0031
1000
0001
0100
0000
0010
0000
,  // measure 35
1000
0001
0010
0100
2000
0000
3010
0000
,  // measure 36
0002
0103
2000
3001
,  // measure 37
0001
0010
0100
1000
0001
1000
0000
0020
,  // measure 38
0000
1030
0001
1000
0100
0000
0010
0000
,  // measure 39
0100
1000
0010
0100
0002
0000
0013
0000
,  // measure 40
2000
0000
3100
0000
0010
0100
0110
0000
,  // measure 41
1001
0000
0100
0001
0010
0001
1000
0000
,  // measure 42
1100
0000
1000
0010
0100
0000
0001
0000
,  // measure 43
0011
0000
1001
0000
1100
0000
0000
1000
,  // measure 44
0010
0000
1000
0100
0010
0000
0001
0000
,  // measure 45
1001
0000
0010
1000
0100
1000
0001
0000
,  // measure 46
0101
0000
0001
0010
0100
0000
1000
0000
,  // measure 47
1010
0000
1001
0000
0101
0000
0000
0001
,  // measure 48
0010
0000
0001
0100
0010
0000
1000
0000
,  // measure 49
1001
0000
0010
0100
1000
0000
0011
0000
,  // measure 50
0001
0000
0100
0001
0020
0000
0030
0000
,  // measure 51
0101
0000
0110
0000
1010
0000
0000
1000
,  // measure 52
0100
0000
0001
0100
2000
0000
3000
0000
,  // measure 53
1001
0000
0010
0100
0001
0000
1010
0000
,  // measure 54
1000
0000
0100
1000
0020
0000
0030
0000
,  // measure 55
1100
0000
0110
0000
0011
0000
0000
0001
,  // measure 56
0100
0000
1000
0100
0002
0000
0000
0000
,  // measure 57
2003
0000
3000
0000
;

//---------------dance-single - Standard----------------
#NOTES:
     dance-single:
     Standard:
     Medium:
     6:
     0.393,0.402,0.247,0.322,0.000:
0000
0000
0000
0000
,
0000
0000
0000
0000
,
0000
0000
0000
0000
,
0000
0000
0000
0000
,
1000
0100
1000
0001
,
0100
0000
0010
0000
1000
0100
1000
0000
,
0001
0010
0100
1000
,
0002
0000
0000
0000
,
0103
0000
0010
1000
1000
0000
0010
0000
,
0220
0000
0330
0000
0001
0010
0001
0000
,
0001
0000
1000
0001
0001
0000
0100
0000
,
0220
0000
0330
0000
1000
0001
1000
0000
,
0100
0000
0010
0010
0001
0000
0010
0000
,
0220
0000
0330
0000
1000
0010
1000
0000
,
1000
0000
0001
0001
1000
0000
0100
0000
,
0220
0000
0330
0000
0001
1000
0001
0000
,
0001
0000
1000
0000
0100
1000
0001
0000
,
0100
0000
0001
0000
0100
0001
1000
0000
,
0001
0000
1000
0000
0100
0010
0100
0000
,
1000
0000
0001
0000
0100
0010
0100
0000
,
0001
0000
1000
0000
0010
0100
0001
0000
,
1000
0000
0001
0000
0010
0100
1000
0000
,
0001
0100
1000
0010
,
0001
0000
0000
0000
1000
0001
1000
0000
,
0001
1000
0002
0000
0100
0000
0103
0000
,
0010
1000
0020
0000
0100
0000
0130
0000
,
0001
1000
0002
0000
1000
0000
0013
0000
,
0100
1000
0200
0000
1000
0000
0310
0000
,
0001
1000
0020
0000
1000
0000
0130
0000
,
0001
1000
0200
0000
1000
0000
0310
0000
,
0001
0100
0020
0000
0100
0000
1030
0000
,
0001
0010
0100
0000
1000
0100
0010
0000
,
1001
0000
0001
0000
0100
0010
0000
0100
,
0000
0001
1000
0001
0010
0000
0010
0000
,
0100
0000
0100
1000
0002
0000
0103
0000
,
0200
0310
0020
1030
,
1001
0000
1000
0000
0100
0010
0000
0100
,
0000
1000
0001
1000
0010
0000
0010
0000
,
0100
0010
1000
0001
2000
0000
3100
0000
,
0200
0000
0310
0000
0010
0100
0100
0000
,
1001
0100
1010
0100
,
1001
0010
0202
0303
,
1010
0000
1000
0000
1100
0000
0000
1000
,
0010
0000
0010
0100
0002
0000
0003
0000
,
1001
0100
0011
0100
,
1001
0010
2200
3300
,
0011
0000
0001
0000
0101
0000
0000
0001
,
0010
0000
0010
0100
2000
0000
3000
0000
,
1010
0001
0010
1100
,
0010
0001
0202
0303
,
0010
0000
1000
0000
1001
0000
0000
0010
,
0001
0000
0010
0100
2000
0000
3000
0000
,
0011
1000
0010
0101
,
0010
1000
2200
3300
,
0010
0000
0100
0000
1001
0000
0000
0010
,
1000
0000
0010
0100
0002
0000
0000
0000
,
2003
0000
3000
0000
;

//---------------dance-single - Light----------------
#NOTES:
     dance-single:
     Light:
     Easy:
     4:
     0.302,0.348,0.266,0.228,0.000:
0000
0000
0000
0000
,
0000
0000
0000
0000
,
0000
0000
0000
0000
,
0000
0000
0000
0000
,
0001
0000
0001
0000
,
1000
0000
1000
0100
,
0001
0000
0010
0000
,
0100
0000
0000
0000
,
0001
0100
0001
1000
,
1100
0000
0001
1001
,
1000
0100
1000
0001
,
0101
0000
1000
1001
,
0001
0100
0010
1000
,
1100
0000
0001
1001
,
1000
0100
0010
0001
,
0101
0000
1000
1001
,
0001
0100
0001
0100
,
0001
0100
0001
0100
,
0010
1000
0010
1000
,
0010
1000
0010
1000
,
0001
1000
0100
0010
,
0001
0010
0100
1000
,
0001
0100
1000
0100
,
0001
0000
0000
0000
,
1001
1000
0100
0100
,
1000
0001
0010
0010
,
0001
0001
0100
0100
,
0001
1000
0010
0010
,
1000
1000
0100
0100
,
0010
0001
1000
1000
,
0001
0001
0100
0100
,
0010
0000
0110
0000
,
0101
1000
0100
0000
,
1100
0001
0200
0300
,
0001
0010
0200
0010
,
0320
0100
0230
0300
,
1100
0001
0100
0000
,
0101
1000
0200
0300
,
1000
0010
0200
0010
,
0320
0100
0130
0100
,
0101
0100
0010
1000
,
1100
0001
0202
0303
,
0100
0010
2000
3000
,
0100
0010
0002
0003
,
1100
0100
0010
0001
,
0101
1000
2200
3300
,
0100
0010
0002
0003
,
0100
0010
2000
3000
,
1100
0000
1010
0000
,
0101
1000
0202
0303
,
0010
1000
0200
0300
,
0010
0001
2000
3000
,
0101
0000
0011
0000
,
1100
0001
2200
3300
,
0010
0001
0200
0300
,
0010
0100
0002
0000
,
2003
0000
3000
0000
;

//---------------dance-single - Oni----------------
#NOTES:
     dance-single:
     Oni:
     Challenge:
     8:
     0.524,0.509,0.247,0.095,0.138:
0000
0000
0000
0000
,
0000
0000
0000
0000
,
0000
0000
0000
0000
,
0000
0000
0000
0000
,
1000
0010
1000
0000
1000
0100
1000
0000
,
1000
0010
1000
0010
1000
0100
0010
0000
,
0001
0100
0001
0000
0001
0010
0001
0000
,
0110
1000
0001
0100
,
0001
0010
0001
0100
0001
1000
0001
0100
,
0010
0000
0100
0000
0000
0000
0010
0000
1000
0001
1000
0000
1100
0000
0000
0000
,
1000
0010
1000
0100
1000
0001
1000
0100
,
0010
0000
0100
0000
0000
0000
0010
0000
0001
1000
0001
0000
0101
0000
0000
0000
,
0001
1000
0100
1000
0010
1000
0001
0010
,
0100
0000
0000
0000
0000
0000
0100
0000
1000
0001
1000
0000
1010
0000
0000
0000
,
1000
0001
0100
0001
0010
0001
1000
0010
,
0100
0000
0010
0000
0000
0000
0100
0000
0001
1000
0001
0000
0011
0000
0000
0000
,
1000
0001
0100
0010
0100
0010
0100
0001
,
1000
0100
0010
0100
0010
0100
0010
0100
,
1000
0001
0100
0001
1000
0100
1000
0001
,
0010
0100
1000
0010
1000
0100
0010
0001
,
1000
0001
0010
0001
1000
0010
1000
0001
,
0100
0010
1000
0010
0100
0001
1000
0100
,
0010
0001
0100
1000
0100
0010
0100
0001
,
1001
0000
0000
0000
0010
0000
1000
0000
0100
0000
0000
0010
0000
0000
0100
0000
,
1000
0000
0001
0000
0100
0000
0001
0100
0000
0100
0001
0000
0100
0000
0001
0000
,
0100
0000
0010
0000
1000
0000
0010
1000
0000
1000
0010
0000
1000
0000
0010
0000
,
1000
0000
0100
0000
1000
0000
0100
0010
0000
0010
0100
0000
1000
0000
0100
0000
,
0010
0000
0001
0000
0010
0000
0001
1000
0000
1000
0001
0000
0010
0000
0001
0000
,
0010
0000
0100
0000
1000
0000
0001
0100
0000
0100
0001
0000
1000
0000
0001
0000
,
1000
0000
0100
0000
0010
0000
0001
1000
0000
1000
0001
0000
0100
0000
0001
0000
,
0100
0000
0010
0000
1000
0000
0100
0010
0000
0010
0100
0000
1000
0000
0001
0000
,
1000
0000
0010
0000
0100
0000
0001
0010
0000
0100
1000
0000
1001
0000
0000
0000
,
0010
0100
0001
0010
1000
0010
0000
0011
,
0000
0001
0100
1000
0100
0000
0010
0000
,
0100
0001
1000
0100
0002
0000
1003
0010
,
0002
0000
1003
0100
0002
0000
0103
0000
,
0010
0100
1000
0010
0001
0010
0000
1010
,
0000
1000
0100
0001
0100
0000
0010
0000
,
0100
1000
0001
0100
2000
0000
3001
0010
,
2000
0000
3001
1000
0100
0010
0110
0000
,
1001
0000
0000
0000
0100
0000
0010
0000
1000
0001
0000
0010
0000
0000
0100
0000
,
1000
0000
0010
0100
0001
0100
1000
0000
,
1100
0000
0110
0000
0101
0000
0100
0001
,
0010
0000
1000
0010
0001
0100
0010
0000
,
1001
0000
0000
0000
0100
0000
0010
0000
0001
1000
0000
0010
0000
0000
0100
0000
,
0001
0000
0010
0100
1000
0100
0001
0000
,
0101
0000
0110
0000
1100
0000
0100
1000
,
0010
0000
0001
0010
1000
0100
0010
0000
,
1001
0000
0000
0000
1000
0000
0100
0000
1000
0010
0000
0100
0000
0000
0001
0000
,
0010
0000
1000
0010
0002
0000
0003
0000
,
0101
0000
0011
0000
1100
0000
0000
1000
,
0001
0000
0001
0100
2000
0000
3000
0000
,
1001
0000
0000
0000
0001
0000
0100
0000
0001
0010
0000
0100
0000
0000
1000
0000
,
0010
0000
0001
0010
2000
0000
3000
0000
,
1100
0000
1010
0000
0101
0000
0000
0001
,
1000
0000
1000
0100
0002
0000
0000
0000
,
2003
0000
3000
0000
;

//---------------dance-single - Beginner----------------
#NOTES:
     dance-single:
     Beginner:
     Beginner:
     3:
     0.202,0.239,0.228,0.000,0.000:
0000
0000
0000
0000
,
0000
0000
0000
0000
,
0000
0000
0000
0000
,
0000
0000
0000
0000
,
0001
0000
0001
0000
,
0001
0000
0100
0100
,
0100
0000
1000
0000
,
1000
0000
0000
0000
,
1001
0000
1000
0000
,
0100
0000
0001
0000
,
1001
0000
1000
0000
,
0100
0000
0001
0000
,
1001
0000
0001
0000
,
0010
0000
1000
0000
,
1001
0000
0001
0000
,
0010
0000
1000
0000
,
1001
0000
0001
0000
,
0100
0000
0010
0010
,
0010
0000
0100
0000
,
0010
0000
0100
0100
,
0100
0000
0001
0001
,
0001
0000
1000
1000
,
1000
0000
0100
0100
,
0100
0000
0000
0000
,
0110
0000
0001
0001
,
0001
0000
0100
0100
,
0100
0000
1000
1000
,
1000
0000
0100
0100
,
0100
0000
0010
0010
,
0010
0000
0001
0001
,
0001
0000
0010
0010
,
0010
0000
1000
0000
,
1001
1000
1000
0000
,
1001
0001
0001
0000
,
0100
0000
1000
0000
,
0010
0000
0100
0000
,
1001
0001
0001
0000
,
1001
1000
1000
0000
,
0100
0100
0100
0000
,
0001
0000
1000
0000
,
1001
0000
0110
0000
,
0110
0000
1001
0000
,
0010
0010
0010
0000
,
0001
0000
0100
0000
,
1001
0000
0110
0000
,
0110
0000
1001
0000
,
0010
0010
0010
0000
,
1000
0000
0100
0000
,
1001
0000
0100
0000
,
0110
0000
1001
0000
,
0100
0100
0100
0000
,
0001
0000
0010
0000
,
1001
0000
0100
0000
,
0110
0000
1001
0000
,
0100
0100
0100
0000
,
1000
0000
0010
0000
,
0100
0000
0000
0000
;
