#TITLE:Metallic Madness "B" Mix;
#SUBTITLE:[Sonic The Hedgehog CD];
#ARTIST:幡谷 尚史 & 雅史 尾形;
#TITLETRANSLIT:;
#SUBTITLETRANSLIT:;
#ARTISTTRANSLIT:Hataya, Naofumi & Ogata, Masafumi;
#CREDIT:Kewing DarkSun;
#BANNER:Metallic Madness 'B' Mix.png;
#BACKGROUND:Metallic Madness 'B' Mix-bg.png;
#LYRICSPATH:;
#CDTITLE:!Kewing DarkSun (cdtitle).png;
#MUSIC:Metallic Madness 'B' Mix.ogg;
#OFFSET:-0.320;
#SAMPLESTART:14.384;
#SAMPLELENGTH:14.120;
#SELECTABLE:YES;
#BPMS:0.000=136.420,27.500=122.000,29.500=110.000,29.750=97.500,30.000=84.000,31.000=136.420;
#STOPS:;
#BGCHANGES:;

//---------------dance-single - Basic----------------
#NOTES:
     dance-single:
     Basic:
     Easy:
     4:
     0.323,0.361,0.197,0.225,0.000: // measure 1
0000
0000
0000
0000
,  // measure 2
0000
0000
0000
0000
0000
0110
0000
0000
,  // measure 3
0000
0000
0000
0000
0000
0000
0000
0100
,  // measure 4
0000
1000
0000
0010
0000
0100
0000
0001
,  // measure 5
0000
1000
0000
0001
0000
0100
0000
0000
,  // measure 6
0000
0001
0000
1000
0000
0100
0000
0000
,  // measure 7
0000
0010
0000
0100
0000
1000
0000
0002
,  // measure 8
0000
0000
0000
0000
0000
0000
0000
0000
0000
0003
0000
0000
0101
0000
0000
0000
,  // measure 9
0000
1000
0000
0000
0100
0000
1100
0000
,  // measure 10
0000
0001
0000
0000
0100
0000
0110
0000
,  // measure 11
0000
1000
0000
0000
0001
0000
0100
0000
,  // measure 12
0001
1000
0100
1010
,  // measure 13
0000
0001
0000
0000
0010
0000
0011
0000
,  // measure 14
0000
1000
0000
0000
0010
0000
0110
0000
,  // measure 15
0000
0001
0000
0000
1000
0000
0100
0000
,  // measure 16
1000
0001
0100
0011
,  // measure 17
0000
0002
0000
1003
,  // measure 18
0001
0100
0010
2000
,  // measure 19
0000
0000
0000
3000
0001
0000
0100
0000
,  // measure 20
0001
1000
0100
0010
,  // measure 21
0001
2000
3000
0001
,  // measure 22
0000
0100
0000
0010
,  // measure 23
1000
0100
0010
0001
,  // measure 24
1000
0001
0100
0110
,  // measure 25
0010
0100
0001
0002
,  // measure 26
1003
0100
0010
0002
,  // measure 27
1003
0001
0100
0020
,  // measure 28
1030
0100
0010
1001
,  // measure 29
0010
0100
1000
2000
,  // measure 30
3001
0100
0010
2000
,  // measure 31
3001
1000
0100
0020
,  // measure 32
0031
0101
1010
0101
,  // measure 33
0100
0010
1000
0200
,  // measure 34
0310
0100
1000
0020
,  // measure 35
0031
0010
1000
0200
,  // measure 36
0301
0100
1000
1100
,  // measure 37
0100
0010
0001
0200
,  // measure 38
0310
0100
0001
0020
,  // measure 39
1030
0010
0001
0200
,  // measure 40
1300
0010
0001
0000
;

//---------------dance-single - Heavy----------------
#NOTES:
     dance-single:
     Heavy:
     Hard:
     8:
     0.560,0.475,0.337,0.084,0.127:
0000
0000
0000
0000
,
0000
0000
0000
0000
0000
0110
0000
0000
,
1000
0000
0001
0000
1000
0000
0001
0000
1000
0000
0000
0000
0100
0000
0000
0000
0000
0000
0000
0000
0000
1000
0000
0000
,
0010
0100
0001
0100
0010
1000
0100
0110
,
0000
0010
0000
0000
0001
0000
0000
0001
0100
0000
0010
0000
1000
0000
0010
0000
,
0000
0010
0000
0000
1000
0000
0000
1000
0100
0000
0010
0000
0001
0000
0010
0000
,
0000
0000
0001
0100
0000
0001
1000
0000
0100
0000
1100
0000
0000
0000
0100
0000
,
0000
0000
0010
0000
0000
0000
2002
0000
0000
3003
0000
0000
1001
0000
0000
0100
,
0000
0000
0101
0000
0000
0000
1000
0000
1001
0000
0000
0000
1001
0000
0000
0100
,
0000
0000
1100
0000
0000
0000
0001
0000
1001
0000
0000
0000
1010
0000
0000
0100
,
0000
0101
0000
0010
0110
0000
1000
0100
,
0001
0000
0100
0000
1000
0000
0100
0000
0010
0000
0001
0000
0011
0000
0000
0100
,
0000
0000
1001
0000
0000
0000
1000
0000
1100
0000
0000
0000
1010
0000
0000
0100
,
0000
0000
1001
0000
0000
0000
0001
0000
0101
0000
0000
0000
1010
0000
0000
0001
,
0000
1100
0000
0100
0110
0000
0001
0100
,
1000
0000
0100
0000
0001
0000
0100
0000
0010
0000
1000
0000
1100
0000
0000
0100
,
0000
0010
0002
0000
0000
1003
0010
0100
,
0001
0010
0001
0200
0000
0310
1000
0200
,
0000
0000
0000
0000
1300
0001
0100
0001
,
0010
0000
0100
0000
1000
0000
0001
0000
0010
0000
0001
0000
0100
0010
0100
0000
,
0010
0000
1000
0002
0000
0000
0000
0000
0003
0000
1000
0000
0100
0000
0001
0000
,
0000
1000
0010
0001
0000
1000
0100
0001
,
1000
0010
0001
1000
0010
0100
0001
1000
,
0001
0010
0100
1000
0010
0100
1001
0000
,
0001
0010
1000
0000
1000
0010
0001
0000
,
1000
0001
0100
0010
0100
0000
0001
0010
,
1000
0010
0001
1000
0100
0000
0010
0001
,
0100
0010
1000
0100
0010
0100
1000
0000
,
1000
0010
0001
0000
0001
0010
1000
0000
,
0001
1000
0100
0010
0100
0000
1000
0010
,
0001
0010
1000
0001
0100
0000
0010
1000
,
0100
0010
0001
0100
0010
0100
0001
0000
,
0100
0001
0010
0001
0100
0000
0100
0010
,
0001
0010
1000
0100
1000
0000
0001
0100
,
0010
1000
0100
0001
1000
0000
0001
0100
,
1000
0010
0100
0001
0010
0100
1000
0000
,
0100
1000
0010
1000
0100
0000
0100
0010
,
1000
0010
0001
0100
0010
0000
1000
0100
,
0010
0001
0100
1000
0001
0000
1000
0100
,
0001
0010
0100
1000
0010
0100
0001
0000
;

//---------------dance-single - ----------------
#NOTES:
     dance-single:
     :
     Challenge:
     9:
     0.675,0.615,0.576,0.084,0.288:
0000
0000
0000
0000
,
0000
0000
0000
0000
0000
1001
0000
0000
,
0010
0000
0100
0000
0010
0000
0100
0000
0010
0000
0000
0000
0100
0000
0000
0000
0000
0000
0000
0000
0000
1000
0000
0000
,
0100
0010
0001
0100
0010
1000
0001
0010
,
0000
0100
0000
0000
0010
0000
0000
0001
0100
0000
1000
0000
0100
0000
0010
0000
,
0000
0100
0000
0000
0010
0000
0000
1000
0100
0000
0001
0000
0100
0000
0010
0000
,
0000
0000
0001
0100
0000
0010
1000
0000
0001
0000
0110
0000
0000
0000
0011
0000
,
0000
0000
1100
0000
0000
0000
2002
0000
0000
3003
0000
0000
1001
0000
0000
0011
,
0000
0000
0101
0000
0000
0000
1100
0000
0110
0000
0000
0000
1001
0000
0000
1010
,
0000
0000
1100
0000
0000
0000
0101
0000
0110
0000
0000
0000
1001
0000
0000
0101
,
0000
1100
0000
0110
1001
0000
0110
0100
,
1000
0000
0010
0000
0100
0000
0001
0000
0010
0000
1000
0000
0011
0000
0000
1001
,
0000
0000
1100
0000
0000
0000
0101
0000
1010
0000
0000
0000
1010
0000
0000
1001
,
0000
0000
0101
0000
0000
0000
1100
0000
0011
0000
0000
0000
0110
0000
0000
1001
,
0000
0110
0000
1001
0110
0000
0110
0100
,
0001
0000
0010
0000
0100
0000
1000
0000
0010
0000
0001
0000
1010
0000
0000
0100
,
0000
0001
1000
0001
0020
0000
0000
0000
0000
0000
0130
0000
1000
0000
0001
0000
,
0100
0000
0001
0000
1000
0000
0020
0000
0000
0000
0130
0000
0001
0010
0200
0000
,
0000
0000
0000
0310
0001
0100
0010
1000
,
0001
0000
0100
0000
1000
0000
0100
0000
0001
0000
1000
0000
0010
1000
0100
0000
,
0001
0000
0100
2000
0000
0000
0000
0000
3000
0000
0001
0000
0100
0000
1000
0000
,
0000
0000
1000
0000
0010
0000
0001
0000
0000
0000
0001
0000
1000
0010
1000
0000
,
0010
0100
0010
0000
0100
0001
0100
0000
0001
1000
0001
0000
0010
0000
0100
0000
,
0010
1000
0010
0100
0010
0001
0101
0001
,
1000
0010
1000
0001
0100
1000
0100
0001
,
0010
0001
0100
0010
0001
1000
0001
0010
,
0100
0000
0001
0000
1000
0000
0100
0000
0010
0000
0001
0000
1000
0010
1000
0010
,
1000
0000
0001
0010
0001
0010
0001
0000
0100
0010
1000
0000
0001
0000
0010
0000
,
0100
1000
0001
1000
0010
0001
0010
0100
,
0001
0010
0100
1000
0100
0001
1000
0010
,
0001
0010
0100
1000
0001
0100
0010
0100
,
0001
0000
1000
0000
0100
0000
0010
0001
0100
0000
0000
0000
1100
0000
1000
0000
,
0001
0010
0001
1000
0100
0001
0100
1000
,
0010
1000
0100
0010
1000
0001
1000
0010
,
0100
0000
1000
0000
0001
0000
0100
0000
0010
0000
1000
0000
0001
0010
0001
0010
,
0001
0000
0100
0010
0000
0100
0010
0000
1000
0010
1000
0010
1000
0000
0010
0000
,
0100
0001
0010
1000
0100
0001
0010
0100
,
1000
0100
0001
0100
0010
1000
0010
0001
,
0100
0000
1000
0000
0010
0000
0001
0000
1000
0000
0010
0000
0100
0010
1000
0010
,
0100
0000
0010
0100
0001
0100
0010
0000
1000
0000
0001
0000
1001
0000
0000
0000
;

//---------------dance-single - ----------------
#NOTES:
     dance-single:
     :
     Beginner:
     2:
     0.167,0.168,0.042,0.000,0.000:
0000
0000
0000
0000
,
0000
0000
0000
0000
,
0000
0000
0000
0000
0000
0000
0000
0100
,
0000
0100
0000
0100
0000
0100
0000
0100
,
0000
0000
0000
0010
0000
0000
0000
0001
,
0000
0000
0000
1000
0000
0000
0000
0010
,
0000
0000
0000
0100
0000
0000
0000
1001
,
0000
0000
0000
0001
,
0000
1000
0000
0001
,
0000
0100
0000
0001
,
0000
1000
0000
0100
,
0000
0010
0000
0110
,
0000
0001
0000
1000
,
0000
0100
0000
1000
,
0000
0001
0000
0100
,
0000
0010
0000
0110
,
0000
0100
0000
0010
,
0000
1000
0000
0001
,
0000
0000
0000
1000
,
0000
0000
0000
0001
,
0000
0100
0000
0001
,
0000
1000
0000
0001
,
0000
0010
0000
0100
,
0100
0100
0100
0100
,
0000
1000
0000
0100
,
0000
0010
0000
0001
,
0000
0100
0000
0010
,
0000
1000
1000
1000
,
0000
0010
0000
0001
,
0000
0010
0000
1000
,
0000
0100
0000
0010
,
0000
0001
0001
0001
,
0000
0001
0000
0100
,
0000
0010
0000
1000
,
0000
0100
0000
0010
,
0000
0001
0001
0001
,
0000
0010
0000
1000
,
0000
0010
0000
0001
,
0000
0100
0000
0010
,
0000
1000
1000
1000
;

//---------------dance-single - Standard----------------
#NOTES:
     dance-single:
     Standard:
     Medium:
     6:
     0.456,0.389,0.436,0.070,0.028:
0000
0000
0000
0000
,
0000
0000
0000
0000
0000
1001
0000
0000
,
0000
0000
0000
0000
0000
0000
0000
0010
,
0100
0010
0100
0010
0100
0010
0000
1000
,
0000
1000
0000
0000
1000
0000
0000
1000
0000
0000
0100
0000
0000
0000
0001
0000
,
0000
0001
0000
0000
0001
0000
0000
0001
0000
0000
0100
0000
0000
0000
1000
0000
,
0000
1100
0000
0011
0000
0110
0000
1000
,
0000
0000
0001
0000
0000
0000
0200
0000
0000
0300
0000
0000
1010
0000
0000
0000
,
1000
0100
0000
0100
0010
0000
0011
0000
,
0001
0100
0000
0100
0010
0000
0110
0000
,
0010
1000
0000
1000
0001
0000
0101
0000
,
0001
1000
0000
1000
0100
0010
0001
0000
,
0001
0100
0000
0100
0010
0000
1010
0000
,
1000
0100
0000
0100
0010
0000
0110
0000
,
0010
0001
0000
0001
1000
0000
1100
0000
,
1000
0001
0000
0001
0100
0010
1000
0000
,
0010
0000
0200
0000
0000
0301
0010
0000
,
0001
0000
0100
0002
0000
1003
0100
0020
,
0000
0000
0000
0000
0031
0100
0010
0000
,
1000
0000
0100
0000
0010
0000
0001
1000
,
0100
1000
0002
0000
0103
0000
0100
0010
,
1000
0000
0100
0010
0001
0000
0100
0000
,
0100
0000
0010
0000
0010
0000
1000
0100
,
0010
0001
1000
0001
0010
0100
1000
0000
,
1000
0010
1000
0000
1001
0000
0011
0000
,
0010
0100
1100
1001
,
0001
0100
0001
0000
0011
0000
0010
0100
,
1000
0000
0010
0100
0001
0000
0101
0000
,
0001
0010
0001
0000
1001
0000
1010
0000
,
0010
0000
0100
0000
0101
0000
0100
0001
,
0010
0000
0100
1000
0010
0000
0100
0000
,
0110
0000
1000
0001
1000
0000
0101
0000
,
0100
0001
0010
0000
1100
0000
0011
0000
,
0010
0001
0101
1010
,
0010
1000
0001
1000
0010
0000
0010
0100
,
0001
0000
0010
0100
1000
0000
1100
0000
,
0100
1000
0010
0000
0101
0000
1010
0000
,
0010
1000
1100
0011
,
0010
0001
1000
0001
0010
0000
0010
0001
,
0100
0010
1000
0100
0010
0000
0000
0000
;
