#TITLE:MEI;
#SUBTITLE:;
#ARTIST:AMURO vs KILLER;
#TITLETRANSLIT:;
#SUBTITLETRANSLIT:;
#ARTISTTRANSLIT:;
#CREDIT:Kewing Darksun;
#BANNER:Mei.png;
#BACKGROUND:Mei-bg.png;
#LYRICSPATH:;
#CDTITLE:!Kewing DarkSun v2 (cdtitle).png.png;
#MUSIC:Mei.ogg;
#OFFSET:-0.219;
#SAMPLESTART:41.020;
#SAMPLELENGTH:9.600;
#SELECTABLE:YES;
#BPMS:0.000=200.000,200.000=100.000,216.000=110.000,220.000=120.000,224.000=130.000,228.000=140.000,232.000=149.999,236.000=159.999,240.000=169.999,244.000=179.999,248.000=189.999,256.000=199.999,370.000=179.999,372.000=174.999,376.000=164.999,378.000=139.999,379.000=109.999,380.000=99.999,381.000=89.999,382.000=65.999;
#STOPS:;
#BGCHANGES:1.000=Mei-bga.mpg=1.000=1=0=0
,384.000=Mei-bg.png=1.000=1=0=0
;

//---------------dance-single - ----------------
#NOTES:
     dance-single:
     :
     Hard:
     9:
     0.637,0.770,0.300,0.022,0.164: // measure 1
0000
0000
0000
0000
,  // measure 2
0000
0000
0000
0000
,  // measure 3
0000
0000
0000
0000
,  // measure 4
0000
0000
0000
0000
,  // measure 5
0000
0000
0000
0000
,  // measure 6
0000
0000
0000
0000
0000
0000
1000
0001
,  // measure 7
1000
0000
0001
0010
0000
0010
0100
0000
,  // measure 8
0000
0110
0000
0000
0000
0000
0001
1000
,  // measure 9
0001
0000
1000
0010
0000
0010
0100
0000
,  // measure 10
0000
0110
0000
0000
0000
0000
0000
0000
,  // measure 11
1000
0100
1000
0000
0100
0010
0100
0000
,  // measure 12
0010
0001
0010
0000
0100
0000
0100
0000
,  // measure 13
1000
0100
1000
0001
0000
0001
0100
0000
,  // measure 14
0001
1000
0100
1000
0100
1000
0001
0000
,  // measure 15
0001
0100
0001
0000
0100
0010
0100
0000
,  // measure 16
0010
1000
0010
0000
0100
0000
0100
0000
,  // measure 17
0001
0100
0001
1000
0000
1000
0100
0000
,  // measure 18
0000
0020
0000
0000
0000
0000
0030
0000
,  // measure 19
1100
0000
1000
0001
0000
0100
0010
0000
,  // measure 20
1010
0000
0010
1000
0000
0001
0100
0000
,  // measure 21
0101
0000
0001
0010
0000
0100
1000
0000
,  // measure 22
1001
0000
0010
0100
0001
1000
0010
0100
,  // measure 23
0101
0000
0001
1000
0000
0100
0010
0000
,  // measure 24
0011
0000
0010
0001
0000
1000
0100
0000
,  // measure 25
1100
0000
1000
0010
0000
0100
0001
0000
,  // measure 26
1001
0000
0010
0100
1000
0001
0010
0100
,  // measure 27
1100
0000
0010
0100
0001
0100
0010
0000
,  // measure 28
0110
0000
1000
0010
0100
0010
1000
0000
,  // measure 29
1010
0000
0010
0100
1000
0100
0010
0000
,  // measure 30
0110
0000
0100
0001
0010
0100
1000
0010
,  // measure 31
0110
0000
0010
0100
1000
0100
0010
0000
,  // measure 32
0110
0000
0001
0010
0100
0010
0001
0000
,  // measure 33
0011
0000
0010
0100
0001
0100
0010
0000
,  // measure 34
1001
0000
0000
0000
,  // measure 35
0001
0010
0001
0100
0001
1000
0001
0010
,  // measure 36
0001
0100
0001
1000
0001
0010
0001
0100
,  // measure 37
0010
1000
0001
0010
0100
1000
0001
0100
,  // measure 38
0010
1000
0010
0100
0001
1000
0100
0000
,  // measure 39
0100
0010
0001
1000
0001
0100
0001
0010
,  // measure 40
0001
0100
0001
1000
0001
0010
0100
0000
,  // measure 41
1000
0000
0000
0010
0000
0000
0010
0000
0000
0000
0100
0000
0010
0000
1000
0000
,  // measure 42
0100
0010
0001
1000
0010
0100
0001
0010
,  // measure 43
0100
0000
1000
0010
0100
0000
0001
0010
,  // measure 44
0100
0000
1000
0010
0100
0001
0100
0010
,  // measure 45
1000
0000
0001
0010
0100
1000
0010
0001
,  // measure 46
0010
1000
0100
0010
0001
0100
0001
1000
,  // measure 47
0100
0000
0010
0000
0001
0100
0001
1000
,  // measure 48
0001
0100
0001
1000
0001
0100
1000
0100
,  // measure 49
0010
1000
0001
0010
0100
1000
0010
1000
,  // measure 50
0001
1000
0010
1000
0001
0010
0100
1000
,  // measure 51
0001
0000
0000
1000
0000
0100
0010
0000
0100
0010
0000
0001
0000
0000
1000
0000
,  // measure 52
0001
0000
0000
0010
0000
0001
1000
0000
0001
1000
0000
0001
0000
0100
0000
0000
,  // measure 53
0001
0000
0000
0001
0000
0100
0010
0000
0100
0010
0000
1000
0000
0000
0001
0000
,  // measure 54
1000
0000
0000
0010
0000
1000
0001
0000
1000
0001
0000
1000
0000
0000
0100
0000
,  // measure 55
1001
0000
0000
0001
0000
0001
0100
0000
0001
0010
0000
0001
0000
0000
1000
0000
,  // measure 56
1001
0000
0000
0001
0000
0001
0010
0000
0001
0100
0000
0001
0000
0000
1000
0000
,  // measure 57
1001
0000
0000
1000
0000
1000
0010
0000
1000
0100
0000
1000
0000
0000
0001
0000
,  // measure 58
1001
0000
0000
1000
0000
1000
0100
0000
1000
0010
0000
1000
0000
0000
0001
0000
,  // measure 59
1001
0000
0000
1000
0000
0100
0010
0000
0110
0000
0000
0001
0000
0100
0010
0000
,  // measure 60
0110
0000
0000
0100
0000
0010
1000
0000
1001
0000
0000
0100
0000
0010
0001
0000
,  // measure 61
1001
0100
0000
0110
0100
0101
0000
0010
,  // measure 62
1001
0011
1100
1001
,  // measure 63
0110
0100
0001
1000
0100
0010
0001
0100
,  // measure 64
0220
0000
0000
0000
,  // measure 65
0330
0000
0000
0000
,  // measure 66
0110
0000
0100
0010
0100
0000
0001
1000
,  // measure 67
0001
0100
0010
1000
0100
0010
0001
1000
,  // measure 68
0001
0000
0100
0001
1000
0001
0000
0010
,  // measure 69
0001
0100
0010
0100
1000
0100
0010
0100
,  // measure 70
0001
0010
0100
1000
0001
0000
1000
0000
,  // measure 71
0100
0000
0010
0001
1000
0001
1000
0000
,  // measure 72
0001
1000
0010
0100
0001
0010
0100
0010
,  // measure 73
0001
1000
0010
0100
0010
1000
0100
0010
,  // measure 74
0001
0000
0001
0010
0001
1000
0001
0100
,  // measure 75
0000
0100
1000
0100
0010
0100
0001
1000
,  // measure 76
0100
0000
1000
0010
1000
0001
1000
0100
,  // measure 77
0000
0100
0001
0100
0010
0100
1000
0001
,  // measure 78
0100
0000
0010
0000
1000
0100
0010
0001
,  // measure 79
0000
0001
0100
0000
0110
0000
0010
0000
,  // measure 80
0100
0010
1000
0010
0100
0001
1000
0001
,  // measure 81
0010
0000
0010
0100
0110
0000
1001
0000
,  // measure 82
0001
0100
0010
1000
0001
0100
0010
1000
,  // measure 83
0001
0100
1000
0100
0001
0010
0100
1000
,  // measure 84
0010
0100
0000
0001
0100
0010
0000
1000
,  // measure 85
0010
0100
0001
0000
1000
0000
0100
0010
,  // measure 86
0100
0000
1000
0000
0010
0100
0001
1000
,  // measure 87
0000
0000
0000
0100
0000
0000
0010
0000
0000
0000
0000
0000
0001
0000
0000
0000
0010
0000
0000
0000
0100
0000
0000
0000
,  // measure 88
1000
0000
0010
1000
0001
0100
0000
0000
,  // measure 89
0101
0000
1000
0000
1100
0000
0100
1000
,  // measure 90
0001
0100
0001
0010
0001
1000
0001
0100
,  // measure 91
0001
0010
0001
1000
0001
0100
0001
0000
,  // measure 92
1000
0100
1000
0010
1000
0001
1000
0100
,  // measure 93
1000
0010
1000
0001
1000
0100
1000
0000
,  // measure 94
0100
0010
0001
0100
1000
0100
0010
0100
,  // measure 95
0001
0000
0000
0000
0000
0000
0000
0000
0001
0000
0000
0000
0000
0010
0000
0000
,  // measure 96
0001
0000
0100
0010
1000
0100
0001
0000
;

//---------------dance-double - ----------------
#NOTES:
     dance-double:
     :
     Hard:
     9:
     0.631,0.633,0.409,0.029,0.062:
00000000
00000000
00000000
00000000
,
00000000
00000000
00000000
00000000
00000000
00000000
00010000
00001000
,
00010000
00001000
00000000
00001000
00100000
00000000
00010000
00000000
,
00100000
00000000
00101000
00000000
00000000
00000000
00001000
00010000
,
00001000
00010000
00000000
00010000
00000010
00000000
00001000
00000000
,
00000010
00000000
00010010
00000000
00000000
00000000
00010000
00001000
,
00100000
00001000
00000000
00010000
00000000
00001000
01000000
00000000
,
00001000
00000000
00011000
00000000
00000000
00000000
00001000
00010000
,
00000010
00010000
00000000
00001000
00000000
00010000
00000100
00000000
,
00010000
00011000
00000000
00001000
,
00000100
00000010
00001000
00000000
00000010
00001000
00000001
00000000
,
00001000
00000001
00000010
00000000
00000001
00000000
00000010
00000000
,
00000010
00000100
00001000
00000000
00000100
00001000
00000010
00000000
,
00001000
00000100
00010000
00000000
00010000
00000000
00010000
00000000
,
01000000
00100000
00010000
00000000
00100000
00010000
10000000
00000000
,
00010000
10000000
00100000
00000000
10000000
00000000
00100000
00000000
,
00100000
01000000
00010000
00000000
00010000
10000000
00100000
00000000
,
02000000
00000000
00000000
03000000
,
01010000
00000000
00010000
01000000
00000000
01000000
00100000
00000000
,
01100000
00000000
00100000
10000000
00000000
10000000
00010000
00000000
,
10010000
00000000
10000000
01000000
00000000
01000000
00100000
00000000
,
00110000
00000000
00001000
00001000
00010000
00000100
00001000
00000100
,
00001100
00000000
00001000
00000100
00000000
00000100
00000010
00000000
,
00000110
00000000
00000010
00000001
00000000
00000001
00001000
00000000
,
00001001
00000000
00000001
00000100
00000000
00000100
00000010
00000000
,
00001010
00000000
00010000
00010000
00001000
01000000
00010000
01000000
,
01001000
00000000
00001000
00010000
00000000
00000010
00001000
00000000
,
00001010
00000000
00000010
00001000
00000000
00000001
00000100
00000000
,
00001001
00000000
00001000
00000001
00000000
00000010
00000100
00000000
,
00000110
00000000
00000010
00000010
00000001
00001000
00000100
00000100
,
00010100
00000000
00010000
00001000
00000000
00100000
00010000
00000000
,
00110000
00000000
00100000
00010000
00000000
10000000
01000000
00000000
,
10010000
00000000
00010000
10000000
00000000
00100000
01000000
00000000
,
01100000
00000000
00000000
00000000
00010000
00100000
01000000
10000000
,
01000000
00100000
01000000
00010000
01000000
10000000
00010000
00000000
,
00010000
01000000
00100000
00010000
00001000
00000100
00000010
00000000
,
00000010
00001000
00000001
00000010
00000100
00000001
00000100
00000000
,
00000100
00001000
00000010
00000100
00001000
00000100
00000001
00000000
,
00000101
00000000
00000001
00000000
00001001
00000000
00000010
00001010
,
00000000
00010010
00000000
00001000
01000000
00010000
01010000
00000000
,
00010000
01000000
00100000
00000000
00100000
10000000
01000000
00000000
,
00100000
00001000
00010000
00000010
00001000
00000010
00000100
00000000
,
00000100
00000010
00000100
00001000
00000100
00000001
00001000
00000000
,
00001000
00000100
00000010
00001000
00010000
01000000
00100000
00000000
,
00100000
00010000
10000000
00100000
01000000
10000000
01000000
00000000
,
01000000
00010000
00100000
01000000
00010000
01000000
10000000
00000000
,
11000000
00000000
10000000
00000000
10010000
00000000
00100000
00110000
,
00000000
00101000
00000000
00010000
00000100
00001000
00001100
00000000
,
00001000
00000100
00000010
00000000
00000010
00000001
00000100
00000000
,
00000010
00010000
00001000
00100000
00010000
00100000
01000000
00000000
,
01000000
00000000
00000000
00100000
00000000
00000000
00010000
00000000
00000000
00100000
00000000
00000000
01000000
00000000
00010000
00000000
,
00001000
00000000
00000000
00000010
00000000
00000000
00000001
00000000
00000000
00001000
00000000
00000000
00001000
00000000
00000001
00000000
,
00000100
00000000
00000000
00000010
00000000
00000000
00001000
00000000
00000000
00000010
00000000
00000000
00000100
00000000
00001000
00000000
,
00010000
00000000
00000000
00100000
00000000
00000000
10000000
00000000
00000000
10000000
00000000
00000000
00010000
00000000
10000000
00000000
,
11000000
00000000
00000000
01000000
00000000
00000000
10000000
00000000
00000000
00010000
00000000
00000000
01000000
00000000
00010000
00000000
,
01010000
00000000
00000000
01000000
00000000
00000000
00001000
00000000
00000000
00010000
00000000
00000000
00000010
00000000
00001000
00000000
,
00000101
00000000
00000000
00000100
00000000
00000000
00000001
00000000
00000000
00001000
00000000
00000000
00000100
00000000
00001000
00000000
,
00001100
00000000
00000000
00000100
00000000
00000000
00010000
00000000
00000000
00001000
00000000
00000000
00100000
00000000
00010000
00000000
,
00110000
00000000
00001000
00010000
00011000
00000000
00010000
00001000
,
00011000
00000000
00000100
00010000
00011000
00000000
01000000
00001000
,
00010000
00011000
00000000
00010000
00001000
00011000
00000000
00011000
,
00011000
00011000
00011000
00011000
,
00010000
00001000
00010000
00001000
00010000
00001000
00010000
00001000
,
00010000
00001000
00010000
00001000
00010000
00001000
00010000
00001000
,
00022000
00000000
00000000
00033000
,
00011000
00000000
00001000
00010000
00000100
00000000
00000100
00001000
,
00000010
00000000
00000010
00000001
00000010
00001000
00000010
00000000
,
00000110
00000000
00000010
00000100
00000001
00000000
00000001
00000010
,
00001000
00000000
00001000
00010000
00000100
00010000
00001000
00000000
,
00011000
00000000
00010000
00001000
01000000
00000000
01000000
00010000
,
00100000
00000000
00100000
10000000
00100000
00010000
00100000
00000000
,
01100000
00000000
00100000
01000000
10000000
00000000
10000000
00100000
,
00010000
00000000
00010000
00001000
01000000
00001000
00010000
00000000
,
00010100
00000000
00000100
00001000
00000010
00001000
00000100
00010000
,
00001000
00000000
00001000
00100000
00010000
01000000
00100000
00000000
,
01001000
00000000
01000000
00010000
00100000
00010000
01000000
00001000
,
00010000
00000000
00010000
00000010
00001000
00000100
00000010
00000000
,
00000110
00000000
00000010
00000100
00000001
00000100
00001000
00000010
,
00000100
00001000
00010000
00001000
01000000
00000000
01010000
00000000
,
01100000
00000000
00100000
01000000
10000000
01000000
00010000
00100000
,
01000000
00010000
00001000
00010000
00000100
00000000
00001100
00000000
,
00001000
00000100
00000001
00000100
00001000
00000010
00000001
00000000
,
00000001
00000010
00001000
00000100
00010000
00001000
01000000
00000000
,
00010000
01000000
10000000
01000000
00010000
00100000
10000000
00000000
,
10000000
00100000
00010000
01000000
00001000
00010000
00000100
00000000
,
00001000
00000010
00000001
00000010
00001000
00000001
00000100
00000000
,
00000010
00001000
00000100
00010000
00001000
00100000
00010000
00000000
,
00010000
00100000
10000000
00100000
00010000
10000000
01000000
00010000
,
01000000
10000000
00010000
01000000
00001000
00010000
00000100
00001000
,
00000010
00000010
00000010
00000100
,
00000100
00000100
00000100
00001000
,
00001000
00001000
00001000
00010000
,
00010000
00010000
00010000
00010000
,
00100000
01000000
00100000
01000000
00010000
10000000
00100000
01000000
,
00100000
00000000
00000000
00000000
00000000
00000000
00000000
00000000
00100000
00000000
00000000
00000000
00000000
00010000
00000000
00000000
,
00001000
00000100
00000001
00001000
00000100
00000010
00000002
00000000
,
00000000
00000003
00000000
00000000
;

//---------------dance-single - ----------------
#NOTES:
     dance-single:
     :
     Medium:
     7:
     0.447,0.525,0.183,0.015,0.091:
0000
0000
0000
0000
,
0000
0000
0000
0000
,
0000
0000
0000
0000
,
0000
0000
0000
0000
,
0000
0000
0000
0000
,
0000
0000
0000
0100
,
1000
0000
0010
1000
0000
0000
0001
0000
,
0000
0000
0000
0100
,
0001
0000
0010
0001
0000
0000
1000
0000
,
0000
0000
0000
0000
,
1000
0001
1000
0100
,
1000
0001
0001
0000
,
1000
0100
0010
0001
,
1000
1000
1000
1000
,
0001
1000
0001
0100
,
0001
1000
1000
0000
,
0001
0100
0010
1000
,
0200
0000
0000
0300
,
1001
0000
0000
1000
0000
0100
1000
0000
,
0100
0000
0000
0010
0000
0100
0010
0000
,
0001
0000
0000
0010
0000
0001
0010
0000
,
0001
0000
0000
0100
0000
0010
1000
0001
,
1000
0000
0000
0001
0000
0100
0001
0000
,
0100
0000
0000
0010
0000
0100
0010
0000
,
0100
0000
0000
0010
0000
1000
0010
0000
,
1000
0000
0100
0010
0001
1000
0001
0000
,
1001
0000
1000
0001
0100
0000
0001
0000
,
0010
0011
0010
0011
,
0001
0000
1000
0001
0100
0000
0010
0000
,
1000
1010
0010
1010
,
1000
0000
0001
1000
0100
0000
1000
0000
,
0010
1010
0010
1010
,
1000
0000
0001
1000
0100
0000
0010
0000
,
1001
0000
0000
0000
,
0001
0001
0100
0100
,
0010
0000
0010
0000
1000
0000
1000
0100
,
1000
0100
0010
0001
,
0100
0000
0010
0000
0100
0000
0001
0010
,
0001
1000
0100
0010
,
0100
0000
1000
0000
0010
0000
0100
0001
,
1000
0000
0100
0000
0010
0001
1000
0000
,
0100
1000
0010
0100
,
1001
0000
1000
0100
0010
0000
0001
0010
,
0100
0000
1000
0100
0010
0000
0001
0000
,
1001
0000
1000
0001
0100
0000
0001
0000
,
1000
0000
0001
0010
0100
1000
0001
0100
,
0001
0100
0010
0100
,
1000
0100
0010
0100
,
0001
0010
0001
0010
0000
0100
1000
0000
,
1000
0010
1000
0010
0000
0100
0001
0000
,
1001
0000
0000
1000
0000
1000
0000
0000
0001
0000
0000
0100
0000
0000
0000
0000
,
0000
0000
0000
0001
0000
0001
0000
0000
1000
0000
0000
0100
0000
0000
0000
0000
,
0000
0000
0000
0010
0000
0010
0000
0000
0001
0000
0000
0100
0000
0000
0000
0000
,
0000
0000
0000
0010
0000
0010
0000
0000
1000
0000
0000
0100
0000
0000
0000
0000
,
1001
0000
0000
1000
0000
1000
0000
0000
0001
0000
0000
0100
0000
0000
0000
0000
,
1001
0000
0000
0001
0000
0001
0000
0000
1000
0000
0000
0100
0000
0000
0000
0000
,
0110
0000
0000
0010
0000
0001
0000
0000
0001
0000
0000
0100
0000
0000
0000
0000
,
1010
0000
0000
0010
0000
1000
0000
0000
1000
0000
0000
0100
0000
0000
0000
0000
,
0011
0000
0000
0001
0100
0000
0000
0100
,
0010
0000
0000
0010
1000
0000
0000
1000
,
0100
0010
0000
0001
0100
0010
0000
1000
,
0100
0011
1100
0011
,
0001
0100
0010
1000
0001
0100
0010
1000
,
0002
0000
0000
0000
,
0003
0000
0000
0000
,
1001
0000
0001
0010
0100
0000
1000
0010
,
0100
0000
0001
0000
1000
0000
0100
0010
,
0001
0000
0001
0010
0001
1000
0000
1000
,
0001
0010
0001
0000
0010
0000
0100
0000
,
1000
0000
0010
0100
0010
0000
0100
0000
,
0010
0000
1000
0001
1000
0001
1000
0000
,
0001
0010
1000
0100
,
0001
0010
1000
0100
,
0110
0000
0000
1000
0100
0010
0100
1000
,
0000
0000
0000
0001
0100
0010
0100
0001
,
0000
0000
0000
0010
0001
0100
0001
0010
,
0000
0000
0000
0100
1000
0010
1000
0100
,
0010
0000
0001
0000
0001
0010
0100
1000
,
0000
0010
1000
0100
,
1000
0001
1000
0000
0010
0000
0100
0001
,
1000
0000
0100
1000
0001
0000
0000
0000
,
0101
0000
0000
0110
0000
0000
1010
0000
,
0000
0010
1000
0000
0100
0000
0010
0000
,
0001
1000
0000
0000
0010
0100
0000
0010
,
1000
0001
0010
0000
0100
0000
1000
0001
,
1000
0000
0100
0000
1000
0010
0100
0001
,
0000
0000
0001
0000
0010
0000
0001
1000
,
0001
0000
1000
0100
0010
0100
0000
0000
,
1000
0000
0001
0000
,
1000
0010
0010
0100
,
0010
0000
1000
0010
0100
0010
1000
0000
,
0001
0010
0010
0100
,
0010
0000
0001
0010
0100
0010
0001
0000
,
1000
0010
0100
0001
1000
0100
0010
0001
,
1000
0000
0000
0000
0000
0000
0000
0000
0001
0000
0000
0000
0000
1000
0000
0000
,
0010
0000
0100
0001
1000
0100
0001
0000
;

//---------------dance-single - ----------------
#NOTES:
     dance-single:
     :
     Easy:
     5:
     0.332,0.490,0.322,0.022,0.004:
0000
0000
0000
0000
,
0000
0000
0000
0000
,
0000
0000
0000
0000
,
0000
0000
0000
0000
,
0000
0000
0000
0000
,
0000
0000
0000
1000
,
0010
1000
0000
0100
,
0000
0000
0000
0001
,
0010
0001
0000
0100
,
0000
0000
0000
0000
,
0001
0000
0100
0000
,
0010
1000
0010
0000
,
0100
0000
0001
0000
,
1000
0001
0100
0001
,
1000
0000
0001
0000
,
0010
0001
0010
0000
,
0100
0000
1000
0000
,
0020
0000
0000
0030
,
1001
0000
0100
0000
,
1010
0000
0100
0000
,
0011
0000
0100
0000
,
1010
1000
0010
0100
,
1001
0000
0100
0000
,
0011
0000
0100
0000
,
1010
0000
0100
0000
,
0011
0001
0010
0100
,
1001
0000
0001
0010
,
0101
0000
1000
0010
,
1100
0000
0001
0010
,
1100
1000
0010
0100
,
1001
0000
0001
0100
,
0011
0000
1000
0100
,
1010
0000
0100
0010
,
1001
0000
0000
0000
,
0001
0001
1000
1000
,
0001
0001
1000
1000
,
0010
1000
0100
0010
,
0100
1000
0001
0000
,
0001
1000
0001
0100
,
0001
0010
0100
0000
,
0010
0001
0100
0010
,
0100
0001
1000
0100
,
1100
0000
0011
0000
,
1100
0000
1000
0010
,
0110
0000
0010
0100
,
0001
1000
0100
0010
,
0011
0000
1000
1000
,
1000
0001
0001
0001
,
0100
0010
1000
0100
,
0001
0100
1000
0001
,
1001
1000
0001
0100
,
0000
1000
0010
0001
,
0000
0001
1000
0100
,
0000
0001
0010
1000
,
1010
1000
0100
0000
,
1100
0100
0010
0000
,
0110
0010
0001
0000
,
0011
0001
0100
0000
,
0101
0000
1010
0000
,
1010
0000
0101
0000
,
0110
0000
1001
0000
,
1100
0011
1100
0011
,
1001
0110
1001
0110
,
2002
0000
0000
0000
,
3003
0000
0000
0000
,
0110
1000
1000
0001
,
0001
0100
1000
0100
,
0001
0000
1000
0100
,
0010
0001
1000
0100
,
0001
0100
1000
0000
,
0000
0001
1000
0001
,
0100
0010
1000
0100
,
0001
0100
1000
0001
,
1001
0000
0001
1000
,
0100
0000
1000
0001
,
0100
0000
0001
0010
,
1000
0000
1000
0100
,
0001
0010
0001
1000
,
0001
0000
1000
0000
,
0010
0100
0001
0010
,
0100
0000
1001
0000
,
1000
0010
0100
0001
,
0010
1000
0010
0001
,
1000
0000
0010
0000
,
1000
0100
0010
0001
,
1000
0000
0001
0100
,
0010
0000
1000
0001
,
0100
0001
0010
0100
,
1000
0000
0001
0000
,
1000
0100
0100
1000
,
0100
0100
0010
0000
,
0001
0100
0100
0001
,
0100
0100
0010
0000
,
1000
0100
0001
0100
,
0010
0000
0000
0000
0000
0000
0000
0000
0001
0000
0000
0000
0000
0100
0000
0000
,
0010
1000
0100
0001
;

//---------------dance-single - ----------------
#NOTES:
     dance-single:
     :
     Beginner:
     4:
     0.252,0.385,0.292,0.000,0.000:
0000
0000
0000
0000
,
0000
0000
0000
0000
,
0000
0000
0000
0000
,
0000
0000
0000
0000
,
0000
0000
0000
0000
,
0000
0000
0000
0000
,
1000
0000
1000
0000
,
0000
0000
0000
0000
,
0001
0000
0001
0000
,
0000
0000
0000
0000
,
1000
0000
0001
0000
,
0100
0100
0100
0000
,
0001
0000
1000
0000
,
0100
0100
0100
0100
,
0100
0000
0010
0000
,
0001
0000
1000
0000
,
0010
0000
0100
0000
,
0001
0000
0000
0000
,
1001
0000
0001
0000
,
0010
0000
1000
0000
,
0010
0000
0100
0000
,
0010
0010
0010
0000
,
1001
0000
1000
0000
,
0010
0000
0001
0000
,
0010
0000
0100
0000
,
0010
0010
0010
0000
,
1001
0000
1000
0000
,
1001
0000
0100
0000
,
1001
0000
0010
0000
,
1001
0000
0001
0000
,
0110
0000
0010
0000
,
0110
0000
1000
0000
,
0110
0000
0010
0000
,
1001
0000
0000
0000
,
0001
0001
0001
0000
,
1000
0000
0010
0000
,
0001
0001
0001
0000
,
0010
0000
1000
0000
,
1000
1000
1000
0000
,
0001
0000
0010
0000
,
1000
1000
1000
0000
,
0001
0001
0001
0000
,
0110
0000
0110
0000
,
0110
0000
0100
0100
,
0100
0000
0001
0000
,
1000
1000
1000
1000
,
1000
0000
0100
0000
,
0010
0000
0001
0000
,
0100
0100
0100
0000
,
0010
0010
0010
0000
,
1001
0000
1000
0000
,
0000
0000
0100
0000
,
0000
0000
0001
0000
,
0000
0000
1000
0000
,
1001
0000
0000
0000
,
0110
0000
0000
0000
,
1001
0000
0000
0000
,
0110
0000
0000
0000
,
1001
0000
1001
0000
,
0110
0000
0110
0000
,
1001
0000
0110
0000
,
1001
0001
0001
0001
,
1001
1001
1001
1001
,
1001
0000
0000
0000
,
0000
0000
0000
0000
,
1001
0000
0110
0000
,
0001
0001
0010
0000
,
0100
0000
1000
0000
,
0001
0001
0100
0000
,
0010
0000
1000
0000
,
0010
0010
0100
0000
,
0001
0000
1000
0000
,
0100
0000
0010
0000
,
1001
0000
0001
0001
,
0100
0000
0010
0010
,
1000
0000
0100
0100
,
0010
0000
0001
0001
,
1000
0000
0001
0000
,
1001
0000
0100
0000
,
0010
0010
0010
0010
,
0010
0000
0110
0000
,
1001
0000
1001
0000
,
1001
0000
0001
0000
,
0010
0000
0100
0000
,
1000
1000
0001
0000
,
1001
0000
0010
0010
,
0100
0000
0001
0000
,
1000
0000
0100
0100
,
0010
0000
1001
0000
,
1000
1000
0010
0000
,
1000
1000
0100
0000
,
0001
0001
0010
0000
,
0001
0001
0100
0000
,
0100
0000
0010
0000
,
1000
0000
0100
0000
,
0001
0001
0001
0001
;
