#TITLE:MOMOTARO;
#SUBTITLE:;
#ARTIST:nuthacker;
#TITLETRANSLIT:;
#SUBTITLETRANSLIT:;
#ARTISTTRANSLIT:;
#CREDIT:Kewing;
#BANNER:MOMOTARO.png;
#BACKGROUND:MOMOTARO-bg.png;
#LYRICSPATH:;
#CDTITLE:!Kewing v3 (cdtitle).png;
#MUSIC:MOMOTARO.mp3;
#OFFSET:2.780;
#SAMPLESTART:18.713;
#SAMPLELENGTH:14.780;
#SELECTABLE:YES;
#BPMS:0.000=128.000;
#STOPS:;
#BGCHANGES:0.000=MOMOTARO.avi=1.000=1=0=1
,290.000=MOMOTARO-bg.png=1.000=1=0=1
;

//---------------dance-single - ----------------
#NOTES:
     dance-single:
     :
     Challenge:
     9:
     0.592,0.541,0.086,0.058,0.598:
0000
0000
0000
0000
,
0000
0000
0000
0000
,
0000
0000
0000
0000
,
0000
0000
0000
0000
1000
0100
0010
0100
,
1000
0001
0100
0010
0100
0000
0010
0000
,
1000
0001
1000
0000
0001
0100
0010
0100
,
0001
1000
0100
0010
0100
0000
0000
0000
,
0000
0000
0000
0000
0000
0000
0000
0000
0010
0000
0010
0001
0010
0000
0001
0000
,
0100
0001
0100
0000
0100
0000
0000
0000
0010
1000
0000
0001
0000
0000
1000
0000
,
0001
0000
0010
0100
0000
0000
0100
0010
0100
0000
0100
1000
0100
0000
1000
0000
,
0010
1000
0010
0000
0010
0000
0000
0000
0100
0001
0000
1000
0000
0000
1000
0000
,
0001
0000
0100
0010
0100
0010
0100
0000
0010
0000
0010
1000
0010
0000
1000
0000
,
0100
1000
0100
0000
0100
0000
0000
0000
0010
0001
0000
1000
0000
0000
0001
0000
,
1000
0000
0010
0100
0000
0000
0100
0010
0100
0000
0100
0001
0100
0000
0001
0000
,
0010
0001
0010
0000
0010
0000
0000
0000
0100
1000
0000
0001
0000
0000
0001
0000
,
1000
0000
0010
0100
0010
0100
0010
0000
0100
0000
0010
1000
0000
1000
0010
0000
,
0100
0000
0001
0010
0000
0010
0001
0000
0010
0000
0100
0000
1000
0000
0020
0000
,
0000
0000
0130
0000
0000
0000
0010
0000
0010
0000
0100
0001
0000
0001
0100
0000
,
0010
0000
1000
0100
0000
0100
1000
0000
0100
0000
0010
0000
0001
0000
0200
0000
,
0000
0000
0301
0000
1001
0000
0000
0000
0100
0000
0010
0001
0000
0001
0010
0000
,
0100
0000
1000
0010
0000
0010
1000
0000
0010
0000
0100
0000
0001
0000
0020
0000
,
0000
0000
0130
0000
0000
0000
0010
0000
0010
0000
0100
1000
0000
1000
0100
0000
,
0010
0000
0001
0100
0000
0100
0001
0000
0100
0000
0010
0000
1000
0000
0200
0000
,
0000
0000
1300
0000
1001
0000
0000
0000
0001
0000
0100
0000
0001
0010
0000
0010
,
0000
0100
0000
0000
0010
0000
0001
1000
0001
1000
0001
0000
0100
0000
0001
0010
,
0001
0000
0000
0000
1100
0000
0000
0000
1000
0000
0010
0000
1000
0100
0000
0010
,
0000
0010
0000
0000
0100
0000
1000
0001
1000
0001
1000
0000
0010
0000
0100
0001
,
0100
0000
0000
0010
0000
0000
0010
0000
1000
0000
0100
0000
1000
0010
0000
0010
,
0000
0100
0000
0000
0010
0000
1000
0001
1000
0001
1000
0000
0100
0000
1000
0010
,
1000
0000
0000
0000
0101
0000
0000
0000
0001
0000
0010
0000
0001
0100
0000
0010
,
0000
0010
0000
0000
0100
0000
0001
1000
0001
1000
0001
0000
0010
0000
0100
1000
,
0100
0000
0000
0000
0000
0000
0010
0000
0000
0000
0000
0000
0010
0000
0000
0000
0002
0000
0000
0000
0000
0000
0000
0000
0013
0000
0000
0000
0000
0100
0000
0000
,
1000
0000
0010
0000
0000
0100
0000
0000
0000
0000
0100
0000
1000
0000
0100
0000
,
0001
0000
0000
0000
0010
0000
0000
0000
0000
0000
0100
0000
0000
0000
0000
0000
2000
0000
0000
0000
0000
0000
0000
0000
3010
0000
0000
0000
0000
0100
0000
0000
,
0001
0000
0010
0000
0000
0100
0000
0000
0000
0000
0100
0000
0001
0000
0100
0000
,
1000
0000
0000
0000
0010
0000
0000
0000
0000
0000
0100
0000
0000
0000
0000
0000
0200
0000
0000
0000
0000
0000
0000
0000
0301
0000
0000
0000
0000
1000
0000
0000
,
0100
0001
0100
1000
0000
0001
0100
0001
,
0010
0000
0000
0000
1000
0000
0000
0000
0001
0000
0000
0000
0100
0000
0000
0000
2000
0000
0000
0000
0000
0000
0000
0000
3001
0000
0000
0000
0000
0001
0000
0000
,
0100
1000
0100
0001
0000
1000
0100
1000
,
0010
0001
1000
0100
0001
0010
0010
0100
,
0100
0000
1000
0000
1000
0000
0010
0000
0100
0001
0100
0000
0000
0000
0010
1000
,
0010
0000
0000
0000
0100
0001
0100
0000
0001
0000
0100
0000
0100
0000
1000
0000
,
1000
0000
0100
0000
0100
0000
0001
0000
0010
0001
0010
0000
0000
0000
0100
1000
,
0100
0000
0010
0001
1000
0001
1000
0000
1000
0000
0010
0000
0010
0000
0100
0000
,
0100
0000
0001
0000
0001
0000
0010
0000
0100
1000
0100
0000
0000
0000
0010
0001
,
0010
0000
0000
0000
0100
1000
0100
0000
1000
0000
0100
0000
0100
0000
0001
0000
,
0001
0000
0100
0000
0100
0000
1000
0000
0010
1000
0010
0000
0000
0000
0100
0001
,
0100
0000
0010
1000
0001
1000
0001
0000
1000
0000
0000
0010
0000
0000
0100
0000
,
0100
0000
0001
0000
0000
0001
0010
0100
0010
0000
0000
0000
0001
0000
0000
0100
,
0000
0000
0010
0000
0000
1000
0100
0010
0100
0000
0000
1000
0000
0000
0001
0000
,
0001
0000
0100
0000
0000
0010
1000
0100
1000
0000
0000
0010
0000
0000
0100
0000
,
0000
0000
0001
0000
0000
0100
0001
0010
0001
0000
0000
0010
0000
0000
0100
0000
,
0100
0000
1000
0000
0000
1000
0010
0100
0010
0000
0000
0000
1000
0000
0000
0100
,
0000
0000
0010
0000
0000
0001
0100
0010
0100
0000
0000
0001
0000
0000
1000
0000
,
1000
0000
0100
0000
0000
0010
0001
0100
0001
0000
0000
0010
0000
0000
0100
0000
,
0000
0000
1000
0000
0000
0100
1000
0010
1000
0000
0000
0010
0100
0010
0000
0000
,
0010
1000
0000
0100
0000
0000
0010
0000
0001
0000
0000
0010
0100
0010
0000
0000
,
0010
0001
0000
0100
0000
0000
0001
0000
1000
0000
0000
0100
0010
0100
0000
0000
,
1000
0010
0000
0100
0000
0000
0100
0000
0001
0000
0000
0100
0010
0100
0000
0000
,
0001
0010
0000
0100
0000
0100
1000
0001
1000
0000
0000
0100
0010
0100
0000
1000
,
0001
1000
0000
0100
0000
0000
0010
0000
0001
0000
0000
0100
0010
0100
0000
0001
,
1000
0001
0000
0100
0000
0000
0010
0000
1000
0000
0000
1000
0100
1000
0000
1000
,
0010
1000
0000
0100
0000
0000
0010
0000
0001
0000
0000
0001
0100
0001
0000
0001
,
0010
0001
0000
0100
0000
0100
0001
1000
0100
0000
0010
0000
0001
0000
1000
0000
,
0001
0000
0101
0000
0000
0000
0101
0000
0001
0000
0010
0100
0010
0000
0000
0000
,
0100
0000
1000
0010
0000
1000
0010
0000
0100
0000
0001
0000
0010
0000
0001
0000
,
1000
0000
1010
0000
0000
0000
1010
0000
1000
0000
0100
0010
0100
0000
0010
0100
,
1000
0000
0010
0100
0000
0010
0100
0000
0010
0000
0100
0000
0001
0000
1000
0000
,
0001
0000
0011
0000
0000
0000
0011
0000
0001
0000
0100
0010
0100
0000
0000
0000
,
0010
0000
1000
0100
0000
1000
0100
0000
0010
0000
0001
0000
0100
0000
0001
0000
,
1000
0000
1100
0000
0000
0000
1100
0000
1000
0000
0010
0100
0010
0000
0100
0010
,
1000
0000
0100
0010
0000
0100
0010
0000
0100
0000
0000
0000
0000
0000
0000
0000
;
