#TITLE:MAYBE;
#SUBTITLE:(MIKK REMIX);
#ARTIST:Phobic;
#TITLETRANSLIT:;
#SUBTITLETRANSLIT:;
#ARTISTTRANSLIT:;
#CREDIT:Kewing;
#BANNER:Maybe (Mikk Remix)-bn.png;
#BACKGROUND:Maybe (Mikk Remix)-bg.png;
#LYRICSPATH:;
#CDTITLE:!Kewing v3 (cdtitle).png;
#MUSIC:MAYBE (MIKK REMIX).ogg;
#OFFSET:-0.251;
#SAMPLESTART:77.099;
#SAMPLELENGTH:11.900;
#SELECTABLE:YES;
#BPMS:0.000=175.000,96.000=87.500,128.000=175.000;
#STOPS:;
#BGCHANGES:;

//---------------dance-single - ----------------
#NOTES:
     dance-single:
     Kewing:
     Hard:
     9:
     0.550,0.579,0.402,0.097,0.092:
0000
0000
0000
0000
,
0000
0000
0000
0000
,
0000
0000
0000
0000
,
0000
0000
0000
0000
,
0000
0000
0000
0000
,
0000
0000
0000
0000
,
0000
0001
0100
0010
,
2002
0000
0000
3003
,
1001
0000
1000
0000
0010
0000
0100
0001
,
0010
0000
0100
0000
0001
0000
0100
1000
,
0010
0000
0001
0010
1000
0000
0100
1000
,
0010
0100
0001
0000
0011
0000
0110
0000
,
1001
0000
0001
0000
0010
0000
0100
1000
,
0010
0000
0100
0000
1000
0000
0100
0001
,
0010
0000
1000
0010
0001
0010
0100
1000
,
0010
0000
0000
0000
1010
0000
0000
0000
0110
0000
0000
0001
0000
0000
1000
0000
,
1001
0000
0100
0000
0010
1000
0010
0001
,
0010
0000
0001
0000
0100
1000
0100
0001
,
0100
0000
0001
1000
0100
0000
1000
0001
,
0100
0010
0001
0010
1000
0010
0100
0000
,
0110
0000
0010
1000
0100
0000
0010
0001
,
0100
0000
1000
0100
0001
0100
0010
1000
,
0100
0000
0001
0100
1000
0010
0100
0001
,
0010
0110
1001
0000
,
0110
0000
0000
0010
0000
0000
0100
0000
0001
0000
0000
0010
0000
0000
0100
0000
,
0001
0000
0000
0100
0000
1000
0000
0020
0000
0000
0000
0000
0030
0000
0100
0000
,
0001
0000
0000
0010
0000
0000
0001
0000
0100
0000
0000
0010
0000
0000
0100
0000
,
1000
0000
0000
0100
0000
0001
0000
0020
0000
0000
0000
0000
0030
0000
0100
0000
,
1000
0000
0001
0100
0000
0000
0010
0000
1000
0000
0001
0010
0000
0000
1000
0000
,
0010
0000
0100
0010
0000
0001
0000
0200
0000
0000
0000
0000
0300
0000
0100
0000
,
0010
0000
1000
0100
0000
0000
0100
0000
0010
0000
0001
0100
0000
0000
0100
0000
,
0010
0000
0001
0010
0000
1000
0000
0200
0000
0000
0000
0000
0000
0000
0300
0000
,
0110
0000
0100
0000
0010
0100
1000
0000
,
0010
0000
0001
0010
1000
0000
0100
0000
,
0100
0000
1000
0000
0010
0100
0001
0000
,
0010
0000
1000
0010
0001
0000
0100
0000
,
0100
0000
0010
1000
0100
0000
0100
1000
,
0010
0000
0100
0000
1000
0100
0001
0000
,
0011
0000
0010
0001
0100
0000
0100
0001
,
0010
0000
0100
0000
0001
0100
1000
0000
,
1010
0000
0001
0100
1000
0000
1000
0100
,
0001
0000
0100
0010
0001
0010
1000
0000
,
1100
0000
1000
0100
0001
0000
0001
0100
,
1000
0000
0100
0010
1000
0010
0001
0100
,
0101
0000
0000
0000
0010
0000
0000
0000
1100
0000
0000
0110
0000
0000
0100
0000
,
1001
0000
0000
0000
0010
0000
0000
0000
0101
0000
0000
0110
0000
0000
0100
0000
,
1001
0000
1000
0001
0110
0000
0010
0100
,
2002
0000
0000
3003
,
1001
0000
0001
0010
0100
1000
0100
0001
,
0000
0101
0000
0001
0100
1000
0001
1000
,
0010
0000
1000
0010
0100
0001
0100
1000
,
0000
1100
0000
1000
0100
0001
1000
0001
,
0010
0000
0001
0100
0010
1000
0100
0001
,
0000
0101
0000
0001
0100
1000
0010
0100
,
0001
0000
0010
0001
0100
0000
0010
1000
,
0100
0010
0100
0010
0100
1000
0010
0100
,
0001
0000
0010
0001
0100
0010
1000
0010
,
0001
0010
1000
0010
0100
0001
0010
0001
,
0100
0000
0100
0001
0010
0100
1000
0100
,
0001
0100
1000
0010
0100
0001
0010
0100
,
1000
0000
0010
1000
0100
0010
0001
0100
,
1000
0100
0001
0010
0001
0100
0010
1000
,
0100
0110
0011
1100
,
2002
0000
0000
3003
,
1001
0000
0100
0001
0010
0000
0010
0001
,
0100
0000
0010
0001
0010
1000
0100
0000
,
0110
0110
1100
0011
,
0010
1000
0010
0100
0010
0001
0100
0000
,
1001
0000
0100
1000
0010
0000
0010
1000
,
0100
0000
0010
1000
0010
0001
0100
0000
,
0110
0110
0101
1010
,
0010
0001
0010
0100
0010
1000
0100
0000
,
1001
0000
0010
0001
0100
0010
1000
0100
,
0000
0101
0000
1100
0000
0100
0010
0001
,
0100
0000
0010
1000
0100
0010
0001
0100
,
0000
1100
0000
0101
0000
0100
0010
1000
,
1001
0000
0010
0000
0100
1000
0010
1000
,
0000
0100
0000
0010
0000
0001
0100
0001
,
0010
1000
0100
0010
,
2002
0000
0000
0000
,
3003
0000
0000
0000
;

//---------------dance-single - ----------------
#NOTES:
     dance-single:
     Kewing:
     Medium:
     7:
     0.437,0.483,0.298,0.097,0.000:
0000
0000
0000
0000
,
0000
0000
0000
0000
,
0000
0000
0000
0000
,
0000
0000
0000
0000
,
0000
0000
0000
0000
,
0000
0000
0000
0000
,
0000
1000
0100
0010
,
2002
0000
0000
3003
,
1001
0001
0100
0001
,
0101
0100
0010
0100
,
0101
0100
1000
0010
,
0011
0011
0001
0100
,
1010
1000
0100
1000
,
1100
0000
0100
0000
0001
0000
0100
1000
,
0010
0000
0100
0000
0001
0000
0010
0001
,
0100
0110
0110
0000
,
1001
0000
1000
0000
0001
0000
0100
0001
,
0010
0000
0100
0000
1000
0000
0100
1000
,
0010
0000
0100
0000
0010
0000
0001
0010
,
1000
1010
1000
0100
,
0011
0000
0001
0000
0010
0000
0100
1000
,
0010
0000
0100
0000
0010
0000
0100
0001
,
0010
0000
0100
0000
0001
0100
1000
0000
,
0010
0110
0110
0000
,
0010
0001
0010
1000
,
0001
0000
0100
0001
0020
0000
0030
0010
,
0010
1000
0010
0001
,
1000
0000
0100
1000
0020
0000
0030
0010
,
1000
0000
0001
0000
0100
0010
0001
0000
,
0010
0000
1000
0100
0020
0000
0030
0010
,
0001
0000
1000
0000
0100
0010
1000
0000
,
0010
0000
0001
0100
0020
0000
0000
0030
,
1001
0001
0100
0010
,
0100
1000
0001
0100
,
1000
0001
0010
0100
,
0010
1000
0001
0010
,
1000
0010
0100
0001
,
0010
0000
1000
0000
0010
0000
0100
1000
,
0001
0100
0010
1000
,
0100
0000
0001
0000
0100
0000
0010
0001
,
1000
0000
0001
0000
0100
0000
1000
0100
,
0001
0000
1000
0000
0100
0000
0010
0001
,
0100
0000
0001
0000
0010
0000
1000
0010
,
0001
0000
0100
0000
0010
0000
1000
0100
,
1100
0000
0100
0000
0010
0000
0001
0100
,
1001
0000
0100
0000
0010
0000
1000
0100
,
1001
0001
0110
1000
,
2002
0000
0000
3003
,
1001
0000
0100
0000
0001
1000
0001
1000
,
0000
0100
0000
0100
0000
1000
0000
0010
,
0100
0000
0001
0000
1000
0001
1000
0001
,
0000
0010
0000
0010
0000
0001
0000
0100
,
0010
0000
1000
0000
0100
0010
0100
0010
,
0000
0001
0000
0001
0000
0100
0010
1000
,
0001
0000
0100
0000
0010
0000
1000
0001
,
1000
0100
0010
0001
,
1001
0000
0001
0000
1000
0100
0010
0001
,
0000
0100
0000
0100
0000
0001
1000
0001
,
0010
0000
0100
0000
1000
0010
0100
0001
,
0000
0010
0000
0010
0000
0001
1000
0001
,
0100
0000
0010
0000
1000
0001
0010
0100
,
0000
1000
0000
1000
0001
0100
0010
1000
,
0100
0010
0001
1000
,
2002
0000
0000
3003
,
1000
0010
0100
0001
,
0010
0100
0010
0000
0010
0100
0010
0000
,
0110
0110
1001
0001
,
1010
0010
0101
0100
,
0001
0010
0100
1000
,
0010
0100
0010
0000
0010
0100
0010
0000
,
0110
0110
1001
1000
,
0011
0010
1100
0100
,
1001
0000
0001
0000
1000
0001
0100
0010
,
0000
1000
0000
0010
0000
0100
0001
0010
,
0001
0000
1000
0000
0001
1000
0100
0010
,
0000
0001
0000
0010
0000
0100
0000
0010
,
0110
0000
0100
0000
0010
0000
0001
1000
,
0000
0010
0000
0001
0000
0010
1000
0100
,
1000
0001
0100
0010
,
2002
0000
0000
0000
,
3003
0000
0000
0000
;

//---------------dance-single - ----------------
#NOTES:
     dance-single:
     Kewing:
     Easy:
     5:
     0.319,0.483,0.233,0.161,0.000: // measure 1
0000
0000
0000
0000
,  // measure 2
0000
0000
0000
0000
,  // measure 3
0000
0000
0000
0000
,  // measure 4
0000
0000
0000
0000
,  // measure 5
0000
0000
0000
0000
,  // measure 6
0000
0000
0000
0000
,  // measure 7
0000
0001
0010
0100
,  // measure 8
2002
0000
0000
3003
,  // measure 9
1000
0000
0010
0100
,  // measure 10
0001
0000
0001
1000
,  // measure 11
0100
0000
0100
1000
,  // measure 12
0010
0010
0010
1000
,  // measure 13
0100
0000
0100
0010
,  // measure 14
0001
0000
0001
1000
,  // measure 15
0010
0000
0010
1000
,  // measure 16
0100
0100
0100
0000
,  // measure 17
0110
0100
1000
0001
,  // measure 18
0100
0000
0100
0001
,  // measure 19
0010
0000
0010
0100
,  // measure 20
1000
0010
0010
1000
,  // measure 21
0100
0000
1000
0001
,  // measure 22
0100
0010
1000
0100
,  // measure 23
0100
0000
0010
0001
,  // measure 24
0100
0010
0010
0000
,  // measure 25
0110
0000
0010
0000
,  // measure 26
0001
0010
2000
3000
,  // measure 27
0100
0000
0010
0000
,  // measure 28
1000
0010
0002
0003
,  // measure 29
0100
0010
0100
1000
,  // measure 30
0100
0001
0020
0030
,  // measure 31
0001
0010
0100
0001
,  // measure 32
0100
1000
0020
0030
,  // measure 33
1010
1000
0010
1000
,  // measure 34
0100
0000
0010
0000
,  // measure 35
0100
1000
0100
1000
,  // measure 36
0010
0000
0100
0000
,  // measure 37
1000
0100
1000
0100
,  // measure 38
0001
0000
0010
0000
,  // measure 39
1000
0010
1000
0010
,  // measure 40
0001
0000
1000
0000
,  // measure 41
0110
0010
1000
0010
,  // measure 42
0100
0001
0010
0000
,  // measure 43
0110
0010
0001
0010
,  // measure 44
0100
1000
0010
0100
,  // measure 45
1001
0000
0001
0010
,  // measure 46
1100
0000
1000
0010
,  // measure 47
0101
0000
0110
0000
,  // measure 48
2002
0000
0000
3003
,  // measure 49
1001
0001
0010
0100
,  // measure 50
1000
0001
0100
0001
,  // measure 51
0010
0000
0001
0100
,  // measure 52
0010
1000
0100
1000
,  // measure 53
0010
0000
0010
1000
,  // measure 54
0100
0010
0001
0100
,  // measure 55
1000
0000
1001
0000
,  // measure 56
1000
0010
0001
0000
,  // measure 57
1001
1000
0001
0100
,  // measure 58
0010
0001
0010
1000
,  // measure 59
0001
0000
0001
1000
,  // measure 60
0100
0001
0100
1000
,  // measure 61
0010
0000
0100
0001
,  // measure 62
0010
1000
0010
0001
,  // measure 63
0100
0000
0110
0000
,  // measure 64
2002
0000
0000
3003
,  // measure 65
1001
0001
0010
0100
,  // measure 66
2200
3300
0022
0033
,  // measure 67
1001
1001
0010
0100
,  // measure 68
0001
0010
0100
0000
,  // measure 69
1001
1000
0010
0100
,  // measure 70
0202
0303
2020
3030
,  // measure 71
1001
1001
0010
0100
,  // measure 72
1000
0010
0100
0000
,  // measure 73
1001
0000
0010
0000
,  // measure 74
1000
0010
0100
0001
,  // measure 75
0010
0000
0100
0000
,  // measure 76
1000
0100
0010
0001
,  // measure 77
1001
0000
1000
0000
,  // measure 78
0001
1000
0010
0100
,  // measure 79
0001
1000
0100
0010
,  // measure 80
2002
0000
0000
0000
,  // measure 81
3003
0000
0000
0000
;

//---------------dance-single - ----------------
#NOTES:
     dance-single:
     Kewing:
     Beginner:
     2:
     0.176,0.254,0.129,0.000,0.000:
0000
0000
0000
0000
,
0000
0000
0000
0000
,
0000
0000
0000
0000
,
0000
0000
0000
0000
,
0000
0000
0000
0000
,
0000
0000
0000
0000
,
0000
0000
0000
0000
,
0000
0000
0000
0000
,
1001
0000
0000
0000
,
1000
0000
0000
0000
,
1000
0000
0010
0000
,
0100
0000
0010
0010
,
0010
0000
0000
0000
,
0001
0000
0000
0000
,
0001
0000
0010
0000
,
1000
1000
1000
0000
,
1001
0000
0000
0000
,
0001
0000
0000
0000
,
0001
0000
0010
0000
,
0100
0100
0100
0000
,
0001
0000
0000
0000
,
0001
0000
0100
0100
,
0100
0000
1000
0000
,
0001
0001
0001
0000
,
1001
0000
0001
0000
,
0010
0000
0000
0000
,
0100
0000
1000
0000
,
0010
0000
0000
0000
,
1000
0000
0100
0000
,
1000
0000
0001
0000
,
0100
0000
0001
0000
,
0010
0000
0100
0000
,
1001
0000
0000
0000
,
0010
0000
0001
0000
,
0100
0000
0000
0000
,
1000
0000
0100
0000
,
0001
0000
0000
0000
,
0010
0000
1000
0000
,
0100
0000
0000
0000
,
0001
0000
0100
0000
,
1000
0000
0010
0000
,
0100
0000
0001
0000
,
0010
0000
0100
0000
,
1000
0000
0010
0000
,
0110
0000
0000
0000
,
1001
0000
0000
0000
,
1001
0000
0110
0000
,
1001
0000
0000
0000
,
0001
0000
0100
0000
,
0010
0000
1000
1000
,
1000
0000
0100
0000
,
0001
0000
1000
1000
,
1000
0000
0010
0000
,
0100
0000
1000
1000
,
1000
0000
0010
0000
,
0100
0000
0000
0000
,
1000
0000
0100
0000
,
0010
0000
0001
0001
,
0001
0000
0100
0000
,
1000
0000
0001
0001
,
0001
0000
0100
0000
,
0010
0000
0001
0001
,
0001
0000
1000
0000
,
0110
0000
0000
0000
,
0001
0000
0010
0000
,
0100
0000
1000
0000
,
1001
0000
1001
0000
,
0010
0010
0010
0000
,
1000
0000
0010
0000
,
0100
0000
0001
0000
,
1001
0000
1001
0000
,
0010
0010
0010
0000
,
0001
0000
1000
0000
,
0010
0000
0100
0100
,
0100
0000
0001
0000
,
1000
0000
0100
0000
,
0110
0000
0000
0000
,
0100
0000
0000
0000
,
0001
0000
1000
0000
,
1001
0000
0000
0000
;
