#TITLE:Jungle Joyride - Day;
#SUBTITLE:[SONIC Unleashed];
#ARTIST:大谷智哉;
#TITLETRANSLIT:;
#SUBTITLETRANSLIT:;
#ARTISTTRANSLIT:Ohtani, Tomoya;
#CREDIT:Kewing Darksun;
#BANNER:Jungle Joyride - Day.png;
#BACKGROUND:Jungle Joyride - Day-bg.png;
#LYRICSPATH:;
#CDTITLE:!Kewing DarkSun v3 (cdtitle).png;
#MUSIC:Jungle Joyride - Day.ogg;
#OFFSET:0.336;
#SAMPLESTART:36.690;
#SAMPLELENGTH:11.480;
#SELECTABLE:YES;
#BPMS:0.000=162.000;
#STOPS:;
#BGCHANGES:;

//---------------dance-single - ----------------
#NOTES:
     dance-single:
     :
     Hard:
     8:
     0.541,0.545,0.333,0.017,0.071:
0000
0000
0000
0000
,
0000
0000
0000
0000
,
0000
0000
0000
0000
,
0000
0000
0000
0000
,
0000
0000
0000
0000
,
2000
0001
0100
0001
,
0100
0000
3010
0100
0001
0000
0010
0000
,
0002
1000
0100
1000
,
0100
0000
0013
0100
1000
0000
0001
0000
,
1001
0000
1000
0010
0000
0010
1000
0000
,
0010
0000
0100
0001
0000
0001
0100
0000
,
0010
0000
1000
0100
0000
0100
1000
0000
,
0100
0000
0010
0001
0010
0100
1000
0000
,
1001
0000
0010
1000
0000
0100
1000
0000
,
0010
0000
0100
0001
0000
0010
0001
0000
,
0100
0000
0010
1000
0000
0100
1000
0000
,
0010
0000
0000
1000
0100
0000
0000
0100
0010
0000
0000
0010
0001
0000
1000
0000
,
0001
0000
1000
0001
0000
0100
0000
1010
,
0000
0100
0000
0001
0000
0100
0000
0010
,
0100
0000
0001
1000
0000
0100
0000
0011
,
0000
0100
0000
1000
0000
0100
0000
0010
,
0100
0000
1000
0001
0000
0100
0000
1010
,
0000
0100
0000
1010
0000
0100
0000
0010
,
0100
0000
0001
1000
0000
0100
0000
0011
,
0000
0100
0000
0011
0000
0100
0000
0010
,
0110
0000
0100
1000
0001
0000
0001
1000
,
0000
0010
0100
0000
0101
0000
1010
0000
,
0010
0000
0100
0001
1000
0000
1000
0001
,
0000
0010
0100
0000
1100
0000
0011
0000
,
1001
0000
0010
1000
0100
0000
0100
0010
,
0000
0001
0100
0000
0101
0000
1010
0000
,
1001
0000
0010
0001
0100
0000
0100
0010
,
0000
1000
0100
0000
1100
0000
0011
0000
,
0101
0000
0100
0001
1000
0001
0100
0010
,
0000
0100
0001
1000
0001
0000
0011
0000
,
1100
0000
0100
1000
0001
1000
0100
0010
,
0000
0100
1000
0001
1000
0000
1010
0000
,
0101
0000
0100
0001
0010
0001
0100
0010
,
0000
1000
0100
0010
0001
0000
0011
0000
,
1100
0000
0100
1000
0010
1000
0100
0010
,
0001
0100
0010
1000
0100
0010
0001
0000
,
1000
0000
0000
0010
0000
0000
0100
0000
0000
0001
0000
0000
1000
0000
0100
0000
,
1000
0000
0000
0100
0000
0000
0010
0000
0000
0001
0000
0000
1000
0000
0010
0000
,
1000
0000
0000
0001
0000
0000
0100
0000
0000
0010
0000
0000
1000
0000
0100
0000
,
1000
0000
0000
0010
0000
0000
0100
0000
0000
0001
0000
0000
0010
0000
0000
0000
,
0001
0100
0010
0000
0010
0100
0010
0000
,
0010
0100
0001
1000
0100
0000
0100
0000
,
0100
0010
0001
0000
0001
0010
0001
0000
,
0001
0010
0100
0010
0000
0001
1000
0001
,
0100
0000
0010
1000
0001
0000
0001
0000
,
0001
1000
0010
0000
0010
0100
0010
0000
,
0010
1000
0100
0010
0001
1000
0001
0000
,
1001
0000
0000
0001
0100
0000
0000
0100
0010
0000
0000
0010
1000
0000
0001
0000
,
1000
0100
0010
0000
0010
0001
0010
0000
,
0010
0100
1000
0001
0100
0000
0100
0000
,
0100
0010
1000
0000
1000
0100
1000
0000
,
1000
0010
0100
0010
0000
1000
0001
1000
,
0100
0000
0010
0001
0100
0000
0100
0000
,
0100
0001
0010
0000
0010
1000
0010
0000
,
0010
0001
0100
0010
1000
0100
0010
0001
,
1000
0000
0000
0010
0100
0000
0000
0001
1000
0000
0000
0100
0010
0000
0001
0000
,
1001
0000
1000
0000
0010
0000
0001
0010
,
0000
1000
0010
0000
0100
0000
0001
0000
,
1001
0000
1000
0000
0100
0000
0010
0011
,
0000
1000
0100
0000
1001
0000
0100
0000
,
1001
0000
0001
0000
0010
0000
1000
0010
,
0000
0001
0010
0000
0100
0000
1000
0000
,
1001
0000
0001
0000
0100
0000
0010
1010
,
0000
0001
0100
0000
1001
0000
0100
0000
,
1001
0001
0100
0001
0010
0010
0010
0100
,
1000
0001
1000
0100
0010
0001
0100
0000
,
1001
1000
0100
1000
0010
0010
0010
0100
,
0001
0010
0001
0100
0010
1000
0100
0000
,
0011
0001
0100
0010
1000
1000
1000
0010
,
0100
0010
1000
0100
0001
0100
1000
0000
,
1100
1000
0010
0100
0001
0001
0001
0010
,
0100
0010
0001
0100
1000
0100
0001
0100
,
0110
0000
0000
0000
;

//---------------dance-single - ----------------
#NOTES:
     dance-single:
     :
     Challenge:
     9:
     0.612,0.578,0.575,0.017,0.058:
0000
0000
0000
0000
,
0000
0000
0000
0000
,
0000
0000
0000
0000
,
0000
0000
0000
0000
,
0000
0000
0000
0000
,
0200
0001
1000
0001
,
1000
0000
0310
0001
0100
0000
0010
0000
,
0200
1000
0001
1000
,
0001
0000
0310
1000
0100
0010
0001
0000
,
0011
0000
0001
1000
0100
1000
0010
0000
,
1010
0000
1000
0001
0100
0001
0010
0000
,
0011
0000
0001
1000
0010
1000
0100
0000
,
1100
0000
1000
0001
0010
0001
0100
0010
,
0110
0000
0010
1000
0001
1000
0100
0000
,
0110
0000
0010
0001
1000
0001
0100
0000
,
0110
0000
0010
0001
0010
1000
0010
0000
,
0110
0000
0000
0010
1000
0000
0000
0100
0010
0000
0000
0001
0100
0000
0010
0000
,
0110
0000
0010
0100
0000
0101
0000
1000
,
0000
1100
0000
0001
0000
0110
0000
0100
,
0001
0000
0010
0100
0000
1100
0000
0001
,
0000
0101
0000
1000
0000
0110
0000
0010
,
0100
0000
1000
0010
0000
1001
0000
0011
,
0000
0101
0000
0110
0000
1010
0000
0010
,
0100
0000
0001
0010
0000
1001
0000
1010
,
0000
1100
0000
0110
0000
0011
0000
0100
,
1001
0000
0001
0100
0010
0100
0001
0010
,
0000
0001
0100
0000
0101
0000
1010
0000
,
0110
0000
1000
0100
0010
0100
1000
0010
,
0000
1000
0100
0000
1100
0000
0011
0000
,
1001
0000
0100
0010
1000
0100
1000
0010
,
0000
1000
0100
0000
0011
0000
1100
0000
,
1001
0000
0100
0010
0001
0100
0001
0010
,
0000
0001
0100
0000
1010
0000
0101
0000
,
1001
0000
0010
0001
0010
0100
0001
0100
,
0000
0010
0100
0010
0001
0100
0001
0000
,
1001
0000
0010
1000
0010
0100
1000
0100
,
0000
0010
0100
0010
1000
0100
1000
0000
,
1001
0000
0100
0001
0100
0010
0001
0010
,
0000
0100
1000
0100
0001
0010
0001
0000
,
0001
0010
0100
1000
0100
0010
1000
0010
,
0100
0001
0100
0010
0100
1000
0001
0000
,
1000
0000
0000
0010
0000
0000
0100
0000
0000
0101
0000
0000
0010
0000
0100
0000
,
0001
0000
0000
0010
0000
0000
0100
0000
0000
1100
0000
0000
0010
0000
0100
0000
,
1000
0000
0000
0010
0000
0000
0001
0000
0000
0011
0000
0000
0100
0000
0010
0000
,
1000
0000
0000
0100
0000
0000
0001
0000
0000
0101
0000
0000
0010
0000
0100
0000
,
1000
0100
0001
0000
0001
0100
0001
0000
,
0001
0100
1000
0100
0010
0000
0011
0000
,
0001
0100
0001
1000
0100
0001
0100
0010
,
0100
0010
1000
0010
0001
0010
0100
0010
,
0001
0000
0001
0100
0010
0000
1010
0000
,
1000
0010
0001
0010
0100
0000
0001
1000
,
0100
0010
0100
0001
0100
1000
0100
0010
,
0001
1000
0001
0100
0010
1000
0100
0010
,
0001
0100
1000
0000
1000
0001
1000
0000
,
1000
0100
0001
0010
0100
0000
1100
0000
,
1000
0010
1000
0001
0100
1000
0100
0010
,
0001
0010
0001
0010
0100
0010
0001
0010
,
1000
0000
1000
0100
0010
0000
0011
0000
,
0001
0010
1000
0010
0100
0000
1000
0001
,
0100
0010
0100
1000
0100
0010
1000
0100
,
0010
0000
0000
0010
0001
0000
0000
0100
0010
0000
0000
1000
0100
0000
0010
0000
,
0110
0000
0010
0001
0100
0000
1000
0001
,
0000
0010
0100
0000
0101
0000
0011
0000
,
1001
0000
0010
1000
0100
0000
0001
1001
,
0000
0010
0100
0000
1100
0000
1010
0000
,
1001
0000
1000
0100
0001
0000
1000
0001
,
0000
0100
0010
0000
0011
0000
0101
0000
,
1001
0000
0001
0100
1000
0000
0001
1001
,
0000
0100
0010
0000
1010
0000
1100
0000
,
0110
0010
0001
1000
0100
0001
0100
0010
,
0001
1000
0100
1000
0010
0010
1010
0000
,
0110
0010
1000
0001
0100
1000
0100
0010
,
0001
0010
0100
0001
0010
0010
0011
0000
,
0101
0001
1000
0100
0001
0100
1000
0100
,
0010
0001
0100
1000
0001
0010
1000
0100
,
1100
1000
0001
0100
1000
0100
0001
0010
,
1000
0010
0100
0001
1000
0010
0001
0100
,
0110
0000
0000
0000
;

//---------------dance-single - ----------------
#NOTES:
     dance-single:
     :
     Medium:
     7:
     0.481,0.481,0.475,0.017,0.017:
0000
0000
0000
0000
,
0000
0000
0000
0000
,
0000
0000
0000
0000
,
0000
0000
0000
0000
,
0000
0000
0000
0000
,
2000
0001
0001
0001
,
0001
3001
0010
0100
,
0002
1000
1000
1000
,
1000
0000
1000
0003
0010
0000
0100
0000
,
1100
0100
1000
0010
,
0110
0100
0010
0001
,
1001
1000
0001
0100
,
0110
0000
0010
0000
0001
0000
0100
0001
,
0101
0001
0010
0100
,
0110
0010
1000
0100
,
1100
0100
0001
0010
,
0011
0000
1100
0000
0011
0000
1000
0001
,
1000
0000
0010
0100
0000
0001
0000
0010
,
0000
0001
0000
0100
0000
0010
0000
0000
,
1001
0000
0010
0100
0000
1000
0000
0010
,
0000
1000
0000
0100
0000
0010
0000
0000
,
1001
0000
1000
0010
0000
0001
0000
0010
,
0000
1000
0000
0100
0000
0010
0000
0000
,
1001
0000
0001
0010
0000
1000
0000
0010
,
0000
0001
0000
0100
0000
0010
0000
0000
,
1001
0000
0001
0000
0010
0000
0100
1000
,
0000
1000
0010
0000
1010
0000
1010
0000
,
0001
0000
1000
0000
0010
0000
0100
0001
,
0000
0001
0010
0000
0011
0000
0011
0000
,
1000
0000
0001
0000
0100
0000
0010
0100
,
0000
0001
1000
0000
1100
0000
1100
0000
,
0001
0000
1000
0000
0100
0000
0010
0100
,
0000
1000
0001
0000
0101
0000
0001
1000
,
1001
0000
1000
0000
0100
0000
1000
0010
,
0100
0001
0101
0011
,
1001
0000
0001
0000
0100
0000
0001
0010
,
0100
1000
1100
1010
,
1001
0000
0001
0010
0001
0000
0100
0010
,
1000
0001
1001
0110
,
1001
0000
1000
0010
1000
0000
0100
0010
,
0001
0110
1001
0110
,
1000
0000
0000
0010
0000
0000
1000
0000
0000
0000
0010
0000
1000
0000
0000
0000
,
0001
0000
0000
0010
0000
0000
0001
0000
0000
0000
0100
0000
0001
0000
0000
0000
,
0010
0000
0000
0100
0000
0000
0010
0000
0000
0000
0001
0000
1000
0000
0000
0000
,
0010
0000
0000
0100
0000
0000
0001
0000
0000
0000
0010
0000
0100
0000
0000
0000
,
1000
0001
0100
0000
0100
0000
0100
0000
,
0100
0001
1000
0000
1000
0000
1000
0000
,
1000
0100
0010
0000
0010
0100
1000
0000
,
1000
0000
1000
0000
1000
0010
0100
0010
,
0100
0000
0100
0001
0010
0000
0010
0000
,
0010
0000
0110
0000
0100
0000
0100
1000
,
0010
0000
0010
1000
0100
1000
0100
0000
,
1100
1010
1010
0110
,
0001
1000
0100
0000
0100
0000
0100
0000
,
0100
1000
0001
0000
0001
0000
0001
0000
,
0001
0100
1000
0000
1000
0100
0001
0000
,
0001
0000
0001
0000
0001
0010
0100
1000
,
0100
0000
0100
1000
0010
0000
0010
0000
,
0010
0000
0110
0000
0100
0000
0100
0001
,
0010
0000
0010
0001
1000
0001
0100
0000
,
0101
0011
1100
0110
,
1001
0000
0010
0000
0100
0000
0001
0100
,
0000
1000
0010
0001
,
0101
0000
0100
0000
0010
0000
1000
0010
,
0000
0100
1001
0010
,
1001
0000
0010
0000
0100
0000
1000
0100
,
0000
0001
0010
1000
,
1100
0000
0100
0000
0010
0000
0001
0010
,
0000
0100
1001
0010
,
1001
0000
0001
0010
0100
0100
0100
1000
,
0000
0010
1000
0001
0010
0000
0011
0000
,
1001
0000
1000
0010
0100
0100
0100
0001
,
0000
0010
0001
1000
0100
0000
0011
0000
,
1001
0000
0001
0100
0010
0010
0010
1000
,
0000
1000
0010
0100
0001
1000
0001
0000
,
1001
0000
1000
0100
0010
0010
0010
0001
,
1000
0001
0100
0010
1000
0100
0010
0000
,
0110
0000
0000
0000
;

//---------------dance-single - ----------------
#NOTES:
     dance-single:
     :
     Easy:
     5:
     0.350,0.417,0.308,0.150,0.000: // measure 1
0000
0000
0000
0000
,  // measure 2
0000
0000
0000
0000
,  // measure 3
0000
0000
0000
0000
,  // measure 4
0000
0000
0000
0000
,  // measure 5
0000
0000
0000
0000
,  // measure 6
2000
0000
0100
0000
,  // measure 7
0100
3000
0001
1000
,  // measure 8
0002
0000
0100
0000
,  // measure 9
0100
0003
1000
0001
,  // measure 10
1001
0010
1000
0000
,  // measure 11
0010
0100
0010
0000
,  // measure 12
0001
0010
0001
0000
,  // measure 13
0010
0100
0001
1000
,  // measure 14
1001
0010
0001
0000
,  // measure 15
0010
0100
0010
0000
,  // measure 16
1000
0010
1000
0000
,  // measure 17
0010
0001
0100
0010
,  // measure 18
1001
1000
0200
0000
,  // measure 19
0010
0000
1300
0000
,  // measure 20
1000
0001
0200
0000
,  // measure 21
0010
0000
0301
0000
,  // measure 22
0100
0001
0020
0000
,  // measure 23
0100
0000
1030
0000
,  // measure 24
0100
1000
0020
0000
,  // measure 25
0100
0000
0031
0000
,  // measure 26
0010
1000
0100
0000
,  // measure 27
0010
0001
0100
0000
,  // measure 28
0010
1000
0100
0001
,  // measure 29
0100
0010
0010
0000
,  // measure 30
0100
1000
0010
0000
,  // measure 31
0100
0001
0010
0000
,  // measure 32
0100
1000
0010
0001
,  // measure 33
0010
0100
0100
0010
,  // measure 34
1001
0000
1000
0000
0100
0000
0000
0001
,  // measure 35
0000
0100
0010
0110
,  // measure 36
0001
0000
1000
0000
0010
0000
0000
0001
,  // measure 37
0000
0010
0100
0110
,  // measure 38
0100
0000
0001
0000
0010
0000
1000
0010
,  // measure 39
0000
0010
0100
0110
,  // measure 40
0010
0000
0001
0000
0100
0000
1000
0100
,  // measure 41
0000
0110
1001
0110
,  // measure 42
2000
0000
0000
3001
,  // measure 43
0002
0000
0000
1003
,  // measure 44
0200
0000
0000
0310
,  // measure 45
0002
0000
0000
0003
,  // measure 46
1000
0010
0200
0000
,  // measure 47
0310
1000
0200
0000
,  // measure 48
0310
0100
1000
0100
,  // measure 49
0010
0000
0001
0000
0100
0000
0010
0100
,  // measure 50
0010
1000
0200
0000
,  // measure 51
1300
0010
0200
0000
,  // measure 52
0301
0010
0001
0100
,  // measure 53
0010
0000
0110
0000
1001
0000
0001
1000
,  // measure 54
0001
0010
0200
0000
,  // measure 55
0310
0001
0200
0000
,  // measure 56
0310
0100
1000
0100
,  // measure 57
0010
0000
1000
0000
0100
0000
0010
0001
,  // measure 58
0010
0001
0200
0000
,  // measure 59
0301
0010
0200
0000
,  // measure 60
1300
0010
0001
1000
,  // measure 61
1001
0000
0110
0000
1001
0000
1000
0001
,  // measure 62
1000
0000
0000
0000
0100
0000
0000
0010
,  // measure 63
0000
0001
0100
0000
,  // measure 64
0110
0000
0000
0000
0001
0000
0000
1010
,  // measure 65
0000
1000
1100
0000
,  // measure 66
1001
0000
0000
0000
0001
0000
0000
0100
,  // measure 67
0000
0010
1000
0100
,  // measure 68
0110
0000
0000
0000
1000
0000
0000
0011
,  // measure 69
0000
0001
0101
0001
,  // measure 70
1001
0000
1000
0000
0100
0000
0010
0001
,  // measure 71
0000
0001
0100
0000
1100
0000
0101
0000
,  // measure 72
1001
0000
0001
0000
0100
0000
0010
1000
,  // measure 73
0000
1000
0100
0000
0101
0000
1100
0000
,  // measure 74
1001
0000
0100
0000
0110
0000
0001
0100
,  // measure 75
0000
1000
0100
0000
0101
0000
0011
0000
,  // measure 76
1001
0000
0010
0000
0110
0000
1000
0100
,  // measure 77
0000
0001
0100
0000
1100
0000
1010
0000
,  // measure 78
0110
0000
0000
0000
;

//---------------dance-single - ----------------
#NOTES:
     dance-single:
     :
     Beginner:
     2:
     0.170,0.289,0.192,0.000,0.000:
0000
0000
0000
0000
,
0000
0000
0000
0000
,
0000
0000
0000
0000
,
0000
0000
0000
0000
,
0000
0000
0000
0000
,
1000
0000
0000
0000
,
0000
0000
0000
0000
,
0001
0000
0000
0000
,
0000
0000
0000
0000
,
1001
0000
0000
0000
,
0100
0000
0000
0000
,
0010
0000
0000
0000
,
0100
0000
0001
0001
,
0001
0000
0000
0000
,
0010
0000
0000
0000
,
0100
0000
0000
0000
,
0010
0000
1000
1000
,
1000
1000
0000
0000
,
0001
0000
0000
0000
,
0001
0001
0000
0000
,
0010
0000
0000
0000
,
0010
0010
0000
0000
,
0100
0000
0000
0000
,
0100
0100
0000
0000
,
1000
0000
0000
0000
,
0001
0000
1000
0000
,
0000
0001
0001
0000
,
1000
0000
0010
0000
,
0000
1000
1000
0000
,
0001
0000
0010
0000
,
0000
0001
0001
0000
,
0100
0000
0010
0000
,
0000
0100
0100
0000
,
1001
0000
1000
0000
,
0100
0000
0010
0010
,
0010
0000
0100
0000
,
1000
0000
0001
0001
,
0001
0000
0001
0000
,
0100
0000
0010
0010
,
0010
0000
1000
0000
,
0100
0000
0001
0001
,
0001
0000
0000
0000
,
1000
0000
0000
0000
,
0100
0000
0000
0000
,
0010
0000
0000
0000
,
1001
0000
0000
0000
,
1000
0000
0000
0000
,
0001
0000
0010
0000
,
0100
0000
0010
0000
,
1000
0000
0000
0000
,
0001
0000
0000
0000
,
0100
0000
0010
0000
,
0100
0000
1000
1000
,
1000
0000
0000
0000
,
0001
0000
0000
0000
,
1000
0000
0010
0000
,
0100
0000
0010
0000
,
0001
0000
0000
0000
,
1000
0000
0000
0000
,
0010
0000
0100
0000
,
0010
0000
0001
0001
,
1001
0000
0000
0000
,
0100
0000
0000
0000
,
1001
0000
0000
0000
,
1001
0000
0110
0000
,
1001
0000
0000
0000
,
0010
0000
0000
0000
,
1001
0000
0000
0000
,
1001
0000
0110
0000
,
1001
0000
1001
0000
,
0100
0000
0010
0000
,
1001
0000
1001
0000
,
0010
0000
0100
0000
,
0110
0000
1001
0000
,
0100
0000
0010
0000
,
0110
0000
1001
0000
,
0110
0000
1001
1001
,
0110
0000
0000
0000
;
