#TITLE:JAPANESE SMILE;
#SUBTITLE:;
#ARTIST:OGR;
#TITLETRANSLIT:;
#SUBTITLETRANSLIT:;
#ARTISTTRANSLIT:;
#CREDIT:Kewing Darksun;
#BANNER:JAPANESE SMILE.png;
#BACKGROUND:JAPANESE SMILE-bg.png;
#LYRICSPATH:;
#CDTITLE:!Kewing DarkSun v2 (cdtitle).png.png;
#MUSIC:08 - JAPANESE SMILE Edited.mp3;
#OFFSET:-0.154;
#SAMPLESTART:21.320;
#SAMPLELENGTH:12.000;
#SELECTABLE:YES;
#BPMS:0.000=160.000;
#STOPS:;
#BGCHANGES:;

//---------------dance-single - ----------------
#NOTES:
     dance-single:
     :
     Hard:
     8:
     0.528,0.556,0.302,0.086,0.052: // measure 1
0000
0000
0000
0000
,  // measure 2
0000
0000
0000
0000
,  // measure 3
0000
0000
0000
0000
,  // measure 4
0000
0000
0000
0000
,  // measure 5
0000
0000
0000
0000
,  // measure 6
0000
0000
0000
0000
,  // measure 7
1000
0000
0100
0000
0010
0000
0001
1000
,  // measure 8
0001
0010
0100
1000
,  // measure 9
0001
1000
0000
0010
0000
0100
0000
0001
,  // measure 10
1000
0000
0001
0000
0010
0000
0100
1000
,  // measure 11
0010
0100
0010
0000
1000
0000
0001
1000
,  // measure 12
0001
0000
1000
0000
0010
0000
0100
0001
,  // measure 13
0010
0100
0010
0000
0001
0000
1000
0001
,  // measure 14
1000
0010
0100
0110
,  // measure 15
0000
0010
1000
0100
0010
0001
0010
0100
,  // measure 16
0000
0100
0000
1000
0000
0100
0010
0001
,  // measure 17
0000
0010
0001
0100
0010
1000
0010
0100
,  // measure 18
0000
0100
0000
0001
0000
0100
0010
1000
,  // measure 19
0000
1000
0000
0000
0000
0100
0010
0001
,  // measure 20
0000
0001
0000
0000
0001
0100
0010
0100
,  // measure 21
0000
0001
1000
0100
1000
0001
0100
0010
,  // measure 22
0000
1010
0000
1100
0000
0110
0000
1001
,  // measure 23
0000
0010
1000
0100
0001
0100
1000
0001
,  // measure 24
0000
0001
0000
0100
0000
0001
1000
0100
,  // measure 25
0000
0010
0001
0100
1000
0100
0001
1000
,  // measure 26
0000
1000
0000
0100
0000
1000
0001
0100
,  // measure 27
0000
0100
0000
0000
0000
0001
1000
0100
,  // measure 28
0000
0100
0000
0000
1000
0100
0010
0100
,  // measure 29
0000
1000
0001
0100
0001
1000
0100
0010
,  // measure 30
0000
0011
0000
0101
0000
0110
0000
1001
,  // measure 31
1000
0100
1000
0100
1000
0010
1000
0001
,  // measure 32
1000
0100
0010
0001
1000
0100
0010
0001
,  // measure 33
1000
0010
1000
0010
1000
0100
1000
0001
,  // measure 34
1000
0010
0100
0001
1000
0010
0100
0000
,  // measure 35
0001
0100
0001
0100
0001
0010
0001
1000
,  // measure 36
0001
0100
0010
1000
0001
0100
0010
1000
,  // measure 37
0001
0010
0001
0010
0001
0100
0001
1000
,  // measure 38
0001
0010
0100
1000
0001
0010
0100
0000
,  // measure 39
1000
0100
1000
0010
0100
0010
1000
0001
,  // measure 40
0010
0001
0100
0010
0100
0001
1000
0000
,  // measure 41
0001
0100
0001
0010
0100
0010
0001
1000
,  // measure 42
0010
1000
0100
0010
0100
1000
0001
0000
,  // measure 43
2000
0000
0010
0100
,  // measure 44
3020
0000
0032
0000
,  // measure 45
0203
0000
1000
2300
,  // measure 46
3020
0000
0000
0000
0000
0000
0000
0000
0130
0000
0000
0000
0100
0000
0000
0001
,  // measure 47
1000
1001
1100
0000
,  // measure 48
0000
0000
0000
0000
0000
0000
1000
0000
0010
0000
1000
0000
0100
0000
0000
1000
,  // measure 49
0001
1001
0101
0000
,  // measure 50
0000
0000
0000
0000
0000
0000
1000
0000
0001
0000
1000
0000
0100
0000
0000
1000
,  // measure 51
0001
0011
1100
0000
,  // measure 52
0000
0000
0000
0000
0000
0000
0001
0000
1000
0000
0001
0000
0100
0000
0000
0001
,  // measure 53
1000
1010
0101
0000
,  // measure 54
0000
0000
0000
0000
0000
0000
0010
0000
1000
0000
0100
0000
0010
0000
0000
0001
,  // measure 55
1000
0000
0101
0000
0110
0010
1000
0001
,  // measure 56
0010
0000
0000
0000
0100
0000
0010
0000
0001
0000
0100
0000
0010
0000
0000
1000
,  // measure 57
0001
0000
1100
0000
0110
0010
0001
1000
,  // measure 58
0010
0000
0000
0000
0100
0000
0010
0000
1000
0000
0100
0000
0010
0000
0000
0001
,  // measure 59
1000
0000
0011
0000
0110
0100
1000
0001
,  // measure 60
0100
0000
0000
0000
0010
0000
0100
0000
0001
0000
0010
0000
0100
0000
0000
1000
,  // measure 61
0001
0000
1010
0000
0110
0100
0001
1000
,  // measure 62
0100
0000
0010
0100
1000
0010
0100
0000
,  // measure 63
1001
0000
1000
0002
0000
0000
0100
0000
,  // measure 64
0010
1000
0010
0103
,  // measure 65
1001
0000
0001
2000
0000
0000
0100
0000
,  // measure 66
0010
0000
0001
0000
0010
0000
3100
0001
,  // measure 67
0000
0100
1000
0010
1000
0100
0001
0100
,  // measure 68
0000
1100
0000
1010
0000
0010
0100
1000
,  // measure 69
0000
0100
0001
0010
0001
0100
1000
0100
,  // measure 70
0000
0101
0000
0011
0000
0010
0100
0001
,  // measure 71
0100
0000
1000
0000
0001
0000
0000
0000
0100
0000
0000
0100
0000
0000
0010
0000
,  // measure 72
0100
0000
0001
0000
1000
0000
0000
0000
0100
0000
0000
0100
0000
0000
0010
0000
,  // measure 73
0001
0000
0100
0000
0010
0000
0000
0000
0100
0000
0000
0100
0000
0000
0010
0000
,  // measure 74
1000
0000
0100
0000
0010
0000
0000
0000
0100
0000
0000
0100
0000
0000
0010
0000
,  // measure 75
0000
1001
0000
0101
0000
0110
0000
2200
,  // measure 76
0000
0000
0000
0000
0000
0000
0000
3300
;

//---------------dance-single - ----------------
#NOTES:
     dance-single:
     :
     Medium:
     7:
     0.481,0.523,0.465,0.078,0.000: // measure 1
0000
0000
0000
0000
,  // measure 2
0000
0000
0000
0000
,  // measure 3
0000
0000
0000
0000
,  // measure 4
0000
0000
0000
0000
,  // measure 5
0000
0000
0000
0000
,  // measure 6
0000
0000
0000
0000
,  // measure 7
1000
0000
0100
0000
0010
0000
0001
1000
,  // measure 8
0001
0100
0010
1000
,  // measure 9
0000
0101
0000
1001
0000
1100
0000
1001
,  // measure 10
0000
0000
1000
0000
0100
0000
0010
0001
,  // measure 11
0010
0001
0010
0000
0100
0000
1000
0100
,  // measure 12
1000
0000
0001
0000
0100
0000
0010
1000
,  // measure 13
0010
1000
0010
0000
0100
0000
0001
0100
,  // measure 14
0001
0010
0100
1001
,  // measure 15
0000
1000
0001
1000
0100
1000
0001
0010
,  // measure 16
0000
0100
0000
1000
0000
0010
1000
0001
,  // measure 17
0000
0001
1000
0001
0100
0001
1000
0010
,  // measure 18
0000
0100
0000
0001
0000
0010
0001
1000
,  // measure 19
0000
1000
0000
0000
0000
0001
0001
0001
,  // measure 20
0000
0001
0000
0000
0001
1000
0001
0010
,  // measure 21
0000
0001
1000
0010
0100
0010
1000
0001
,  // measure 22
0000
0010
0000
0100
0000
0110
0000
1001
,  // measure 23
0000
0001
1000
0100
1000
0010
1000
0001
,  // measure 24
0000
1000
0000
0001
0000
0100
0001
1000
,  // measure 25
0000
1000
0001
0100
0001
0010
0001
1000
,  // measure 26
0000
0001
0000
1000
0000
0100
1000
0001
,  // measure 27
0000
0001
0000
0000
0000
1000
1000
1000
,  // measure 28
0000
1000
0000
0000
1000
0001
1000
0010
,  // measure 29
0000
1000
0001
0010
0100
0010
0001
1000
,  // measure 30
0000
0010
0000
0100
0000
0110
0000
1001
,  // measure 31
1001
0000
0100
0000
0001
0000
1000
0100
,  // measure 32
1100
0100
0101
0100
,  // measure 33
0110
0010
0001
1000
,  // measure 34
0101
1000
0011
0110
,  // measure 35
1001
0000
0100
0000
1000
0000
0001
0100
,  // measure 36
0101
0100
1100
0100
,  // measure 37
0110
0010
1000
0001
,  // measure 38
1100
0001
1010
0110
,  // measure 39
1001
0000
0001
0000
0010
0000
0001
0100
,  // measure 40
0101
0000
0100
0000
1100
0000
0100
0001
,  // measure 41
0101
0000
1000
0000
0010
0000
1000
0100
,  // measure 42
1100
0000
0100
0000
0101
0000
0100
1000
,  // measure 43
2100
0000
0010
0010
,  // measure 44
0010
0000
3002
0000
,  // measure 45
0023
0000
0100
0230
,  // measure 46
2300
0000
0001
3001
,  // measure 47
1010
1010
0101
0000
,  // measure 48
0000
0000
0000
0100
0010
1000
0001
0000
,  // measure 49
1100
1100
0011
0000
,  // measure 50
0000
0000
0000
0100
0010
0001
1000
0000
,  // measure 51
0101
0101
1010
0000
,  // measure 52
0000
0000
0000
0010
0100
0001
1000
0000
,  // measure 53
0011
0011
1100
0000
,  // measure 54
0000
0000
0000
0010
0100
1000
0001
0000
,  // measure 55
1010
0000
1001
0000
0010
1000
0100
1000
,  // measure 56
0100
0000
0010
0001
1000
0001
0100
0000
,  // measure 57
0101
0000
1001
0000
0010
0001
0100
0001
,  // measure 58
0100
0000
0010
1000
0001
1000
0100
0000
,  // measure 59
1100
0000
1001
0000
0100
1000
0010
1000
,  // measure 60
0010
0000
0100
0001
1000
0001
0010
0000
,  // measure 61
0011
0000
1001
0000
0100
0001
0010
0001
,  // measure 62
0010
0000
0100
1000
0001
1000
0010
0000
,  // measure 63
1000
0000
1000
0002
0000
0000
0010
0000
,  // measure 64
0010
0000
1000
0003
,  // measure 65
0001
0000
0001
2000
0000
0000
0010
0000
,  // measure 66
0010
0000
0000
0000
0001
0000
3001
0001
,  // measure 67
0000
1000
0100
0010
0001
0100
0010
1000
,  // measure 68
0000
0100
0000
0001
0000
0100
1000
0001
,  // measure 69
0000
0001
0100
0010
1000
0100
0010
0001
,  // measure 70
0000
0100
0000
1000
0000
0100
0001
1000
,  // measure 71
0001
0000
1000
0000
0001
0000
0001
0010
,  // measure 72
0001
0000
0100
0000
1000
0000
0100
1000
,  // measure 73
0100
0000
0010
0000
0100
0000
1000
0100
,  // measure 74
0001
0001
0010
0100
,  // measure 75
0000
1001
0000
0101
0000
0110
0000
2200
,  // measure 76
0000
0000
0000
0000
0000
0000
0000
3300
;

//---------------dance-single - ----------------
#NOTES:
     dance-single:
     :
     Easy:
     6:
     0.379,0.464,0.276,0.078,0.000: // measure 1
0000
0000
0000
0000
,  // measure 2
0000
0000
0000
0000
,  // measure 3
0000
0000
0000
0000
,  // measure 4
0000
0000
0000
0000
,  // measure 5
0000
0000
0000
0000
,  // measure 6
0000
0000
0000
0000
,  // measure 7
1000
0100
1000
0000
,  // measure 8
0001
0100
0001
0000
,  // measure 9
1000
0010
0100
0010
,  // measure 10
0001
0000
0010
0010
,  // measure 11
1000
1000
0000
0000
1000
0000
1000
0000
,  // measure 12
0100
0000
0010
0010
,  // measure 13
0001
0001
0000
0000
0001
0000
0001
0000
,  // measure 14
0100
0000
0010
0010
,  // measure 15
1000
0000
0100
0000
0010
0000
0001
0010
,  // measure 16
0000
0100
0000
1000
0000
0001
0001
0000
,  // measure 17
0001
0000
0100
0000
0010
0000
1000
0010
,  // measure 18
0000
0100
0000
0001
0000
1000
1000
0100
,  // measure 19
0000
0000
0000
0000
0000
0010
0010
0100
,  // measure 20
0000
0000
0100
1000
,  // measure 21
0010
0000
0100
0000
0001
0000
0100
0010
,  // measure 22
0000
1000
0000
0001
0000
1001
0000
0110
,  // measure 23
0000
0010
1000
0000
0100
0000
0010
0100
,  // measure 24
0000
1000
0000
0010
0000
1000
1000
0000
,  // measure 25
1000
0000
0001
0000
0100
0000
0010
0100
,  // measure 26
0000
0001
0000
0010
0000
0001
0001
0100
,  // measure 27
0000
0000
0000
0000
0000
1000
1000
0100
,  // measure 28
0000
0000
0100
0001
,  // measure 29
1000
0000
0010
0000
1000
0000
0100
0010
,  // measure 30
0000
0001
0000
1000
0000
0110
0000
1001
,  // measure 31
1000
0010
0100
0001
,  // measure 32
1000
0100
0001
0100
,  // measure 33
1000
0100
0010
0001
,  // measure 34
1000
0000
0010
0000
0100
0000
0010
1000
,  // measure 35
0001
0100
0010
1000
,  // measure 36
0001
0010
1000
0010
,  // measure 37
0001
0010
0100
1000
,  // measure 38
0001
0000
0100
0000
0010
0000
0100
0001
,  // measure 39
1000
0100
0001
0100
,  // measure 40
1000
0000
0010
0000
0001
0000
0010
1000
,  // measure 41
0001
0010
1000
0100
,  // measure 42
0001
0000
0010
0000
1000
0000
0100
0001
,  // measure 43
2000
0000
0000
0000
,  // measure 44
0001
0000
3002
0000
,  // measure 45
0203
0000
0000
0302
,  // measure 46
0023
0000
0100
0130
,  // measure 47
0110
0110
1001
0000
,  // measure 48
0000
0000
0000
0001
0001
0000
0001
0000
,  // measure 49
1001
1001
0110
0000
,  // measure 50
0000
0000
0000
0010
0010
0000
0010
0000
,  // measure 51
0110
0110
1001
0000
,  // measure 52
0000
0000
0000
1000
1000
0000
1000
0000
,  // measure 53
1001
1001
0110
0000
,  // measure 54
0000
0000
0000
0100
0100
0000
0100
0000
,  // measure 55
0101
1010
0101
1000
,  // measure 56
0001
0000
0010
0000
0001
0010
0100
0000
,  // measure 57
1100
0011
1100
0001
,  // measure 58
1000
0000
0010
0000
1000
0001
0100
0000
,  // measure 59
1010
0101
1010
0001
,  // measure 60
1000
0000
0100
0000
1000
0100
0010
0000
,  // measure 61
0011
1100
0011
1000
,  // measure 62
0001
0000
0100
0000
0001
0100
0010
0000
,  // measure 63
1000
0000
0100
0020
0000
0000
0000
0000
,  // measure 64
0001
0000
0001
0000
,  // measure 65
0031
0000
0100
0020
0000
0000
0000
0000
,  // measure 66
1000
0000
0000
0000
1000
0000
1030
1000
,  // measure 67
0000
1000
0100
0010
0100
0010
0100
1000
,  // measure 68
0000
0001
0000
0010
0000
0001
0001
0001
,  // measure 69
0000
0001
0100
0010
0100
0010
0100
0001
,  // measure 70
0000
0010
0000
0100
0000
0000
1000
0000
,  // measure 71
1000
0001
0010
0001
,  // measure 72
0001
0100
0001
0100
,  // measure 73
0100
0010
0100
0010
,  // measure 74
0010
1000
0001
1000
,  // measure 75
0000
0110
0000
1001
0000
0110
0000
2002
,  // measure 76
0000
0000
0000
0000
,  // measure 77
0000
0000
0000
0000
0000
0000
0000
3003
;

//---------------dance-single - ----------------
#NOTES:
     dance-single:
     :
     Beginner:
     3:
     0.219,0.323,0.233,0.000,0.000: // measure 1
0000
0000
0000
0000
,  // measure 2
0000
0000
0000
0000
,  // measure 3
0000
0000
0000
0000
,  // measure 4
0000
0000
0000
0000
,  // measure 5
0000
0000
0000
0000
,  // measure 6
0000
0000
0000
0000
,  // measure 7
0001
0000
1000
0000
,  // measure 8
0010
0000
1000
0000
,  // measure 9
0001
0001
0001
0001
,  // measure 10
0001
0000
1000
0000
,  // measure 11
0010
0000
0100
0000
,  // measure 12
0001
0000
0010
0000
,  // measure 13
0100
0000
1000
0000
,  // measure 14
0001
0000
1000
1000
,  // measure 15
0000
0001
0001
0001
,  // measure 16
0000
0010
0010
0000
,  // measure 17
0000
1000
0001
0001
,  // measure 18
0001
0001
0000
1000
,  // measure 19
1000
0000
0000
0001
,  // measure 20
0001
0000
1000
1000
,  // measure 21
0000
0010
0010
0010
,  // measure 22
0000
0100
0000
0100
,  // measure 23
0100
0001
0001
0001
,  // measure 24
0001
0001
0001
0000
,  // measure 25
0000
1000
1000
1000
,  // measure 26
1000
1000
0000
0001
,  // measure 27
0001
0000
0000
1000
,  // measure 28
1000
0000
0001
0001
,  // measure 29
0000
0100
0100
0100
,  // measure 30
0000
0010
0000
0010
,  // measure 31
1001
0000
0100
0000
,  // measure 32
0010
0000
1000
0000
,  // measure 33
0001
0000
0001
0000
,  // measure 34
0100
0000
0010
0000
,  // measure 35
1000
0000
0100
0000
,  // measure 36
0010
0000
0001
0000
,  // measure 37
1000
0000
0010
0000
,  // measure 38
0100
0000
0010
0000
,  // measure 39
1000
0000
0001
0000
,  // measure 40
0100
0000
0010
0000
,  // measure 41
1000
0000
0100
0000
,  // measure 42
0010
0000
0001
0000
,  // measure 43
1000
0000
0000
0000
,  // measure 44
0001
0000
0000
0000
,  // measure 45
1000
0000
0000
0000
,  // measure 46
0010
0000
0000
0000
,  // measure 47
0110
0110
0110
0000
,  // measure 48
0000
0000
0000
0000
,  // measure 49
1001
1001
1001
0000
,  // measure 50
0000
0000
0000
0000
,  // measure 51
0110
0110
0110
0000
,  // measure 52
0000
0000
0000
0000
,  // measure 53
1001
1001
1001
0000
,  // measure 54
0000
0000
0000
0000
,  // measure 55
1001
0110
1001
0000
,  // measure 56
0100
0000
0010
0000
,  // measure 57
1001
0110
1001
0000
,  // measure 58
0010
0000
0100
0000
,  // measure 59
0110
1001
0110
0000
,  // measure 60
0001
0000
1000
0000
,  // measure 61
0110
1001
0110
0000
,  // measure 62
0001
0000
1000
0000
,  // measure 63
0110
0000
1000
0000
,  // measure 64
0000
0000
0000
0000
,  // measure 65
0110
0000
0001
0000
,  // measure 66
0000
0000
0000
0000
,  // measure 67
0000
0001
0001
0001
,  // measure 68
0001
0001
0001
0000
,  // measure 69
0000
1000
1000
1000
,  // measure 70
1000
1000
1000
0000
,  // measure 71
0001
0000
1000
0000
,  // measure 72
0010
0000
0100
0000
,  // measure 73
0001
0000
1000
0000
,  // measure 74
0100
0000
0010
0000
,  // measure 75
0000
0001
0000
0001
0000
0001
0000
0001
;
