#TITLE:Healing-D-Vision;
#SUBTITLE:;
#ARTIST:DE-STRAD;
#TITLETRANSLIT:;
#SUBTITLETRANSLIT:;
#ARTISTTRANSLIT:;
#CREDIT:Kewing DarkSun;
#BANNER:Healing-D-Vision.PNG;
#BACKGROUND:Healing-D-Vision-bg.PNG;
#LYRICSPATH:;
#CDTITLE:!Kewing DarkSun (cdtitle).png;
#MUSIC:Dance Dance Revolution SuperNOVA - Healing-D-Vision.mp3;
#OFFSET:-1.395;
#SAMPLESTART:6.660;
#SAMPLELENGTH:11.980;
#SELECTABLE:YES;
#BPMS:0.000=180.000,208.000=359.999;
#STOPS:;
#BGCHANGES:;

//---------------dance-single - ----------------
#NOTES:
     dance-single:
     :
     Challenge:
     10:
     0.755,1.000,0.968,0.019,1.000: // measure 1
0000
0000
0000
0000
,  // measure 2
0000
0000
0000
0000
,  // measure 3
0000
0000
0000
0000
,  // measure 4
0000
0000
0000
0000
,  // measure 5
1001
0000
1000
0001
0000
1000
0001
0000
0000
0010
0000
0000
,  // measure 6
0101
0000
0001
0100
0000
0001
0100
0000
0000
0001
0000
0000
,  // measure 7
1000
0000
0100
0010
0000
0100
0010
0000
0000
0001
0000
0000
,  // measure 8
0011
0101
1010
1100
,  // measure 9
1001
0000
0001
1000
0000
0001
1000
0000
0000
0010
0000
0000
,  // measure 10
1100
0000
1000
0100
0000
1000
0100
0000
0000
1000
0000
0000
,  // measure 11
0101
0000
0100
0010
0000
0100
0010
0000
0000
1000
0000
0000
,  // measure 12
0100
0000
0010
0001
0000
0000
0100
0000
0010
1000
0000
0000
,  // measure 13
1001
0000
0000
1000
0000
0000
0100
0000
0010
0000
0001
0000
,  // measure 14
0101
0000
0000
0001
0000
1000
0100
0000
0000
1000
0000
0001
,  // measure 15
0100
0000
0000
0001
0000
0000
0010
0000
0100
0000
1000
0000
,  // measure 16
1010
1100
0011
0101
,  // measure 17
1001
0000
0000
0001
0000
0000
0100
0000
0010
0000
1000
0000
,  // measure 18
1100
0000
0000
1000
0000
0001
0100
0000
0000
0001
0000
1000
,  // measure 19
1100
0000
0000
1000
0000
0000
0010
0000
0100
0000
0001
0000
,  // measure 20
0010
0000
0000
0001
0000
1000
0010
0000
0000
0110
0000
0000
,  // measure 21
0001
1000
0001
1000
0000
0001
0100
0000
0100
0010
0000
0010
,  // measure 22
1000
0000
1000
0001
0000
0001
0010
0100
0010
0100
0010
0100
,  // measure 23
1000
0000
1000
0010
0000
0010
1000
0000
1000
0100
0000
0100
,  // measure 24
0010
0000
0010
0001
0000
0001
0100
0010
0100
0010
0100
0010
,  // measure 25
1000
0000
1000
0001
0000
0001
0010
0000
0010
1000
0000
1000
,  // measure 26
0010
0000
0010
0100
0000
0100
1000
0001
1000
0001
1000
0001
,  // measure 27
0010
0000
0010
0001
0000
0001
0100
0000
0100
1000
0000
1000
,  // measure 28
0100
0000
0100
0010
0000
0010
1000
0010
1000
0001
1000
0100
,  // measure 29
1000
0000
0000
0100
0000
0001
0000
0000
0100
0000
0000
1000
,  // measure 30
0010
0000
0000
0100
0000
0000
1000
0000
0100
0000
0000
0001
,  // measure 31
1000
0000
0000
0100
0000
0010
0000
0000
0100
0000
0000
0001
,  // measure 32
0100
0000
0000
1000
0000
0000
0010
0000
0100
0000
0000
0000
,  // measure 33
1001
0000
0000
0100
0000
1000
0000
0000
0100
0000
0000
0001
,  // measure 34
0010
0000
0000
0100
0000
0000
0001
0000
0100
0000
0000
1000
,  // measure 35
0001
0000
0000
0100
0000
0010
0000
0000
0100
0000
0000
1000
,  // measure 36
0100
0000
0000
0001
0000
0000
0010
0000
0100
0000
0000
0000
,  // measure 37
1000
0001
1000
0010
0000
1000
0001
0000
0010
0100
0000
0010
,  // measure 38
0001
0000
1000
0010
0000
0100
0001
0000
1000
0100
0000
0010
,  // measure 39
0001
1000
0001
0010
0000
0001
1000
0000
0010
0100
0000
0010
,  // measure 40
1000
0000
0001
0010
0000
0100
1000
0000
0001
0100
0000
0000
,  // measure 41
0010
0000
0110
0000
1010
0000
1001
0000
0011
0000
0000
0000
,  // measure 42
0100
0000
0110
0000
0011
0000
1001
0000
1010
0000
0000
0000
,  // measure 43
0100
0000
0110
0000
0101
0000
1001
0000
1100
0000
0000
0000
,  // measure 44
0110
0000
0000
0000
,  // measure 45
1100
0000
1001
0000
1010
0000
1001
0000
1100
0000
0000
0000
,  // measure 46
0011
0000
1001
0000
1100
0000
1001
0000
0101
0000
0000
0000
,  // measure 47
0101
0000
1001
0000
0011
0000
1001
0000
0101
0000
0000
0000
,  // measure 48
1010
0000
1001
0000
0101
0000
1001
0000
1100
0000
0000
0000
,  // measure 49
1010
0000
0110
0000
0101
0000
1001
0000
0011
0000
0000
0000
,  // measure 50
0011
0000
0110
0000
1100
0000
1001
0000
1010
0000
0000
0000
,  // measure 51
0101
0000
0011
0000
1100
0000
1010
0000
0110
0000
0000
0000
,  // measure 52
1001
0000
0000
0000
,  // measure 53
1010
0000
0000
0000
1001
0000
0000
0000
0011
0000
0000
0000
,  // measure 54
0110
0000
0000
0000
1001
0000
0000
0000
0000
0000
0000
0000
,  // measure 55
0011
0000
0000
0000
1001
0000
0000
0000
1010
0000
0000
0000
,  // measure 56
0110
0000
0000
0000
1001
0000
0000
0000
0000
0000
0000
0000
,  // measure 57
1100
0000
0000
0000
1010
0000
0000
0000
0101
0000
0000
0000
,  // measure 58
0011
0000
0000
0000
1001
0000
0000
0000
0000
0000
0001
0000
,  // measure 59
1000
0000
0000
0000
0010
0000
0000
0000
0100
0000
0000
0000
,  // measure 60
0001
0000
0000
0000
0010
0000
0000
0000
0100
0000
0000
0000
,  // measure 61
1000
0000
0010
0000
1000
0000
0001
0000
0000
0000
0001
0000
,  // measure 62
0010
0000
0000
0000
0100
0000
1000
0000
0000
0000
1000
0000
,  // measure 63
0010
0000
0000
0000
0001
0000
0010
0000
1000
0000
0001
0000
,  // measure 64
1000
0000
0000
0000
0100
0000
0010
0000
0000
0000
0001
0000
,  // measure 65
0100
0000
0010
0000
0100
0000
0001
0000
0000
0000
0010
0000
,  // measure 66
0100
0000
1000
0000
0010
0000
0100
0000
0000
0000
0100
0000
,  // measure 67
0001
0000
0000
0000
1000
0000
0100
0000
0010
0000
0001
0000
,  // measure 68
0100
0000
0010
0000
1000
0000
0001
0000
0000
0000
0000
0000
,  // measure 69
0001
0000
0010
0000
0001
0000
1000
0000
0000
0000
1000
0000
,  // measure 70
0010
0000
0000
0000
0100
0000
0001
0000
0000
0000
0001
0000
,  // measure 71
0010
0000
0000
0000
1000
0000
0010
0000
0001
0000
1000
0000
,  // measure 72
0001
0000
0000
0000
0100
0000
0010
0000
0000
0000
1000
0000
,  // measure 73
0100
0000
0010
0000
0100
0000
1000
0000
0000
0000
0010
0000
,  // measure 74
0100
0000
0001
0000
0010
0000
0100
0000
1000
0000
0010
0000
,  // measure 75
0100
0000
0000
0000
0001
0000
0100
0000
0000
0000
1000
0000
,  // measure 76
0100
0000
0000
0000
0110
0000
0000
0000
0000
0000
0000
0000
,  // measure 77
1000
0000
0100
0000
0001
0000
0100
0000
0010
0000
0100
0000
,  // measure 78
1000
0000
0010
0000
0100
0000
0001
0000
1000
0000
0000
0000
,  // measure 79
0001
0000
0100
0000
1000
0000
0100
0000
0010
0000
0100
0000
,  // measure 80
0001
0000
0010
0000
0100
0000
1000
0000
0001
0000
0000
0000
,  // measure 81
1000
0000
0010
0000
0001
0000
0010
0000
1000
0000
0010
0000
,  // measure 82
0100
0000
0001
0000
0010
0000
0100
0000
1000
0000
0000
0000
,  // measure 83
0001
0000
0010
0000
1000
0000
0010
0000
0001
0000
0010
0000
,  // measure 84
0100
0000
1000
0000
0010
0000
0100
0000
0001
0000
0000
0000
,  // measure 85
0101
0000
0000
0000
0110
0000
0000
0000
1100
0000
0000
0000
,  // measure 86
0110
0000
0000
0000
1001
0000
0000
0000
0000
0000
0000
0000
,  // measure 87
1100
0000
0000
0000
0110
0000
0000
0000
0101
0000
0000
0000
,  // measure 88
0110
0000
0000
0000
1001
0000
0000
0000
0000
0000
0000
0000
,  // measure 89
0101
0000
0000
0000
0011
0000
0000
0000
1100
0000
0000
0000
,  // measure 90
1010
0000
0000
0000
1001
0000
0000
0000
0000
0000
0000
0000
,  // measure 91
1000
0000
0000
0000
0100
0000
0000
0000
0001
0000
0000
0000
,  // measure 92
0010
0000
0000
0000
1000
0000
0000
0000
0100
0000
0000
0000
,  // measure 93
0002
0000
2000
0000
0000
0000
0000
0000
0000
0000
0000
0000
,  // measure 94
0000
0000
0000
0000
,  // measure 95
0000
0000
0000
0000
,  // measure 96
0000
0000
0000
0000
,  // measure 97
3003
0000
0000
0000
;
