#TITLE:HALOGEN;
#SUBTITLE:;
#ARTIST:Marc Horizon;
#TITLETRANSLIT:;
#SUBTITLETRANSLIT:;
#ARTISTTRANSLIT:;
#CREDIT:Kewing Darksun;
#BANNER:HALOGEN.png;
#BACKGROUND:HALOGEN-bg.png;
#LYRICSPATH:;
#CDTITLE:!Kewing DarkSun (cdtitle).png;
#MUSIC:Horizonworks-Halogen.mp3;
#OFFSET:-0.065;
#SAMPLESTART:41.151;
#SAMPLELENGTH:12.000;
#SELECTABLE:YES;
#BPMS:0.000=140.000;
#STOPS:;
#BGCHANGES:;

//---------------dance-single - Basic----------------
#NOTES:
     dance-single:
     Basic:
     Easy:
     4:
     0.236,0.386,0.138,0.094,0.000: // measure 1
0000
0000
0000
0000
,  // measure 2
0000
0000
0000
0000
,  // measure 3
0000
0000
0000
0000
,  // measure 4
0000
0000
0000
0000
,  // measure 5
0000
0000
0000
0000
,  // measure 6
0000
0000
0000
0000
,  // measure 7
0000
0000
0000
0000
,  // measure 8
0000
0000
0000
0000
,  // measure 9
2000
3000
0002
0003
,  // measure 10
0100
0002
0003
0010
,  // measure 11
0002
0003
2000
3000
,  // measure 12
0100
2000
3000
0010
,  // measure 13
2000
3000
0200
0300
,  // measure 14
0010
0002
0003
1000
,  // measure 15
0001
0100
0001
0000
,  // measure 16
1000
0001
0001
1000
,  // measure 17
1001
0000
1000
0000
,  // measure 18
0010
0000
0100
0000
,  // measure 19
0001
0000
1000
0000
,  // measure 20
0100
0000
0010
0000
,  // measure 21
1001
0000
0100
0000
,  // measure 22
0010
0000
1000
0000
,  // measure 23
0001
0000
0100
0000
,  // measure 24
0010
1000
0100
0010
,  // measure 25
1001
0000
1000
0010
,  // measure 26
1000
0000
0001
1000
,  // measure 27
0001
0000
0100
0001
,  // measure 28
0100
0100
0010
1000
,  // measure 29
0001
0000
0001
0010
,  // measure 30
0001
0000
1000
0001
,  // measure 31
1000
0000
0100
1000
,  // measure 32
0100
0100
0010
0001
,  // measure 33
1000
0000
1000
0001
,  // measure 34
0100
0000
0010
1000
,  // measure 35
0001
0000
1000
0100
,  // measure 36
0110
0010
0001
0100
,  // measure 37
0010
0000
0001
1000
,  // measure 38
0010
0000
0100
0001
,  // measure 39
1000
0000
0001
0100
,  // measure 40
0110
0010
1000
0100
,  // measure 41
0110
0100
0000
0200
,  // measure 42
0000
0000
0000
0300
,  // measure 43
0010
0010
0000
0002
,  // measure 44
0000
0000
0000
0003
,  // measure 45
0100
0100
0000
0020
,  // measure 46
0000
0000
0000
0030
,  // measure 47
0100
0010
0100
0010
,  // measure 48
1000
0001
1000
0001
,  // measure 49
0110
0000
0001
0000
,  // measure 50
0100
0000
0010
0000
,  // measure 51
1000
0000
0100
0000
,  // measure 52
0010
0000
0001
1000
,  // measure 53
1001
0000
0010
0000
,  // measure 54
0100
0000
0001
1000
,  // measure 55
1001
0000
0010
0100
,  // measure 56
1001
0110
1001
0110
,  // measure 57
1001
1000
0010
0200
,  // measure 58
0000
0000
0000
0300
,  // measure 59
1000
0001
0010
0200
,  // measure 60
0000
0000
0000
0300
,  // measure 61
1100
0011
1100
0011
,  // measure 62
0001
0010
0100
1000
,  // measure 63
0001
0000
0010
0000
,  // measure 64
0010
0001
0100
0010
,  // measure 65
1001
0000
0001
0010
,  // measure 66
0001
0000
1000
0001
,  // measure 67
1000
0000
0100
1000
,  // measure 68
0100
0100
0010
0001
,  // measure 69
1000
0000
1000
0010
,  // measure 70
1000
0000
0001
1000
,  // measure 71
0001
0000
0100
0001
,  // measure 72
0100
0100
0010
1000
,  // measure 73
0001
0000
0001
1000
,  // measure 74
0100
0000
0010
0001
,  // measure 75
1000
0000
0001
0100
,  // measure 76
0110
0010
1000
0100
,  // measure 77
0010
0000
1000
0001
,  // measure 78
0010
0000
0100
1000
,  // measure 79
0001
0000
1000
0100
,  // measure 80
0110
0010
0001
0100
,  // measure 81
0110
0000
0000
0010
0000
0000
0010
0000
,  // measure 82
1000
0000
0000
1000
0000
0000
1000
0000
,  // measure 83
0001
0000
0000
0001
0000
0000
0001
0000
,  // measure 84
0100
0000
0000
0100
0000
0000
0100
0000
,  // measure 85
0010
0000
0000
0010
0000
0000
0010
0000
,  // measure 86
1000
0000
0000
0100
0000
0000
0100
0000
,  // measure 87
0010
0000
0000
0010
0000
0000
0010
0000
,  // measure 88
1000
0000
0002
0000
,  // measure 89
0003
0000
0000
0000
;

//---------------dance-single - Standard----------------
#NOTES:
     dance-single:
     Standard:
     Medium:
     6:
     0.341,0.414,0.138,0.075,0.000: // measure 1
0000
0000
0000
0000
,  // measure 2
0000
0000
0000
0000
,  // measure 3
0000
0000
0000
0000
,  // measure 4
0000
0000
0000
0000
,  // measure 5
0000
0000
0000
0000
,  // measure 6
0000
0000
0000
0000
,  // measure 7
0000
0000
0000
0000
,  // measure 8
0000
0000
0000
1000
,  // measure 9
2001
3001
0200
0301
,  // measure 10
1000
0010
2000
0000
3000
0000
0001
0000
,  // measure 11
1002
1003
0200
1300
,  // measure 12
0001
0010
0002
0000
0003
0000
0100
0000
,  // measure 13
0120
1030
0002
0103
,  // measure 14
0010
0100
0020
0000
0030
0000
1000
0100
,  // measure 15
0010
0000
0001
0000
0010
0100
0000
1000
,  // measure 16
0010
0000
0100
0001
0000
1000
0001
0000
,  // measure 17
1001
0000
0000
0001
0000
0000
0001
0000
,  // measure 18
1000
0000
0000
1000
0000
0000
1000
0000
,  // measure 19
0100
0000
0000
0100
0000
0000
0100
0000
,  // measure 20
0010
0000
0000
0010
0000
0000
0010
0000
,  // measure 21
0110
0000
0000
0010
0000
0000
0001
0000
,  // measure 22
0100
0000
0000
0010
0000
0000
1000
0000
,  // measure 23
1001
0000
0000
0100
0000
0000
0010
0000
,  // measure 24
0001
0100
0010
1000
0000
0100
0010
0000
,  // measure 25
1001
0000
1000
0010
0000
0100
0001
0000
,  // measure 26
0010
1000
0010
0001
,  // measure 27
1000
0000
1000
0100
0000
0010
0001
0000
,  // measure 28
0100
1000
0100
0001
,  // measure 29
0100
0000
0100
0010
0000
1000
0001
0000
,  // measure 30
0010
0100
1000
0100
,  // measure 31
0010
0000
0010
0100
0000
1000
0001
0000
,  // measure 32
0010
0000
0100
0000
1000
0010
0001
0000
,  // measure 33
0010
0000
1000
0001
0000
0001
0100
0000
,  // measure 34
0010
0000
0100
0000
0001
0010
1000
0000
,  // measure 35
0010
0000
0001
1000
0000
1000
0100
0000
,  // measure 36
0010
0000
0001
0000
1000
0010
0001
0000
,  // measure 37
0010
0000
1000
0001
0000
0001
0010
0000
,  // measure 38
0100
0000
0010
0000
0001
0100
1000
0000
,  // measure 39
0100
0000
0001
1000
0000
1000
0010
0000
,  // measure 40
0100
0000
0001
0010
0100
1000
0010
0000
,  // measure 41
1001
0000
0000
1000
0000
0000
1000
0000
,  // measure 42
1000
0000
0000
0100
0000
0000
0100
0000
,  // measure 43
0100
0000
0000
0010
0000
0000
0010
0000
,  // measure 44
0010
0000
0000
0001
0000
0000
0001
0000
,  // measure 45
0001
0000
0100
0010
0000
0000
0010
0000
,  // measure 46
0010
0000
0000
1000
0000
0000
1000
0000
,  // measure 47
1000
0000
0100
0010
0000
0000
0010
0000
,  // measure 48
0010
0000
0000
0001
0000
0000
0001
0000
,  // measure 49
1000
0001
0010
0100
,  // measure 50
1000
0010
0100
0001
,  // measure 51
1000
0010
0001
0010
,  // measure 52
1000
0100
0001
0100
,  // measure 53
1100
1000
0001
0010
,  // measure 54
1000
0010
0001
0100
,  // measure 55
1001
0100
0001
1000
,  // measure 56
0101
0110
1010
1100
,  // measure 57
0110
0000
0100
0010
0000
0001
0020
0000
,  // measure 58
1000
0000
0001
0030
,  // measure 59
0001
0000
0100
0010
0000
1000
0020
0000
,  // measure 60
0001
0000
1000
0030
,  // measure 61
1100
0110
0011
0110
,  // measure 62
1100
1000
0010
0100
,  // measure 63
0001
0000
1000
0100
0000
0010
0001
0000
,  // measure 64
1000
0010
0100
0001
0000
0010
0100
0000
,  // measure 65
1001
0000
0001
0010
0000
0100
1000
0000
,  // measure 66
0010
0001
0010
1000
,  // measure 67
0001
0000
0001
0100
0000
0010
1000
0000
,  // measure 68
0100
0001
0100
1000
,  // measure 69
0100
0000
0100
0010
0000
0001
1000
0000
,  // measure 70
0010
0100
0001
0100
,  // measure 71
0010
0000
0010
0100
0000
0001
1000
0000
,  // measure 72
0010
0000
0100
0000
0001
0010
1000
0000
,  // measure 73
0010
0000
0001
1000
0000
1000
0100
0000
,  // measure 74
0010
0000
0100
0000
1000
0010
0001
0000
,  // measure 75
0010
0000
1000
0001
0000
0001
0100
0000
,  // measure 76
0010
0000
1000
0000
0001
0010
1000
0000
,  // measure 77
0010
0000
0001
1000
0000
1000
0010
0000
,  // measure 78
0100
0000
0010
0000
1000
0100
0001
0000
,  // measure 79
0100
0000
1000
0001
0000
0001
0010
0000
,  // measure 80
0100
0000
1000
0010
0100
0001
0010
0000
,  // measure 81
1001
0000
0100
1000
0000
0100
1000
0000
,  // measure 82
0100
0000
0010
0100
0000
0010
0100
0000
,  // measure 83
0010
0000
0001
0010
0000
0001
0010
0000
,  // measure 84
0001
0000
0100
0001
0000
0100
0001
0000
,  // measure 85
0100
0000
0010
0100
0000
0010
0100
0000
,  // measure 86
0010
0000
1000
0010
0000
1000
0010
0000
,  // measure 87
1000
0000
0100
0001
0000
0100
1000
0000
,  // measure 88
1000
0000
0002
0000
,  // measure 89
0003
0000
0000
0000
;

//---------------dance-single - Heavy----------------
#NOTES:
     dance-single:
     Heavy:
     Hard:
     7:
     0.388,0.414,0.144,0.006,0.000:
0000
0000
0000
0000
,
0000
0000
0000
0000
,
0000
0000
0000
0000
,
0000
0000
0000
0000
,
0000
0000
0000
0000
,
0000
0000
0000
0000
,
0000
0000
0000
0000
,
0000
0000
0000
0000
,
1000
0100
1000
0100
,
0010
0001
0100
0000
0000
0000
0010
0100
,
0001
0100
0001
0100
,
0010
1000
0100
0000
0000
0000
0010
0100
,
0010
0100
0010
0100
,
1000
0001
0100
0000
0000
0000
0010
0100
,
0010
1000
0100
0000
0100
0010
0000
0100
,
0001
0000
0100
0010
0000
0100
1000
0000
,
1001
0000
0010
0001
0000
0010
0001
0000
,
1000
0000
0010
1000
0000
0010
1000
0000
,
0001
0000
0100
0001
0000
0100
0001
0000
,
1000
0000
0100
1000
0000
0100
1000
0000
,
0011
0000
0010
0001
0000
0010
0001
0000
,
0100
0000
0010
0100
0000
0010
0100
0000
,
1100
0000
0100
1000
0000
0100
1000
0000
,
0100
0001
0010
0001
0100
0001
1000
0000
,
1001
0000
0001
0100
0001
0000
1000
0000
,
0001
0000
0100
0001
1000
0001
0100
0000
,
0001
0000
0010
0100
0010
0000
0100
0000
,
1000
0000
0001
1000
0010
1000
0001
0000
,
1000
0000
1000
0100
1000
0000
0001
0000
,
1000
0000
0100
1000
0001
1000
0100
0000
,
1000
0000
0010
0100
0010
0000
0100
0000
,
0001
0000
1000
0001
0010
0001
1000
0000
,
0100
0010
0001
0000
0100
0000
1000
0000
,
0100
0001
1000
0000
0100
0000
0011
0000
,
0010
0100
1000
0000
0010
0000
0001
0000
,
0010
1000
0001
0000
0010
0000
1100
0000
,
1000
0100
0001
0000
1000
0000
0010
0000
,
1000
0010
0001
0000
0010
0000
0001
0000
,
0001
0100
1000
0000
0001
0000
0010
0000
,
0001
0010
1000
0000
0100
0000
0010
0000
,
1001
0000
0100
0001
0000
1000
0010
0000
,
1000
0000
0100
1000
0000
0001
0010
0000
,
1001
0000
0100
1000
0000
0001
0010
0000
,
0001
0000
0100
0001
0000
1000
0010
0000
,
1001
0000
0010
0001
0000
1000
0100
0000
,
1000
0000
0010
1000
0000
0001
0100
0000
,
1001
0000
0010
1000
0000
0001
0100
0000
,
0001
0000
0010
0001
0000
1000
0100
0000
,
1000
0010
1000
0001
0000
0001
1000
0000
,
0001
0010
0001
1000
0000
1000
0001
0000
,
0100
0010
0100
0010
0000
0010
0100
0000
,
0001
0000
1000
0001
0000
0001
1000
0000
,
0110
0000
0001
0010
0000
0001
0010
0000
,
0100
0000
1000
0100
0000
0001
0100
0000
,
0010
0100
1000
0000
0010
0100
0001
0000
,
0010
0100
1000
0010
0100
0001
0010
0000
,
1001
0000
0001
1000
0000
0001
0100
0000
,
0001
0000
0000
0100
0000
0100
0010
0000
,
1001
0000
1000
0001
0000
1000
0100
0000
,
1000
0000
0000
0100
0000
0100
0010
0000
,
0011
0101
0110
1010
,
1100
1000
0010
1000
,
1001
0000
0100
1000
0000
0010
0001
0000
,
0010
1000
0100
1000
0010
1000
0001
0000
,
1001
0000
1000
0100
1000
0000
0001
0000
,
1000
0000
0100
1000
0001
1000
0100
0000
,
1000
0000
0010
0100
0010
0000
0100
0000
,
0001
0000
1000
0001
0010
0001
1000
0000
,
0001
0000
0001
0100
0001
0000
1000
0000
,
0001
0000
0100
0001
1000
0001
0100
0000
,
0001
0000
0010
0100
0010
0000
0100
0000
,
1000
0000
0001
1000
0010
1000
0001
0000
,
0100
0010
1000
0000
0100
0000
0001
0000
,
0100
1000
0001
0000
0100
0000
1010
0000
,
0010
0100
0001
0000
0010
0000
1000
0000
,
0010
0001
1000
0000
0010
0000
0101
0000
,
0001
0100
1000
0000
0001
0000
0010
0000
,
0001
0010
1000
0000
0010
0000
1000
0000
,
1000
0100
0001
0000
1000
0000
0010
0000
,
1000
0010
0001
0000
0100
0000
0010
0000
,
1001
0000
1000
0100
0000
0001
0100
0000
,
0010
0000
0001
0100
0000
1000
0100
0000
,
0010
0000
1000
0010
0000
0001
0010
0000
,
0100
0000
0001
0010
0000
1000
0010
0000
,
0100
0000
1000
0100
0000
0001
0001
0000
,
0100
0000
1000
0010
0000
0001
0001
0000
,
0010
0000
1000
0100
0000
0001
0010
0000
,
1000
0000
0002
0000
,
0003
0000
0000
0000
;
