#TITLE:Going Under;
#SUBTITLE:(DDR Edit);
#ARTIST:Evanescence;
#TITLETRANSLIT:;
#SUBTITLETRANSLIT:;
#ARTISTTRANSLIT:;
#CREDIT:Kewing Darksun;
#BANNER:Going Under.png;
#BACKGROUND:Going Under-bg.png;
#LYRICSPATH:;
#CDTITLE:!Kewing DarkSun (cdtitle).png;
#MUSIC:Going Under.mp3;
#OFFSET:-0.262;
#SAMPLESTART:24.900;
#SAMPLELENGTH:12.000;
#SELECTABLE:YES;
#BPMS:0.000=87.560;
#STOPS:;
#BGCHANGES:;

//---------------dance-single - ----------------
#NOTES:
     dance-single:
     :
     Hard:
     8:
     0.445,0.406,0.108,0.108,0.348: // measure 1
0000
0000
0000
0000
,  // measure 2
0000
0000
0000
0000
,  // measure 3
1000
0000
0100
0000
0010
0100
0000
1000
0000
0010
0000
0100
0000
0001
0000
0001
,  // measure 4
0010
0000
0001
0000
1000
0010
0000
0100
0001
0000
0010
0000
0100
0000
0000
0000
,  // measure 5
2000
0000
0000
3100
0000
0000
0010
0000
0002
0000
0000
0103
0000
0000
0010
0000
,  // measure 6
2000
0000
0000
3100
0000
0000
0001
0000
0200
0000
0000
0000
1300
0000
0100
0000
,  // measure 7
0020
0000
0130
0000
0010
0001
0100
0010
,  // measure 8
2000
0000
0000
0000
3100
0000
0010
0001
1000
0001
0100
0000
0010
0000
0000
0000
,  // measure 9
0001
0000
1000
0000
0010
0000
0200
0000
0000
0000
0310
0000
0100
0000
0001
0010
,  // measure 10
0001
0000
1000
0000
0010
0100
0000
0001
1000
0000
0100
0000
0001
0000
0100
0000
,  // measure 11
1000
0000
0001
0000
0100
0010
0000
1000
0001
0000
0010
0000
1000
0000
0000
0000
,  // measure 12
0001
0000
0010
0000
0100
0010
0000
0001
0000
0100
0000
0010
0000
1000
0000
1000
,  // measure 13
0100
0000
0010
0000
0001
1000
0010
1000
0001
0000
0010
0000
1000
0000
0010
0000
,  // measure 14
0001
1000
0001
0000
0010
0000
0001
0000
1000
0100
1000
0000
0010
0000
1000
0000
,  // measure 15
0001
0100
0001
0000
0010
0000
0100
0000
1001
0000
0000
0000
0010
0000
0100
0000
,  // measure 16
0220
0000
0330
0000
1010
1000
1001
0001
,  // measure 17
0101
0000
0100
0000
0010
0000
1000
0001
0010
0001
1000
0000
0010
0000
0000
0000
,  // measure 18
1000
0100
0010
0001
0010
0100
1000
0001
,  // measure 19
0100
0010
1000
0010
0100
0001
1000
0100
,  // measure 20
0010
0001
0010
0100
1000
0001
0100
0010
,  // measure 21
1000
0010
0100
0001
0010
1000
0100
0001
,  // measure 22
1001
0000
0000
0000
1000
0000
0010
0000
0100
0001
1000
0000
0010
0000
0100
0001
,  // measure 23
1000
0000
0100
0000
0010
0000
0001
0000
0010
0100
0010
0000
0001
0000
0100
0010
,  // measure 24
0100
0000
0010
0000
1000
0000
0100
0000
0010
0001
1000
0000
0100
0000
0010
0001
,  // measure 25
1000
0000
0010
0000
0100
0000
0001
0000
1000
0100
0010
0100
1000
0000
0010
0100
,  // measure 26
0001
0000
0010
0000
1000
0000
0010
0001
1000
0010
0100
0000
0001
0000
0100
0010
,  // measure 27
1000
0000
0100
0000
0001
0000
0100
0000
1000
0010
0100
0000
0010
0000
0100
0001
,  // measure 28
0010
0000
1000
0000
0010
0000
0001
0000
0100
0010
1000
0100
0010
0001
0100
0000
,  // measure 29
0100
0001
0010
0000
0100
0000
1000
0000
0100
0010
0001
0100
1000
0100
0001
0010
,  // measure 30
0100
0000
0000
0000
0000
0000
0000
0110
0000
0000
0000
0000
0000
0000
0010
0000
0000
0000
0100
0000
0000
0000
0000
0000
0000
0000
1001
0000
0000
0000
1001
0000
0000
0000
0000
0000
0000
0000
0000
0000
0000
0000
0000
0000
0000
0000
0000
0000
0000
0000
0000
0000
0000
0000
0000
0000
0000
0000
0000
0000
0000
0000
0000
0000
;

//---------------dance-single - ----------------
#NOTES:
     dance-single:
     :
     Easy:
     2:
     0.205,0.300,0.204,0.395,0.012:
0000
0000
0000
0000
,
0000
0000
0000
0000
,
1000
0000
0010
0000
,
0100
0001
0100
0000
,
0002
0000
0000
0003
0020
0000
0000
0030
,
0100
1000
0100
0000
,
2020
3030
0220
0330
,
0202
0000
0303
0000
2002
0000
0000
3003
,
0020
0000
0000
0030
,
1001
0000
0100
0000
,
0010
1000
0002
0003
,
0100
0100
0001
1000
,
0200
0000
0310
0000
,
0001
1000
0010
0100
,
0001
1000
1001
0010
,
2002
3003
0022
0033
,
0220
0330
2200
3300
,
0002
0000
0000
0000
,
2003
0000
0000
0000
,
3020
0000
0000
0000
,
0230
0000
0000
0300
,
2010
0000
0001
0001
,
3002
0003
0100
0001
,
0012
0000
1000
1000
,
2003
3000
1000
0100
,
0021
0000
0100
0100
,
0230
0300
0010
0001
,
1200
0010
0010
0320
,
0000
0030
0001
0000
0100
0000
0010
0000
,
1001
0000
0000
0000
0000
0000
0000
0110
0000
0000
0000
0000
0000
0000
0000
1001
0000
0000
0000
0000
0000
0000
0000
0000
0000
0000
0000
0000
0000
0000
0000
0000
;

//---------------dance-single - Copied from----------------
#NOTES:
     dance-single:
     Copied from:
     Medium:
     5:
     0.296,0.300,0.228,0.300,0.024:
0000
0000
0000
0000
,
0000
0000
0000
0000
,
1000
0100
0010
0001
,
1000
0001
0100
0000
0010
0000
1000
0000
,
1200
1300
0210
0310
,
0021
0031
0100
0010
,
0120
1030
1100
0011
,
0220
0000
0000
0330
2002
0000
0000
3003
,
0010
0100
0010
2000
0000
0002
0000
3003
,
0100
0001
1000
0000
0100
0000
0010
0000
,
0001
1000
0010
1000
0001
0000
0010
0000
,
0100
0000
1000
0100
1000
0100
0010
0001
,
0100
0000
0100
0000
0100
0010
1000
0100
,
0020
0000
0130
0010
0002
0000
1003
0010
,
0200
0000
0310
0100
0002
0000
1003
0001
,
1001
1000
0101
1010
,
0022
0000
0000
0033
0020
0200
0000
0330
,
2001
0000
0000
0000
,
3002
0000
0000
0000
0000
0000
0000
0203
,
0000
0000
0000
0000
0000
0000
0000
0000
0000
0000
0000
0000
0000
0300
0001
0000
,
0020
0000
0000
0000
0000
0030
0100
0000
0010
0000
0100
0000
0010
0000
0000
0000
,
0110
0000
0001
0000
1000
0010
1000
0100
,
0010
0000
0001
0000
0100
0010
0000
1002
,
0000
0000
1003
0000
0001
0010
0001
0100
,
0010
0000
1000
0000
0100
0010
0100
0010
,
0110
0000
0010
0000
0001
0100
1000
0100
,
0010
1000
0001
0000
0100
0010
0000
0101
,
0000
2001
0000
0000
3100
0010
0001
0200
,
0000
0300
0010
0000
1000
0100
0001
0100
,
0010
0000
0000
0000
0000
0000
0000
0001
0000
0000
0000
0000
0000
0000
0100
0000
0000
0000
0000
0000
0000
0000
0010
0000
0000
0000
0000
0000
0000
0000
1001
0000
0000
0000
0000
0000
0000
0000
0000
0000
0000
0000
0000
0000
0000
0000
0000
0000
0000
0000
0000
0000
0000
0000
0000
0000
0000
0000
0000
0000
0000
0000
0000
0000
;

//---------------dance-single - ----------------
#NOTES:
     dance-single:
     :
     Beginner:
     1:
     0.103,0.106,0.072,0.000,0.012:
0000
0000
0000
0000
,
0000
0000
0000
0000
,
0001
0000
0100
0000
,
0010
0000
1000
0000
,
0010
0000
0100
0000
,
0001
0000
1000
0000
,
0100
0000
0010
0000
,
0110
0000
0010
0000
,
0000
0000
0000
0000
,
1001
0000
1000
0000
,
0100
0000
0001
0000
,
0000
0100
0000
0010
,
0000
0001
0000
1000
,
1000
0000
0010
0000
,
0100
0000
0001
0000
,
0110
0000
1000
0000
,
0001
0000
0110
0000
,
1000
0000
0000
0000
,
0001
0000
0000
0000
,
0010
0000
0000
0000
,
0100
0000
0000
0000
,
0110
0000
1000
0000
,
0001
0000
0100
0100
,
0100
0000
0010
0000
,
1000
0000
0001
0001
,
0001
0000
0010
0000
,
0100
0000
1000
1000
,
1000
0000
0000
0001
,
0000
0000
0010
0010
,
0010
0000
0000
0000
0000
0000
0000
0010
0000
0000
0000
0000
0000
0000
0000
0110
0000
0000
0000
0000
0000
0000
0000
0000
0000
0000
0000
0000
0000
0000
0000
0000
;
