#TITLE:Dreamer;
#SUBTITLE:[BARE KNUCKLE II];
#ARTIST:古代祐三;
#TITLETRANSLIT:;
#SUBTITLETRANSLIT:;
#ARTISTTRANSLIT:Koshiro, Yuzo;
#CREDIT:Kewing Darksun;
#BANNER:DREAMER.png;
#BACKGROUND:DREAMER-bg.png;
#LYRICSPATH:;
#CDTITLE:!Kewing DarkSun v2 (cdtitle).png.png;
#MUSIC:06 - Dreamer.mp3;
#OFFSET:-0.430;
#SAMPLESTART:6.650;
#SAMPLELENGTH:12.000;
#SELECTABLE:YES;
#BPMS:0.000=130.070;
#STOPS:;
#BGCHANGES:;

//---------------dance-single - ----------------
#NOTES:
     dance-single:
     :
     Challenge:
     9:
     0.594,0.663,0.307,0.037,0.534:
0000
0000
0000
0000
,
0000
0000
0000
0000
,
1000
0000
0100
0000
0000
1000
0000
0000
0001
0000
0100
0000
0000
0001
0000
0000
,
1000
0000
0100
0000
0000
0010
0000
0000
0001
0000
0100
0000
0000
0010
0000
0000
,
1000
0000
0100
0000
0010
0000
0000
0010
0001
0000
1000
0000
0001
0000
0000
0000
,
0001
0000
0100
0000
0010
0000
0000
0010
1000
0000
0001
0000
1000
0000
0000
0000
,
0100
0000
0010
0000
0100
0000
0000
1000
0001
0000
1000
0000
0010
0000
0000
0000
,
0100
0010
1000
0001
0010
0100
0010
0001
,
0100
0001
0100
0000
0010
0000
0000
1000
0000
0100
0000
0010
0100
0000
1000
0000
,
0001
0100
0001
0000
0010
0000
0000
0100
0000
0010
0000
0001
0100
0000
0001
0000
,
0010
0000
0100
1000
0000
0001
1000
0000
1100
0000
0000
0000
0101
0000
0000
0000
,
0100
0000
0001
0100
0000
0001
1000
0001
0100
0000
0000
0110
0000
0000
1000
0000
,
0100
1000
0100
0000
0010
0000
0000
0001
0000
0100
0000
0010
0100
0000
0001
0000
,
1000
0100
1000
0000
0010
0000
0000
0100
0000
0010
0000
1000
0100
0000
1000
0000
,
0010
0000
0100
0001
0000
1000
0001
0000
0101
0000
0000
0000
1100
0000
0000
0000
,
1000
0000
0100
1000
0000
0001
1000
0100
1000
0000
0000
0110
0000
0000
0100
0000
,
1000
0000
0001
0000
0101
0000
0000
1000
0010
1000
0010
0000
0100
0000
0010
0000
,
1000
0000
0001
0000
0011
0000
0000
1000
0100
1000
0100
0000
0010
0000
0002
0000
,
0000
0000
1000
0000
0010
0000
0000
0103
0000
0010
1000
0000
0100
0000
1000
0010
,
0000
0100
0001
0000
0001
1000
0010
0100
,
0001
0000
1000
0000
1100
0000
0000
0001
0010
0001
0010
0000
0100
0000
0010
0000
,
0001
0000
1000
0000
1010
0000
0000
0001
0100
0001
0100
0000
0010
0000
1000
0100
,
1000
0000
0000
1000
0010
0000
0000
0010
0100
0000
0100
0000
0001
1000
0000
0000
,
1000
0000
0000
1000
0100
0000
0000
0000
0010
0000
0001
0000
0010
0000
0100
0000
,
1000
0000
0010
0000
0110
0000
0000
0010
0100
0001
0100
0000
0010
0000
1000
0001
,
1000
0000
0100
0000
0110
0000
0000
0100
0010
0001
0010
0000
0100
0000
2000
0000
,
0000
0000
0001
0000
0010
0000
0000
3100
0000
0010
0001
0000
0100
0000
0001
0010
,
0000
0100
1000
0000
0100
1000
0010
0100
,
0001
0000
0010
0000
0110
0000
0000
0010
0100
1000
0100
0000
0010
0000
0001
1000
,
0001
0000
0100
0000
0110
0000
0000
0100
0010
1000
0010
0000
0100
0000
0020
0000
,
0000
0000
0001
0000
0100
0000
0000
1000
0000
0100
0000
0000
0001
0000
0130
0000
,
0001
0000
0010
0000
0100
0000
1000
0010
0000
0100
0000
0000
0001
1000
0001
0000
,
1001
0000
0001
0000
0000
0010
0000
0000
0110
0000
0100
0000
0000
1000
0000
0000
,
1001
0000
1000
0000
0000
0010
0000
0000
0110
0000
0100
0000
0000
0001
0000
0000
,
1001
0000
1000
0000
0000
0100
0000
0000
0011
0000
0010
0000
0000
0100
0000
0000
,
1010
0000
0010
0000
0000
0100
0000
0000
1001
0000
1000
0000
0010
0000
0100
0000
,
0001
0010
0001
0000
1000
0000
0100
0000
0010
0000
0110
0000
0100
0000
0010
0000
,
0001
0100
0001
0000
1000
0000
0010
0000
0100
0000
0110
0000
0010
0000
0100
0000
,
0001
1000
0001
0000
0010
0000
0001
0000
0100
0000
0110
0000
0100
0000
0010
0000
,
1000
0100
1000
0001
1000
0100
1000
0001
1000
0010
1000
0001
1000
0100
0010
0001
,
1000
0000
0000
0000
;

//---------------dance-single - ----------------
#NOTES:
     dance-single:
     :
     Hard:
     7:
     0.437,0.393,0.245,0.098,0.037: // measure 1
0000
0000
0000
0000
,  // measure 2
0000
0000
0000
0000
,  // measure 3
0001
0100
0100
0010
,  // measure 4
1000
1000
0010
0100
,  // measure 5
0001
0000
0001
0000
0010
0001
0010
0000
,  // measure 6
0001
0000
0001
0000
0010
0100
0010
0000
,  // measure 7
0001
0000
0001
0000
0010
1000
0010
0000
,  // measure 8
0010
0001
0010
0001
0010
0100
1000
0100
,  // measure 9
1000
0100
0010
0000
0100
1000
0001
0000
,  // measure 10
1000
0010
0100
0000
0010
1000
0001
0000
,  // measure 11
0100
0001
0100
0001
0010
0000
1100
0000
,  // measure 12
0100
0000
1000
0000
0100
0000
1000
0000
0010
0000
0000
0101
0000
0000
0000
0000
,  // measure 13
0001
0100
0010
0000
0100
0001
1000
0000
,  // measure 14
0001
0010
0100
0000
0010
0001
1000
0000
,  // measure 15
0001
0001
1000
0001
0001
0000
1001
0000
,  // measure 16
0010
0000
0010
0000
0100
0000
0010
0000
0010
0000
0000
1001
0000
0000
0000
0000
,  // measure 17
0001
0000
0101
0000
0001
0010
0100
0010
,  // measure 18
0001
0000
0101
0000
0001
0010
0100
2000
,  // measure 19
0000
0001
0001
0000
3000
0001
0100
0010
,  // measure 20
1000
0000
0100
0000
1000
0010
0100
0001
,  // measure 21
1000
0000
1100
0000
1000
0010
0100
0010
,  // measure 22
1000
0000
1100
0000
1000
0010
0100
0002
,  // measure 23
0000
0023
0000
0230
0000
1300
0010
0000
,  // measure 24
0220
0000
0330
0000
0001
0100
0010
1000
,  // measure 25
0001
0000
0000
0000
0011
0000
0000
0010
0001
0000
0100
0000
0010
0000
0100
0000
,  // measure 26
0001
0000
0000
0000
0011
0000
0000
0010
0001
0000
0100
0000
0010
0000
2000
0000
,  // measure 27
0000
0100
0100
0000
0000
3001
0010
0100
,  // measure 28
1000
0000
1010
0000
1000
0100
0010
0001
,  // measure 29
1000
0000
0000
0000
1010
0000
0000
0010
1000
0000
0100
0000
0010
0000
0100
0000
,  // measure 30
1000
0000
0000
0000
1010
0000
0000
0010
1000
0000
0100
0000
0010
0000
0002
0000
,  // measure 31
0000
0100
0100
0000
0000
0010
0013
0000
,  // measure 32
0100
1000
0010
0100
0010
0000
0110
0000
,  // measure 33
0010
0010
0000
0010
0100
0100
0000
0100
,  // measure 34
0001
0001
0000
0001
0010
0010
0000
0100
,  // measure 35
0010
0010
0000
0010
0100
0100
0000
0100
,  // measure 36
1000
1000
0000
1000
0010
0100
0001
0010
,  // measure 37
0100
0000
1000
0000
1010
1000
0010
0000
,  // measure 38
0110
0000
0100
0000
0101
0001
0100
0000
,  // measure 39
0110
0000
0100
0000
1100
1000
0100
0000
,  // measure 40
0010
1000
0100
0010
0001
1000
0010
0001
,  // measure 41
1000
0000
0000
0000
;

//---------------dance-single - ----------------
#NOTES:
     dance-single:
     :
     Medium:
     5:
     0.338,0.344,0.147,0.147,0.000:
0000
0000
0000
0000
,
0000
0000
0000
0000
,
0100
0000
0100
0000
,
0010
0000
0010
0000
,
0001
0100
0001
0001
,
1000
0100
1000
1000
,
0010
1000
0100
0100
,
0010
0000
0010
0000
0001
1000
0001
1000
,
0020
1000
0100
0100
,
1000
0001
0100
0130
,
0010
1000
0001
0000
0002
0000
0013
0000
,
0010
0001
1000
0000
0200
0000
0310
0000
,
0020
0001
0100
0100
,
0001
1000
0100
0130
,
0010
0001
1000
0000
2000
0000
3010
0000
,
0010
1000
0001
0000
0200
0000
0310
0000
,
1010
1010
0100
0001
,
0011
0000
0011
0000
0100
0000
1000
0002
,
0000
0000
0100
0000
0000
0103
0100
0000
,
0110
0000
0000
0000
0010
1000
0001
0000
,
0011
0011
0100
1000
,
1010
0000
1010
0000
0100
0000
0001
1000
,
0000
0100
0000
0010
0000
0001
1000
0000
,
2002
0000
0000
3003
0001
0010
0100
0000
,
1000
0100
1000
0000
0010
0000
0100
0000
,
0001
0010
0001
0000
0100
0000
0010
2000
,
0000
0000
0100
0000
0000
3100
0100
0000
,
0110
0000
0000
0000
0100
0010
0001
0000
,
0001
0100
0010
0000
0010
0000
1000
0000
,
1000
0100
0010
0000
0010
0000
0001
0200
,
0000
0010
0000
0310
,
1000
0010
0200
0000
0310
0000
1001
0000
,
1000
1000
0000
0000
0100
0100
0000
0000
,
0010
0010
0000
0000
0100
0100
0000
0000
,
0001
0001
0000
0000
0100
0100
0000
0000
,
0010
0010
0000
0000
0100
1000
0001
1000
,
0010
0000
0010
0000
1000
0010
1000
0000
,
0001
0000
0001
0000
1000
0001
1000
0000
,
0100
0000
0100
0000
1000
0100
1000
0000
,
0100
0010
0100
0010
0001
1000
0010
0001
,
1000
0000
0000
0000
;

//---------------dance-single - ----------------
#NOTES:
     dance-single:
     :
     Easy:
     3:
     0.198,0.245,0.098,0.110,0.000:
0000
0000
0000
0000
,
0000
0000
0000
0000
,
0000
0000
0000
0000
,
0000
0000
0000
0000
,
1000
0000
1000
0000
,
0010
0000
0010
0000
,
1000
0000
0010
0000
,
1000
0100
0010
0001
,
0200
0000
0000
0010
,
0000
0000
0000
0301
,
0001
0010
0100
0000
,
0010
0100
1000
0000
,
0200
0000
0000
0010
,
0000
0000
0000
1300
,
1000
0010
0100
0000
,
0010
0100
0001
0000
,
0011
0010
0000
0100
,
1100
1000
0000
0001
,
0002
0000
0103
0000
,
0010
0000
1000
1000
,
1010
0010
0000
0100
,
0101
0001
0000
0010
,
0020
0000
0230
0000
,
2300
0000
3001
0100
,
0101
1000
0000
0100
,
1100
0001
0000
1000
,
2000
0000
3010
0000
,
0100
0000
0001
0001
,
0011
0100
0000
1000
,
1010
0100
0001
0010
,
0200
0000
1000
0000
,
0310
0001
0200
0000
,
0310
0000
1000
0000
,
0010
0000
0001
0000
,
0010
0000
1000
0000
,
0010
0000
0001
0100
,
1000
0000
0001
0010
,
0100
0000
1000
0010
,
0100
0000
0001
0010
,
0100
1000
0010
0001
,
1000
0000
0000
0000
;

//---------------dance-single - ----------------
#NOTES:
     dance-single:
     :
     Beginner:
     2:
     0.158,0.196,0.110,0.000,0.000:
0000
0000
0000
0000
,
0000
0000
0000
0000
,
0000
0000
0000
0000
,
0000
0000
0000
0000
,
1000
0000
1000
0000
,
1000
0000
0001
0000
,
0001
0000
0001
0000
,
0100
0100
0100
0100
,
0100
0000
0000
0000
,
0010
0000
0000
0000
,
1000
1000
1000
0000
,
0001
0001
0001
0000
,
0010
0000
0000
0000
,
0100
0000
0000
0000
,
1000
1000
1000
0000
,
0001
0001
0001
0000
,
1001
0000
1000
0000
,
1001
0000
0001
0000
,
0010
0000
0100
0000
,
1000
1000
1000
0000
,
1001
0000
0001
0000
,
1001
0000
1000
0000
,
0010
0000
0001
0000
,
0100
0000
1000
0000
,
1001
0001
0000
0000
,
1001
1000
0000
0000
,
0010
0000
0100
0000
,
0001
0001
0001
0000
,
0110
0010
0000
0000
,
0110
0100
0000
0000
,
1000
0000
0010
0000
,
0100
0100
0100
0000
,
1001
0000
0001
0000
,
1000
0000
1000
0000
,
0100
0000
0100
0000
,
0010
0000
0010
0010
,
0010
0000
0001
0000
,
0010
0000
0100
0000
,
1000
0000
0001
0000
,
0100
0100
0100
0100
,
0100
0000
0000
0000
;
