#TITLE:Donald Ranlanloo;
#SUBTITLE:;
#ARTIST:2KB;
#TITLETRANSLIT:;
#SUBTITLETRANSLIT:;
#ARTISTTRANSLIT:;
#CREDIT:Kyon;
#BANNER:Donald Ranlanloo.png;
#BACKGROUND:Donald Ranlanloo-bg.png;
#LYRICSPATH:;
#CDTITLE:!Kewing DarkSun v2 (cdtitle).png.png;
#MUSIC:Donald Ranlanloo.mp3;
#OFFSET:-0.288;
#SAMPLESTART:34.740;
#SAMPLELENGTH:10.140;
#SELECTABLE:YES;
#DISPLAYBPM:*;
#BPMS:0.000=400.000,6.000=100.007,13.000=800.000,21.000=200.002,51.000=800.000,59.000=400.000,123.000=100.000,139.000=200.000,203.000=100.000,218.000=800.000,226.000=100.001,242.000=200.000,256.000=100.000,257.000=399.998,285.000=100.000,286.000=399.997;
#STOPS:;
#BGCHANGES:0.250=Donald Ranlanloo.AVI=1.000=0=0=1
,368.000=Donald Ranlanloo-bg.png=1.000=0=0=1
;

//---------------dance-single - ----------------
#NOTES:
     dance-single:
     :
     Easy:
     8:
     0.524,0.733,0.407,0.143,0.036:
0000
0000
0000
0000
,
0000
0000
1010
1001
,
0010
0100
1000
0000
0011
0000
1001
0000
,
0010
0100
0101
0000
0000
0000
0000
0000
,
0000
0000
0000
0000
,
0000
1010
0000
1001
,
0000
0100
0010
0001
,
0000
0010
0100
1000
,
0010
0100
0010
0000
1000
0000
0100
0000
,
0000
0011
0000
1001
,
0000
0100
0010
1000
,
0000
0000
0010
0100
0001
0100
0001
0000
,
0001
0000
0010
0100
1000
0000
1100
0000
,
0000
0000
0000
0000
,
0000
0000
0000
1100
,
0000
1000
0000
0001
,
0000
0100
0000
0101
,
0000
0100
0000
0001
,
0000
1000
0100
0010
,
0100
0010
0100
1000
,
0000
0001
0000
0100
,
0010
0100
0010
0100
,
0000
0001
0000
1000
,
0100
1000
0000
0010
,
1000
0010
0000
0100
,
0001
0100
0000
0001
,
0010
0001
0000
0100
,
0010
0100
0010
0100
,
0010
0100
0010
1000
,
0001
1000
0001
1000
,
0001
1000
0100
0010
,
0001
0000
1000
0000
0010
0010
0100
0000
,
0001
0000
1000
0000
0100
0100
0010
0000
,
0100
0000
0000
0000
1000
0000
0000
0001
0000
0100
0000
0000
0010
0000
0000
0000
,
1000
0000
0000
0000
0001
0000
0000
0010
0000
0100
0000
0000
1001
0000
0000
0000
,
1000
0001
1000
0100
,
0010
0002
0103
0010
,
0100
0002
0103
0101
,
1001
1001
1001
1100
,
0001
1000
0001
0100
,
0010
2000
3100
0010
,
0100
2000
3100
1100
,
1001
1001
1001
0101
,
0001
0010
1000
0010
,
0001
0101
0101
0100
,
0010
1010
1010
0110
,
1001
1001
1001
0110
,
0100
1000
0010
0001
,
0010
1000
0010
0100
,
0001
0000
0010
0000
0100
1000
0100
0000
,
0110
0000
0110
0000
0010
0000
1001
0001
,
0100
0000
0000
0000
0001
0000
1000
0000
0100
0000
0000
0000
1000
0001
1000
0000
,
0100
0000
0001
0000
0100
0000
1000
0001
1000
0000
0000
0000
1001
0000
1000
0000
,
0010
0000
0000
0000
0100
0000
0001
0000
0010
0000
0000
0000
0100
0000
0000
1000
,
0001
0100
0010
0100
0110
0000
0000
0000
,
0000
0000
0000
0000
,
0000
0000
2000
0000
,
3200
0000
0302
0000
,
0023
0000
2030
0100
,
3002
0010
0203
1000
,
0320
0000
0001
0000
1030
0000
0001
0100
,
0001
0000
0010
0000
0100
0000
0001
0100
,
0001
0000
0100
0000
1000
0000
0001
0010
,
0001
0000
0100
0000
0010
0000
0001
0010
,
0001
0010
1000
0000
0000
0000
0100
0000
,
0010
0001
0000
1000
,
0000
0010
0100
0010
,
0000
1010
0000
1000
,
0000
0001
0000
0100
,
0010
1000
0000
0001
,
0000
0010
0100
0010
,
0000
0000
0011
0001
1000
0000
0010
0000
,
1000
0010
1000
0001
,
1000
0001
0100
0000
,
1000
0000
0010
0000
,
0001
1000
0001
1000
,
0100
1000
0100
0010
,
0001
0010
0001
0000
,
0100
0000
0010
0000
,
1000
0001
1000
0100
,
1000
0010
0100
0001
,
1000
0001
0010
0100
,
1000
0001
0100
0001
,
1000
0100
0010
0001
,
0100
0010
1000
0100
,
0001
0100
1000
0000
,
0010
0000
0001
0000
,
2002
0000
0000
0000
,
0000
0000
0000
0000
,
0000
0000
0000
0000
,
3003
0000
0000
0000
;

//---------------dance-single - ----------------
#NOTES:
     dance-single:
     :
     Medium:
     9:
     0.631,1.000,0.489,0.112,0.092:
0000
0000
0000
0000
,
0000
0000
0000
0000
1010
1000
0010
1000
,
0001
0100
0001
0100
1000
0100
1000
0100
,
0001
0010
0100
1000
0002
0000
0000
0000
0000
0000
0000
0000
0000
0000
0000
0000
,
0000
0000
0000
0003
,
0000
1000
0010
1010
,
1000
0001
0010
0011
,
0001
0100
0010
0100
0010
0100
0001
0000
,
0010
0100
1000
0100
1000
0100
0010
0000
,
0010
1001
0100
1010
,
0100
0001
0010
1100
,
0010
0000
0001
1000
0001
1000
0010
0000
,
0100
0000
0010
1000
0100
0010
0002
0000
,
0000
0000
0000
0000
,
0000
0003
0000
1100
,
0000
1000
0000
0001
,
0100
0001
0000
0011
,
0000
0001
0000
1000
,
0010
1000
0000
0010
,
0100
0010
0100
0001
,
1000
0000
0100
0010
,
0100
0010
0001
1000
,
0000
0010
0100
0001
,
0010
0001
0010
0100
,
1000
0100
0010
0001
,
0010
0001
0010
1000
,
0010
0001
1000
1010
,
0000
1010
0000
0101
,
0000
0011
0000
0011
,
0000
0000
0000
1100
0000
0000
0000
0000
0000
1000
0000
0010
,
0000
1000
0000
0010
0000
0100
0000
0001
0000
1000
0000
0000
,
0100
0000
1100
0000
0010
0001
0100
0000
,
0001
0000
0000
0000
0101
0000
0000
0010
0000
1000
0000
0000
0100
0000
1000
0000
,
0100
0000
2000
0000
0010
3000
0000
0100
0000
0001
0000
0000
0010
0000
0001
0000
,
0010
0000
0002
0000
0100
0003
0000
0010
0000
1001
0000
0000
1001
0000
0000
0000
,
0010
0001
1000
0010
,
0100
0001
1000
0000
1000
0000
0100
0000
,
0010
0001
1000
0000
1000
0000
1001
0000
,
0101
1010
0101
1001
,
0010
1000
0001
0010
,
0100
1000
0001
0000
0001
0000
0100
0000
,
0010
1000
0001
0000
0001
0000
1001
0000
,
1100
0011
1100
1001
,
0100
0010
0100
0001
,
1000
0100
0010
0000
0010
0000
0001
0100
,
0010
0100
0010
0000
0010
0000
1001
0000
,
0101
0011
0101
1001
,
0010
0000
0100
0000
1000
0000
0010
0100
,
0000
0100
0001
0000
1000
0000
0100
0000
,
0001
0000
0100
0000
1000
0010
1010
0000
,
0110
0000
0101
0000
1001
0000
0001
0100
,
0010
0100
1000
0100
0010
0100
0001
1000
,
0100
0001
0000
0100
1000
0000
0001
0000
0100
0000
0010
0000
1001
0000
0010
0000
,
0100
0001
0100
0000
0001
0000
0010
0000
0100
1000
0100
0000
1000
0000
0010
0000
,
0110
0000
0100
0000
0001
0100
0010
1000
0002
0000
0000
0000
0000
0000
0000
0000
,
0000
0000
0000
0000
,
0003
0000
0000
0000
0002
0010
0100
0000
,
2003
0100
0010
0000
3020
1000
0001
0000
,
0230
1000
0001
0000
0301
0010
1000
0100
,
0010
0100
1000
0010
0001
0100
1000
0010
,
0001
0010
1000
0100
0001
1000
0100
0000
,
0011
0000
0001
0000
1000
0001
0100
0000
,
1010
0000
1000
0000
0100
1000
0010
0000
,
0110
0000
0010
0000
0100
0001
0010
0000
,
0110
0001
1000
0000
0001
0000
0100
0000
,
0010
0100
0000
1100
,
0000
0100
0001
1000
,
0100
1000
0000
0110
,
0000
0001
1000
0100
,
0010
0100
0000
0101
,
0000
0100
1000
0001
,
0100
0000
0001
1001
1000
0000
0100
0000
,
0010
0100
1000
0010
,
0001
0010
1000
0100
,
0010
0100
0010
0001
,
0100
0010
0100
0001
,
0010
1000
0010
0100
,
1000
0010
0100
0001
,
0100
0001
0010
0001
,
0010
0100
1000
0100
,
0001
0100
1000
0001
,
0100
0010
0001
0010
,
1000
0100
0010
1000
,
0010
0100
0001
0100
,
1000
0010
0001
1000
,
0100
0001
1000
0000
,
0100
0000
0001
0000
,
2002
0000
0000
0000
,
0000
0000
0000
0000
,
0000
0000
0000
0000
,
3003
0000
0000
0000
;

//---------------dance-single - ----------------
#NOTES:
     dance-single:
     :
     Hard:
     10:
     0.889,1.000,0.540,0.102,0.433:
0000
0000
0000
0000
,
0000
0000
0000
0000
0000
0000
0000
0000
1001
0000
1000
0000
0010
0100
0001
0000
,
0011
0000
0000
0000
0001
0000
0000
0000
0010
0000
0100
0000
1000
0000
0000
0000
1010
0000
0000
0000
1000
0000
0000
0000
0100
0000
0010
0000
0001
0000
0000
1000
,
0001
0100
0010
1000
2002
0000
0000
0000
0000
0000
0000
0000
0000
0000
0000
0000
,
0000
0000
0000
0000
,
3003
0000
0001
0100
0001
0000
0100
1000
,
0100
0000
0001
1000
0001
0010
0100
0000
,
0010
0100
1000
0010
1000
0001
0100
0010
,
0100
0000
0000
0001
0010
0000
0100
0000
1000
0000
0100
0000
0010
0000
0000
0000
,
0100
1000
0001
0000
1001
0000
0000
0000
0100
0000
0000
0000
0010
0000
1000
0000
,
0001
0000
0100
1000
0100
0000
0001
1000
,
0100
0000
0000
0000
0010
0100
1000
0100
0010
0000
0001
0000
0100
0000
0010
0000
,
1000
0000
0000
0001
1000
0000
0100
0000
0010
0000
0001
0000
2002
0000
0000
0000
,
0000
0000
0000
0000
,
0000
0000
3003
1000
,
0100
1000
0000
0100
,
0001
0100
0000
1000
,
0001
1000
0010
0100
,
0000
0010
0100
0001
,
0010
0001
1000
0010
,
0001
0000
0010
0000
1000
0001
0010
0000
,
1000
0010
0001
1000
,
0000
0000
0010
0100
0001
0100
0010
0000
,
1000
0100
0010
0001
,
0010
1000
0010
0100
,
1000
0010
0100
0001
,
0100
0000
0000
1000
0000
0000
0100
0000
0000
0001
0000
0010
,
0000
0100
0000
1000
0000
0001
0000
0010
0000
0100
0000
0010
,
0000
0001
0000
1000
0000
0010
0000
0100
0000
0001
0000
1000
,
0000
0010
0000
0100
0000
0010
0000
1000
0000
0100
0000
0010
,
0000
0001
0000
0100
0000
0010
0000
1000
0000
0100
0000
0000
,
0110
0000
0000
0000
0100
0000
1000
0001
0000
0100
0000
0000
0010
1000
0010
0000
,
0110
0000
0000
0000
0100
0000
0001
1000
0000
1100
0000
0000
0001
0010
0100
1000
,
0100
0000
2100
0000
0001
3000
0001
0100
0000
0101
0000
0000
1000
0010
0100
0001
,
0100
0000
0102
0000
1003
0010
1000
0100
0000
0110
0000
0000
1001
0000
0000
0000
,
0010
0100
0010
1000
0001
0010
0000
0100
,
0001
0100
1000
0000
0011
0000
1000
0100
,
0001
0100
1000
0000
0011
0000
1001
0000
,
0101
1010
0110
1001
,
0010
0100
0010
0001
1000
0010
0000
0100
,
1000
0100
0001
0000
1010
0000
0001
0100
,
1000
0100
0001
0000
1010
0000
1001
0000
,
1100
0110
0011
1100
,
0100
0001
0100
0001
0100
1000
0010
0100
,
0001
0100
1000
0000
0101
0000
1000
0100
,
0001
0100
0001
0000
1100
0000
1001
0000
,
0101
0110
1010
0101
,
0100
1000
0100
1000
0100
0001
0010
0100
,
1000
0100
0001
0100
0000
0010
0001
1000
,
0010
0001
0010
0100
0001
0010
0011
0001
,
0101
0010
1010
1000
1100
0000
1001
1001
,
0001
0000
0100
0000
0010
0000
0000
0000
0001
0000
0010
0000
0100
0000
0000
0000
0001
0000
0100
0000
0010
0000
0000
0000
1000
0100
0010
0100
1000
0000
0001
0000
,
0100
0000
0010
0000
1000
0000
0000
0000
0100
0000
0010
0000
1000
0000
0010
0000
0100
0000
0000
0000
0010
0001
1000
0000
1001
0000
0000
0000
1001
0000
0000
0000
,
0001
0100
0010
0000
0001
0010
1000
0000
1000
0100
0010
0000
1000
0010
0001
0000
,
1001
0000
0000
0000
0110
0000
0000
0100
0010
0000
1000
0000
0100
0000
0010
0000
2002
0000
0000
0000
0000
0000
0000
0000
0000
0000
0000
0000
0000
0000
0000
0000
,
0000
0000
0000
0000
,
0000
0000
0000
0000
0000
0000
0000
0000
3003
0000
0000
0000
0000
0000
0000
0000
0001
0000
0000
0100
0000
0000
1000
0000
0000
0100
0000
0000
0001
0000
0000
0000
,
1000
0000
0000
0100
0000
0000
0001
0000
0000
0100
0000
0000
1000
0000
0000
0000
0010
0000
0000
0100
0000
0000
0001
0000
0000
0010
0000
0000
1000
0000
0000
0000
,
1000
0000
0000
0100
0000
0000
0001
0000
0000
0010
0000
0000
0100
0000
0000
0000
0110
0000
0000
0000
0100
0000
0100
0000
1000
0000
0000
0000
1010
0000
0000
0000
,
0100
0000
0010
0000
0100
0000
0100
0000
0001
0000
0000
0000
0011
0000
0010
0100
0010
0000
0001
0000
1000
0000
1000
0000
0010
0000
0001
0000
0001
0000
0000
0000
,
0010
1000
0100
0100
0010
0000
1001
0000
0001
0000
0100
0000
0010
0000
0001
0000
,
0010
1000
0100
0010
0001
1000
0010
0100
,
0001
0100
0000
0010
1000
0000
0010
0100
0001
0000
0010
0000
0100
0000
0001
0000
,
0100
1000
0010
0100
0001
0001
0010
0100
,
1000
1001
0001
0000
0100
0000
0010
0000
,
1000
0100
0010
0001
,
0010
1000
0010
0100
,
1000
0000
0010
1000
0000
0001
0100
0000
,
0010
1000
0100
0000
1000
0000
0010
0000
,
0100
1000
0100
0001
,
0010
0100
1000
0010
,
0100
0000
0001
1001
1000
0100
0010
0001
,
0100
0001
0100
0001
0010
0100
1000
0010
,
1000
0010
1000
0100
0010
0000
0001
1000
,
0010
0000
0010
1000
0001
0000
0001
1000
,
0100
0010
0100
1000
0001
0010
0001
1000
,
0010
1000
0001
0010
0001
0100
0001
1000
,
0100
1000
0001
0100
0001
0000
0010
0001
,
0100
0000
0010
1000
0100
0000
0010
0001
,
0100
0010
0100
0010
1000
0100
0010
0100
,
0010
0001
0100
0001
1000
0010
0100
0010
,
1000
0100
1000
0001
0010
0100
0010
0001
,
1000
0100
0001
0100
1000
0001
0010
0001
,
1000
0001
0100
1000
0100
0001
1000
0010
,
1000
0001
0010
0100
0010
0001
0100
0010
,
1000
0100
0010
0001
1000
0000
0000
0000
,
0010
0000
0001
0000
,
2002
0000
0000
0000
,
0000
0000
0000
0000
,
0000
0000
0000
0000
,
3003
0000
0000
0000
;

//---------------dance-single - ----------------
#NOTES:
     dance-single:
     :
     Beginner:
     4:
     0.241,0.399,0.132,0.000,0.000:
0000
0000
0000
0000
,
0000
0000
1000
0000
,
1000
0000
0001
0000
,
0001
0001
0000
0000
,
0000
0000
0000
0000
,
0000
0001
0000
0000
,
0000
0100
0000
0000
,
0000
0010
0000
0100
,
0000
0001
0000
1000
,
0000
1001
0000
0000
,
0000
1000
0000
0000
,
0000
0100
0000
0100
,
0000
0010
0000
0010
,
0000
0000
0000
0000
,
0000
0000
0000
0001
,
0000
0000
0000
0000
,
0000
0000
0000
1000
,
0000
0000
0000
0000
,
0000
0000
0000
0010
,
0000
0000
0000
0100
,
0000
0000
0000
0001
,
0000
0000
0000
1000
,
0000
0000
0000
1000
,
0000
0000
0000
0100
,
0000
0000
0000
0010
,
0000
0000
0000
0001
,
0000
0000
0000
1000
,
0000
1000
0000
1000
,
0000
1000
0000
0001
,
0000
0001
0000
0001
,
0000
0001
0000
1001
,
0000
0010
0000
0001
,
0000
0100
0000
1001
,
0000
0010
0000
1000
,
0000
0100
0000
1001
,
0000
0001
0000
1000
,
0000
0100
0000
0001
,
0000
0100
0000
1000
,
1000
1000
1000
1000
,
0000
0001
0000
1000
,
0000
0010
0000
0001
,
0000
0010
0000
1000
,
1000
1000
1000
1000
,
0000
0001
0000
1000
,
0000
0100
0000
0001
,
0000
0010
0000
0100
,
0100
0100
0100
0100
,
0000
0001
0000
1000
,
0000
1001
0000
0100
,
0000
0010
0000
0110
,
0110
0110
0000
1001
,
0000
0010
0000
0100
,
1000
1000
0000
1001
,
0000
0010
0000
0100
,
0001
0001
1001
0000
,
0000
0000
0000
0000
,
0000
0000
0001
0000
,
1000
0000
0001
0000
,
1000
0000
0010
0000
,
0100
0000
0001
0000
,
1000
0000
1001
0000
,
1000
0000
0100
0000
,
0001
0000
0100
0000
,
1000
0000
0010
0000
,
0001
1000
0000
0010
,
0000
0010
0000
0000
,
0000
0100
0000
0001
,
0000
0001
0000
0000
,
0000
0010
0000
0100
,
0000
0100
0000
0000
,
0000
1000
0000
0001
,
0000
0001
1000
0000
,
1000
0000
1000
0000
,
0001
0000
0001
0000
,
0001
0000
0100
0000
,
0100
0000
0100
0000
,
0010
0000
0010
0000
,
0010
0000
1000
0000
,
1000
0000
0001
0000
,
0001
0000
0100
0000
,
0010
0000
1000
0000
,
0001
0000
0100
0000
,
0010
0000
1000
0000
,
0100
0000
0010
0000
,
0001
0000
0100
0000
,
0010
0000
1000
0000
,
0100
0000
0001
0000
,
1001
0000
0000
0000
;
