#TITLE:DiSCONNECTED HaZaRD;
#SUBTITLE:;
#ARTIST:DM Ashura feat. Inspector K;
#TITLETRANSLIT:;
#SUBTITLETRANSLIT:;
#ARTISTTRANSLIT:;
#CREDIT:Kewing Darksun;
#BANNER:DiSCONNECTED HaZaRD.png;
#BACKGROUND:DiSCONNECTED HaZaRD-bg.png;
#LYRICSPATH:;
#CDTITLE:!Kewing DarkSun (cdtitle).png;
#MUSIC:DiSCONNECTED HaZaRD.mp3;
#OFFSET:-0.044;
#SAMPLESTART:73.130;
#SAMPLELENGTH:18.252;
#SELECTABLE:YES;
#BPMS:0.000=105.000,16.000=210.000,112.000=105.000,128.000=210.000;
#STOPS:288.000=2.000
;
#BGCHANGES:;

//---------------dance-single - Heavy----------------
#NOTES:
     dance-single:
     Heavy:
     Hard:
     9:
     0.622,0.691,0.249,0.016,0.023:
0000
0000
0000
0000
,
0000
0000
0000
0000
,
0000
0000
0000
0000
,
0000
0000
0000
0000
,
1000
0100
0010
0001
1000
0000
0001
0000
,
0101
0000
1001
0000
1100
0000
0000
1000
,
0100
0000
0010
0001
0010
0001
0000
0001
,
0100
0000
0010
1000
0010
1000
0000
1000
,
0001
0100
0010
1000
0001
0000
1000
0000
,
1100
0000
1001
0000
0101
0000
0000
0001
,
0100
0000
0010
0100
0010
1000
0000
1000
,
0100
0000
0010
0100
0010
0001
0000
0000
,
1001
0000
1000
0001
0000
0010
0000
0010
,
0100
0000
1000
0010
1000
0001
0100
0000
,
0100
0000
0010
1000
0100
0010
0001
1000
,
0001
0100
0001
1000
0001
0100
0001
0000
,
0010
0000
0001
1000
0000
0010
0000
0010
,
0100
0000
0001
0010
0001
1000
0100
0000
,
0100
0000
0010
0001
0100
0010
1000
0001
,
1000
0100
1000
0001
1000
0100
1000
0000
,
0010
0000
1000
0100
0000
0010
0000
0001
,
0100
0000
0010
1000
0001
1000
0100
0000
,
1000
0000
0100
0010
0001
0100
1000
0100
,
0001
0100
1000
0100
0001
0010
0100
0000
,
1000
0000
0001
0100
0000
0010
0000
1000
,
0100
0000
0010
0001
1000
0001
0100
0000
,
0001
0000
0100
0010
1000
0100
0001
0100
,
1000
0100
0001
0100
1000
0010
0100
0000
,
1001
0000
0000
0000
0010
0000
0000
1000
0100
0000
0010
0000
0001
0000
0000
0000
,
1000
0000
0000
0000
0010
0000
0000
0100
0001
0000
0010
0000
1000
0000
0100
0000
,
0001
0000
0000
0000
0010
0000
0000
0001
0100
0000
0010
0000
1000
0000
0000
0000
,
0001
0000
0000
0000
0010
0100
1000
0000
0001
0000
0100
0010
0100
0001
1000
0000
,
1001
1000
0001
0100
,
0010
1000
0010
0100
0001
0000
1000
0000
,
0100
0000
0010
0010
0010
0010
0100
1000
,
0001
0000
0100
0010
1000
0100
0000
0000
,
1001
0001
1000
0100
,
0010
0001
0010
0100
1000
0000
0100
0000
,
0010
0001
0001
0100
0100
1000
1000
0100
,
0010
0000
0100
0001
0010
0100
0000
0000
,
1001
0000
0000
0000
,
0011
0000
0000
0000
0000
0000
0000
1000
,
0010
0000
0000
0000
,
1100
0000
0000
0000
0000
0000
0000
0001
,
0010
0000
0000
0000
1001
0000
0000
0010
,
0100
0000
0000
0000
0110
0000
0000
0001
,
1000
0000
0000
0010
0100
0000
0000
0001
,
1000
0100
1000
0010
0100
0001
0010
0001
,
0100
0010
1000
0000
0001
0000
1000
0000
,
0100
0010
0001
0000
1000
0000
0001
0000
,
0100
0010
1000
0000
0010
0100
0001
0000
,
0001
0010
0001
0100
0010
1000
0100
1000
,
0010
0100
0001
0000
1000
0000
0001
0000
,
0010
0100
1000
0000
0001
0000
1000
0000
,
0010
0100
0001
0000
0100
0010
1000
0000
,
1000
0100
1000
0010
0100
0001
0010
0100
,
1001
0000
0100
0001
0000
0010
0000
0100
,
1000
0001
0100
0000
0101
0000
1010
0000
,
1000
0000
0100
0010
0100
1000
0000
0001
,
0100
0010
1000
0000
1100
0000
0000
0000
,
1000
0100
1000
0010
0000
0100
0000
0001
,
0000
1000
0100
0000
1100
0000
0011
0000
,
0001
0100
0001
1000
0100
0000
0010
0001
,
0100
0010
1000
0001
1001
0000
0000
0000
,
1001
0000
0100
1000
0000
0010
0000
0100
,
0001
1000
0100
0000
1100
0000
0011
0000
,
0001
0000
0100
0010
0100
0001
0000
1000
,
0100
0010
0001
0000
0101
0000
0000
0000
,
0001
0100
0001
0010
0000
0100
0000
1000
,
0000
0001
0100
0000
0101
0000
1010
0000
,
1000
0100
1000
0001
0100
0000
0010
1000
,
0100
0010
0001
1000
0001
0100
1000
0100
,
0000
0000
1001
0000
1000
0001
0000
0100
,
0000
0100
0010
0000
1000
0100
1000
0001
,
0010
0000
0010
0000
0100
1000
0010
0100
,
0001
1000
0001
0010
0001
1000
0001
0010
,
0001
0000
0100
0000
0001
1000
0000
0100
,
0000
0100
0010
0000
0001
0100
0001
1000
,
0010
0000
0010
0000
0100
0001
0010
0100
,
1000
0001
1000
0010
1000
0001
1000
0010
,
1000
0000
0100
0000
1000
0010
0000
0100
,
0000
0001
0010
0000
0100
1000
0001
1000
,
0010
0000
1000
0000
0100
0010
0001
0100
,
1000
0100
0001
0010
1000
0010
0001
0100
,
0010
0000
1000
0000
0001
0010
0000
0100
,
0000
1000
0010
0000
0100
0001
1000
0001
,
0010
0000
0001
0000
0100
0010
1000
0100
,
0001
0100
1000
0010
0001
0010
1000
0100
,
0010
1001
0100
0010
,
0001
0100
0010
1000
0100
0010
0001
0000
,
0100
0000
0010
0000
1000
0100
0001
0100
,
1000
0001
0100
0000
0001
0100
0010
1000
,
0100
1001
0100
0010
,
1000
0100
0010
0001
0100
0010
1000
0000
,
0100
0000
0010
0001
0100
1000
0100
0010
,
0100
0001
1000
0000
0100
1000
0010
0100
,
0010
2002
0000
0000
,
0000
0000
0000
0000
,
0000
0000
0000
3003
;

//---------------dance-single - Light----------------
#NOTES:
     dance-single:
     Light:
     Easy:
     6:
     0.366,0.461,0.195,0.086,0.000:
0000
0000
0000
0000
,
0000
0000
0000
0000
,
0000
0000
0000
0000
,
0000
0000
0000
0000
,
1000
0000
0001
0000
,
0100
0100
1000
0000
,
0010
1000
0100
0000
,
0010
0001
0100
0000
,
0001
0000
1000
0000
,
0100
0100
0001
0000
,
0010
0001
0100
0000
,
0010
1000
0100
0000
,
1001
0000
0001
0000
,
0010
0001
1000
0000
,
0010
1000
0100
1000
,
0010
1000
0100
1000
,
0001
0000
1000
0000
,
0010
1000
0001
0000
,
0010
0001
0100
0001
,
0010
0001
0100
0001
,
1000
0000
0010
0000
,
0110
0010
0100
0000
,
0100
0001
1000
0100
,
0001
0100
1000
0001
,
0010
0000
0001
0000
,
0110
0010
0100
0000
,
0100
1000
0001
0100
,
1000
0100
0001
0010
,
1001
0000
0010
0000
0001
0001
0100
0000
,
0010
0000
1000
0000
0001
0010
0100
0000
,
1000
0000
0010
0000
1000
1000
0100
0000
,
0010
0000
0001
0000
1000
0010
0100
0000
,
0001
0000
1000
0000
,
0001
0100
0010
0000
,
1000
0100
0100
0100
,
0010
0001
1000
0000
,
1000
0000
0001
0000
,
1000
0100
0010
0000
,
0001
0100
1000
0100
,
0001
0010
0100
0000
,
1002
0000
0000
0000
,
0023
0000
0000
0000
,
0230
0000
0000
0000
,
2300
0000
0000
0000
,
3002
0000
0100
0000
,
0203
0000
0010
0000
,
0320
0000
0100
0030
,
0110
0010
0010
0010
,
1000
0001
0001
0001
,
0100
1000
1000
1000
,
0100
0001
0010
0001
,
0100
1000
0100
0001
,
0001
1000
1000
1000
,
0100
0001
0001
0001
,
0100
1000
0010
1000
,
0100
0001
0100
1000
,
0110
0000
0010
0000
,
0100
0000
1001
1001
,
0100
0000
0010
0000
,
0010
0001
1001
0000
,
0010
1000
0100
0000
,
0010
0000
1001
1001
,
0100
0001
1000
0000
,
0010
1000
1001
0000
,
0011
0001
1000
0001
,
0010
0001
0101
0101
,
0010
1000
0001
1000
,
0010
1000
1100
0000
,
0100
1000
0001
1000
,
0100
1000
1010
1010
,
0100
0001
1000
0001
,
0100
0000
0000
0000
0000
0000
0000
0000
0001
0000
0000
0000
0000
0000
0000
0000
0022
0000
0000
0000
0000
0000
0000
0000
0000
0000
0000
0000
0000
0000
0000
0003
,
0030
1001
0000
0001
,
0000
0100
0001
1000
,
0000
0100
1000
0010
,
1000
0100
1000
0010
,
1000
0001
0000
1000
,
0000
0100
1000
0001
,
0000
0100
0001
0010
,
0001
0100
0001
0010
,
0001
1000
0000
0100
,
0000
0110
0100
0010
,
0000
0010
0001
1000
,
0010
0001
0010
1000
,
0001
0100
0000
0001
,
0000
0110
0100
0010
,
0000
0010
1000
0001
,
0010
1000
0010
0001
,
0100
1001
0000
0001
,
0000
1000
0100
0010
,
0000
0001
0100
0100
,
0100
0010
1000
0001
,
0000
0001
0000
1000
,
0000
0001
0100
0010
,
0000
1000
0100
0001
,
0010
1000
0100
0010
,
0000
2002
0000
0000
,
0000
0000
0000
0000
,
0000
0000
0000
3003
;

//---------------dance-single - Oni----------------
#NOTES:
     dance-single:
     Oni:
     Challenge:
     11:
     0.742,0.962,0.241,0.016,0.389:
0000
0000
0000
0000
,
0000
0000
0000
0000
,
0000
0000
0000
0000
,
0000
0000
0000
0000
,
0010
1000
0100
0001
0100
0000
1000
0000
,
1000
0100
1000
0001
0100
0010
0000
1000
,
0100
0000
1000
0010
0100
0010
0000
0001
,
0010
0000
0001
0100
0010
0100
0000
0001
,
0010
0001
0100
1000
0100
0000
0001
0000
,
0001
0100
0001
1000
0100
0010
0000
0001
,
0100
0000
0001
0010
0100
0010
0000
1000
,
0010
0000
1000
0100
0010
0100
0000
0000
,
0110
0000
0000
0000
0001
0000
0100
0000
0000
0000
1000
0000
0000
0000
0100
0001
,
0100
0000
0001
0010
1000
0010
0001
0000
,
0100
0000
0010
1000
0100
0010
0001
0100
,
0010
0000
1000
0000
0001
0000
0100
0000
0010
1000
0001
0000
0010
0000
0000
0000
,
0100
0000
0000
0000
1000
0000
0100
0000
0000
0000
0001
0000
0000
0000
0100
1000
,
0100
0000
1000
0010
0001
0010
1000
0000
,
0010
0000
0000
0000
0100
0000
0001
0010
0001
0000
0100
0000
0010
0000
1000
0100
,
1000
0000
0010
0000
0001
0000
0010
0100
0010
0000
1000
0000
0001
0000
0000
0000
,
0101
0000
0000
0000
1000
0000
0001
0000
0000
0000
0010
0000
0000
0000
0001
0010
,
0100
0000
0100
0001
0100
1000
0100
0000
,
1000
0000
0100
0010
0001
0100
1000
0001
,
0010
0000
1000
0000
0001
0000
0010
0000
0100
1000
0001
0000
0100
0000
0000
0000
,
1100
0000
0000
0000
0001
0000
1000
0000
0000
0000
0010
0000
0000
0000
1000
0010
,
0100
0000
0100
1000
0100
0001
0100
0000
,
0001
0000
0000
0000
0100
0000
0001
1000
0010
0000
0100
0000
0001
0000
1000
0001
,
0010
0000
0100
0000
1000
0000
0001
0100
0010
1000
0001
0100
0010
1000
0001
0000
,
1001
0000
0000
0000
0000
0000
0000
0000
0001
0000
0000
0000
0000
0000
1000
0000
0010
0000
0000
0000
01M0
0000
0000
0000
0M01
0000
0000
0000
001M
0000
0100
1000
,
0100
0000
1000
0010
0000
0100
0001
0000
0010
0000
1000
0010
0001
0100
0000
0000
,
1M1M
0000
0000
0000
0000
0000
0000
0000
1000
0000
0000
0000
0000
0000
0001
0000
0010
0000
0000
0000
01M0
0000
0000
0000
1M00
0000
0000
0000
M010
0000
0100
0001
,
0100
0000
0000
0000
0001
0000
1000
0000
0000
0000
0100
0010
0100
0010
0100
0000
0010
0000
0000
0000
1000
0000
0010
0000
0001
0000
0100
0000
0000
0000
0000
0000
,
1M1M
0000
0010
0000
1000
0000
0100
0010
,
0001
0100
1000
0100
0010
0000
1000
0000
,
0001
0000
0000
0000
0100
0000
0100
0000
0100
0010
0100
0000
0001
0000
0010
0000
,
1000
0000
0010
0001
1000
0010
0000
0000
,
MM11
0000
0010
0000
0001
0000
0100
0010
,
1000
0100
0001
0100
0010
0000
0001
0000
,
1000
0000
0001
0100
0010
0000
0100
0010
1000
0000
0010
1000
0100
0000
0010
0000
,
0001
0000
0100
0001
1000
0100
0000
0000
,
1MM1
0MM0
0MM0
0MM0
,
M1M1
0000
M0M0
0000
M0M0
0000
M0M0
1000
,
11MM
00MM
00MM
00MM
,
M001
0010
100M
0100
M001
0010
M00M
0100
,
M1MM
0000
M0MM
0000
10MM
0000
0MMM
0010
,
1M1M
0000
MM0M
0000
M1MM
0000
M0MM
0010
,
MM11
0000
MM0M
0100
M1MM
0000
M0MM
0010
,
MM1M
1000
0100
0010
0001
1000
0100
0010
,
0001
0100
0001
0000
0M10
0000
0000
0000
0100
0000
0000
0000
1000
0000
0000
0000
,
1000
0010
1000
0000
01M0
0000
0000
0000
0010
0000
0000
0000
0001
0000
0000
0000
,
0001
0100
0001
0000
1M00
0000
0000
0000
1000
0100
1000
0000
0M01
0000
0000
0000
,
0010
0001
0010
0000
010M
0000
1000
0100
1000
0001
0100
0000
0010
0000
0100
0010
,
1000
0100
1000
0000
0M10
0000
0000
0000
0100
0000
0000
0000
0001
0000
0000
0000
,
0001
0010
0001
0000
01M0
0000
0000
0000
0010
0000
0000
0000
1000
0000
0000
0000
,
1000
0100
1000
0000
0M01
0000
0000
0000
0001
0100
0001
0000
1M00
0000
0000
0000
,
0010
1000
0010
0000
M100
0000
0001
0100
0001
1000
0100
0010
0001
0010
0100
0000
,
1001
0000
0000
0000
1M0M
0000
0010
0000
M000
0000
01M0
0000
0000
0000
0M01
0010
,
0100
100M
0100
0000
1MM1
0000
1M1M
0000
,
M1MM
0000
0000
0000
0M01
0000
0010
0000
0001
0000
01M0
0000
000M
0000
0M10
1000
,
0100
0010
0M10
0000
M11M
0000
MMMM
0000
,
1000
0010
M100
00M1
0M00
001M
0000
10M0
,
0000
M010
0001
0000
1MM1
0000
M1M1
0000
,
MM1M
0000
1000
0000
0001
0100
0010
0100
0001
0000
0000
0000
1MMM
0000
0100
0000
,
0010
0001
1000
0001
0100
0000
0010
1000
0001
0010
0100
1000
0100
0010
0001
0000
,
1001
0000
0000
0000
MM01
0000
0010
0000
000M
0000
01M0
0000
0000
0000
1M00
0010
,
0100
M001
0100
0000
1MM1
0000
MM11
0000
,
M1MM
0000
0000
0000
1M00
0000
0010
0000
1000
0000
01M0
0000
M000
0000
0M10
0001
,
0100
0010
0M10
0000
M11M
0000
MMMM
0000
,
0001
0010
010M
10M0
0M00
M010
0000
00M1
,
0000
001M
1000
0000
1MM1
0000
11MM
0000
,
MM1M
0000
0001
0000
1000
0100
0010
0100
1000
0000
0000
0000
MMM1
0000
0100
0000
,
0010
1000
0001
1000
0100
0000
0010
0001
1000
0010
0100
0001
0010
0100
1000
0000
,
MMMM
MMMM
MMMM
MMMM
MMMM
0000
0000
0000
0000
0000
0000
0000
0000
0000
0000
0000
0110
0000
0000
0000
0000
0000
0000
0000
0000
0000
0000
0000
0000
0000
0000
0000
0001
0000
0000
0000
0000
0000
0000
0000
0010
0000
0000
0000
0000
0000
0000
0000
0000
0000
0000
0000
0000
0000
0000
0000
1000
0000
0000
0000
0000
0000
0000
0000
,
0000
0000
0010
0001
0010
0000
0000
0000
0001
0000
0100
0000
1000
0000
0100
0000
,
0001
0000
0010
0000
0100
1000
0010
0100
,
0001
0000
0010
0000
0100
0000
1000
0000
0001
0000
0010
0000
0100
1000
0001
0000
,
0100
0000
0110
0000
1000
0010
0000
0001
,
0000
0000
0010
1000
0010
0000
0000
0000
1000
0000
0100
0000
0001
0000
0100
0000
,
1000
0000
0000
0000
0100
0000
0000
0000
0010
0000
0001
0100
0001
0000
0010
0000
,
0100
0000
1000
0010
1000
0000
0100
0000
0001
0000
0100
0010
0100
0000
1000
0000
,
0001
0000
0011
0000
1000
0001
0000
0100
,
0000
0000
0001
0100
0010
0000
0000
0000
0010
0000
0001
0000
0010
0000
1000
0000
,
0010
0000
1000
0000
0010
0100
0001
0010
,
1000
0000
0001
0000
0100
0000
1000
0000
0001
0000
0100
0000
0010
1000
0001
0000
,
0010
0000
1010
0000
0001
1000
0000
0100
,
0000
0000
1000
0100
0010
0000
0000
0000
0010
0000
1000
0000
0010
0000
0001
0000
,
0010
0000
0000
0000
0001
0000
0000
0000
0010
0000
0001
1000
0100
0000
0010
0000
,
0001
0000
1000
0001
0100
0000
0010
0000
1000
0000
0001
0100
0010
1000
0100
0010
,
0001
0100
0010
0000
1001
0000
0000
0000
0010
0000
0000
0000
1000
0000
0000
0000
,
0001
0010
0100
0001
0100
1000
0001
0000
,
1000
0000
0010
0100
0010
0000
0000
0000
0010
0000
0100
0000
0001
0010
0100
0000
,
1000
0010
0100
0000
0001
0010
0100
0010
,
1000
0110
0010
0001
,
1000
0010
0100
1000
0100
0001
1000
0000
,
1000
0000
0100
0010
0001
0000
1000
0100
0001
0000
1000
0010
0001
0000
1000
0100
,
0001
0100
1000
0000
1000
0010
0100
0010
,
0001
2MM2
0MM0
0MM0
,
0MM0
0MM0
0MM0
0MM0
,
0MM0
0000
0000
0000
0000
0000
0000
0000
0000
0000
0000
0000
0000
0000
0000
0000
0MM0
0000
0000
0000
0000
0000
0000
0000
0000
0000
0000
0000
0000
0000
0000
0000
0MM0
0000
0000
0000
0000
0000
0000
0000
0000
0000
0000
0000
0000
0000
0000
0000
3MM3
0000
0000
0000
0000
0000
MMMM
MMMM
MMMM
0000
0000
0000
0000
0000
0000
0000
;

//---------------dance-single - Standard----------------
#NOTES:
     dance-single:
     Standard:
     Medium:
     8:
     0.544,0.653,0.179,0.016,0.023:
0000
0000
0000
0000
,
0000
0000
0000
0000
,
0000
0000
0000
0000
,
0000
0000
0000
0000
,
0001
1000
0100
1000
,
0001
0100
0010
0000
,
0010
0000
0100
0001
0100
0000
0010
0000
,
1000
0000
0100
1000
0100
1000
0000
0000
,
1000
0001
0100
0001
,
1000
0100
0010
0000
,
0010
0000
0100
1000
0100
0000
0010
0000
,
0001
0000
0100
0001
0100
0001
0000
0000
,
0110
0000
1000
0010
0000
0010
0000
0010
,
1000
0000
0100
0000
0010
0001
1000
0000
,
0001
0010
0100
1000
,
0001
0000
0100
0010
1000
0010
0100
0000
,
0001
0000
0001
0010
0000
0010
0000
0010
,
0001
0000
0100
0000
0010
1000
0001
0000
,
1000
0010
0100
0001
,
1000
0000
0100
0010
0001
0010
0100
0000
,
0100
0000
1000
0001
0000
0100
0000
0001
,
1000
0000
0100
0000
0010
0001
1000
0000
,
0010
0000
1000
0000
0100
0010
0100
0010
,
0100
0010
0100
1000
0010
0100
0001
0000
,
0100
0000
0001
1000
0000
0100
0000
1000
,
0001
0000
0100
0000
0010
1000
0001
0000
,
0010
0000
0001
0000
0100
0010
0100
0010
,
0100
0010
0100
0001
0010
0100
1000
0000
,
1001
0000
0000
0000
0100
0000
0000
0010
1000
0000
0100
0000
0010
0000
0000
0000
,
1100
0000
0000
0000
0100
0000
0000
0010
0001
0000
0100
0000
0010
0000
0000
0000
,
0101
0000
0000
0000
0100
0000
0000
0100
0001
0000
0010
0000
0100
0000
0000
0000
,
1100
0000
0000
0000
0000
0100
1000
0000
0010
0000
0100
0001
1000
0001
0000
0000
,
0010
0001
0100
0001
,
1000
0000
0010
0100
0001
0000
0100
0000
,
0010
0000
1000
0100
1000
0000
1000
0010
,
1000
0000
0100
0010
0001
1000
0000
0000
,
0010
1000
0100
1000
,
0001
0000
0010
0100
1000
0000
0100
0000
,
0010
0000
0001
0100
0001
0000
0001
0010
,
0001
0000
0100
0010
1000
0001
0000
0000
,
1001
0000
0000
0000
,
0101
0000
0000
0000
0000
0000
0000
0010
,
0010
0000
0000
0000
,
1100
0000
0000
0000
0000
0000
0000
0010
,
0010
0000
0000
0000
0001
0000
0000
0100
,
0100
0000
0000
0000
0010
0000
0000
1000
,
1000
0000
0000
0001
0001
0000
0000
0010
,
0010
0100
1000
0100
0010
0100
1000
0001
,
1000
0100
0001
0100
,
1000
0100
0010
0001
,
1000
0010
0001
0010
,
1000
0000
0100
0000
0100
1000
0010
0100
,
0001
0100
1000
0100
,
0001
0100
0010
1000
,
0001
0010
1000
0010
,
0001
0100
0010
1000
0001
0100
0010
1000
,
0001
0000
1000
0100
0000
0010
0000
0001
,
1000
0001
1000
0000
0101
0000
0101
0000
,
0100
0000
0010
1000
0100
0010
0000
0010
,
0100
1000
0010
0000
0110
0000
0000
0000
,
0001
1000
0001
0010
0000
0100
0000
0010
,
0000
0001
1000
0000
1100
0000
1100
0000
,
0000
1000
0010
0100
0001
0000
0100
0000
,
0010
0100
0010
0000
1001
0000
0000
0000
,
1000
0000
0001
0100
0000
0010
0000
1000
,
0001
1000
0001
0000
1100
0000
1100
0000
,
0100
0000
0010
0001
0100
0010
0000
0010
,
0100
0001
0010
0000
0110
0000
0000
0000
,
1000
0001
1000
0010
0000
0100
0000
0010
,
0000
1000
0001
0000
0101
0000
0101
0000
,
0000
0001
0010
0100
1000
0000
0010
0000
,
0100
0010
0100
0001
0010
0000
0110
0000
,
0000
0000
0110
0000
1000
0010
0000
0010
,
0000
0010
1000
0000
0100
0000
0010
0001
,
1000
0000
0001
0000
0010
0001
1000
0000
,
1000
0001
0100
0000
0100
0010
1000
0010
,
0100
0000
0001
0000
0001
0010
0000
0010
,
0000
0010
0001
0000
0100
0000
0010
1000
,
0001
0000
1000
0000
0010
1000
0001
0000
,
0001
1000
0100
0000
0100
0010
0001
0010
,
0100
0000
0100
0000
1000
0001
0000
0100
,
0000
0001
1000
0000
0100
0000
0010
0001
,
0100
0000
0010
0000
1000
0000
0001
1000
,
0100
0010
0001
0010
0100
1000
0010
0100
,
0010
0000
0100
0000
0001
1000
0000
0100
,
0000
1000
0001
0000
0100
0000
0010
1000
,
0100
0000
0010
0000
0001
0000
1000
0001
,
0100
0010
1000
0010
0100
0001
0010
0100
,
0010
1001
0100
0010
,
0100
0000
0001
1000
0100
1000
0001
0000
,
0010
0000
0100
0000
1000
0100
0010
0100
,
1000
0100
0010
0000
0010
0001
0100
0010
,
0000
1000
0100
0010
,
0100
0000
1000
0001
0100
0001
1000
0000
,
0001
0000
0001
0100
0010
0100
0001
0100
,
1000
0100
0010
0000
0010
1000
0100
0010
,
0000
2002
0000
0000
,
0000
0000
0000
0000
,
0000
0000
0000
3003
;

//---------------dance-single - Beginner----------------
#NOTES:
     dance-single:
     Beginner:
     Beginner:
     3:
     0.206,0.300,0.163,0.000,0.000:
0000
0000
0000
0000
,
0000
0000
0000
0000
,
0000
0000
0000
0000
,
0000
0000
0000
0000
,
0001
0000
1000
0000
,
0001
0000
0001
0000
,
0100
0000
0000
0000
,
0010
0000
0000
0000
,
1000
0000
0001
0000
,
1000
0000
1000
0000
,
0100
0000
0000
0000
,
0010
0000
0000
0000
,
1001
0000
0000
0000
,
0100
0000
0000
0000
,
0001
0000
0010
0000
,
0010
0000
0010
0000
,
0100
0000
0000
0000
,
0100
0000
0000
0000
,
1000
0000
0010
0000
,
0010
0000
0010
0000
,
0100
0000
0000
0000
,
1001
0000
0000
0000
,
1000
0000
0100
0000
,
1000
0000
0001
0000
,
0100
0000
0000
0000
,
1001
0000
0000
0000
,
0001
0000
0100
0000
,
0001
0000
1000
0000
,
0100
0000
1000
0000
,
0001
0000
1000
0000
,
0001
0000
0100
0000
,
0010
0000
0100
0000
,
0010
0000
0000
0000
,
1000
0000
0000
0000
,
0100
0000
0001
0001
,
0001
0000
0100
0000
,
0010
0000
0000
0000
,
0001
0000
0000
0000
,
0100
0100
0100
0100
,
0100
0000
0010
0000
,
1001
0000
0000
0000
,
0010
0000
0000
0000
,
0100
0000
0000
0000
,
0001
0000
0000
0000
,
1001
0000
0000
0000
,
0010
0000
0000
0000
,
0100
0000
0000
0000
,
1000
0000
0000
0000
,
1001
0000
0000
0000
,
0100
0000
0000
0000
,
1000
0000
0001
0000
,
1000
0000
0010
0010
,
0010
0000
0000
0000
,
0100
0000
0000
0000
,
0001
0000
1000
0000
,
0001
0000
0010
0010
,
0010
0000
0000
0000
,
0100
0000
1001
1001
,
0001
0000
0100
0000
,
0010
0000
0110
0000
,
0010
0000
0000
0000
,
0100
0000
1001
1001
,
1000
0000
0100
0000
,
0010
0000
0110
0000
,
0001
0000
0100
0000
,
0010
0000
1001
1001
,
1000
0000
0100
0000
,
0010
0000
1001
0000
,
1000
0000
0100
0000
,
0010
0000
1001
1001
,
0001
0000
0100
0000
,
0010
0010
0110
0000
,
0000
1001
0000
0000
,
0000
0100
0000
0000
,
0000
0010
0000
1000
,
0000
0010
0000
0100
,
0000
0001
0000
0000
,
0000
0010
0000
0000
,
0000
0010
0000
0001
,
0000
0010
0000
0100
,
0000
1000
0000
0000
,
0000
0001
0000
0000
,
0000
1000
0000
0100
,
0000
0010
0000
0001
,
0000
1000
0000
0000
,
0000
0001
0000
0000
,
0000
0001
0000
0100
,
0000
0010
0000
1000
,
1000
1001
0000
0100
,
0000
0001
0001
0001
,
0000
0100
0000
0010
,
0010
0010
0000
1000
,
0000
0100
0000
0001
,
0000
0010
0010
0010
,
0000
0100
0100
0100
,
0100
0100
0001
1000
,
0000
1001
0000
0000
;
