#TITLE:DON'T STAY;
#SUBTITLE:(DDR Edit);
#ARTIST:[LINKIN PARK];
#TITLETRANSLIT:;
#SUBTITLETRANSLIT:;
#ARTISTTRANSLIT:;
#CREDIT:Kewing Darksun;
#BANNER:DON'T STAY (DDR Edit).png;
#BACKGROUND:DON'T STAY (DDR Edit)-bg.png;
#LYRICSPATH:DON'T STAY (DDR Edit).lrc;
#CDTITLE:!Kewing DarkSun (cdtitle).png;
#MUSIC:02 - DON'T STAY (Edited).mp3;
#OFFSET:-0.569;
#SAMPLESTART:55.759;
#SAMPLELENGTH:12.000;
#SELECTABLE:YES;
#BPMS:0.000=90.043;
#STOPS:;
#BGCHANGES:4.000=Tunnel12.avi=0.750=1=0=1
,12.000=Tunnel12.avi=0.950=0=0=1
,13.000=Tunnel12.avi=0.950=0=0=1
,14.000=Tunnel12.avi=1.200=0=0=1
,15.000=Tunnel12.avi=1.200=0=0=1
,16.000=Tunnel12.avi=1.500=0=0=1
,17.000=Tunnel12.avi=2.000=0=0=1
,20.000=Lines4.avi=1.074=0=0=1
,36.000=Singer1.avi=0.700=0=0=1
,40.000=Lady13.avi=0.500=1=0=1
,44.000=Singer1.avi=0.700=1=0=1
,48.000=Lady13.avi=0.500=1=1=1
,49.875=SingerStill4.avi=0.000=0=0=1
,50.625=Silhouette1.avi=0.000=0=0=1
,51.375=SingerStill5.avi=0.000=0=0=1
,52.000=Lightning1.avi=1.400=0=0=1
,68.000=Silhouette1.avi=1.600=0=0=1
,76.000=text22.avi=1.000=0=0=1
,83.000=Singer1.avi=0.700=0=0=1
,84.000=Silhouette1.avi=1.600=0=0=1
,92.000=text22.avi=1.000=0=0=1
,99.000=Singer1.avi=0.700=0=0=1
,100.000=singerstill1.avi=0.100=0=1=0
,100.500=Tunnel12.avi=2.000=1=0=1
,108.000=SingerStill2.avi=0.100=0=1=0
,108.500=Tunnel12.avi=2.000=1=0=1
,116.000=SingerStill3.avi=0.100=0=1=0
,116.750=DON'T STAY (DDR Edit)-bg.png=1.000=1=0=1
;

//---------------dance-single - Light----------------
#NOTES:
     dance-single:
     Light:
     Easy:
     4:
     0.280,0.252,0.245,0.196,0.000:
0000
0000
0000
0000
,
0001
1000
0200
0300
,
0001
0010
2000
3000
,
1000
0001
0200
0300
,
1000
0000
0010
0000
0000
0100
0110
0000
,
1001
0001
1000
0010
,
1000
1000
1000
0000
0001
0000
0100
0000
,
0001
0001
0001
0000
1000
0000
0100
0000
,
1000
1000
1000
0000
0001
0000
0100
0010
,
0100
0020
2030
3200
,
0300
0001
0100
1000
,
0001
0020
0032
0203
,
0300
1000
0100
0010
,
0110
0102
1003
2100
,
3001
0010
1000
0100
,
0001
2010
3100
0012
,
0103
0000
0010
0000
2002
0000
0000
3003
,
0110
0000
0100
0000
0010
0001
1000
0000
,
0100
0000
1000
0000
0010
1000
0001
0000
,
0110
0010
1001
0010
,
0110
0001
1000
1001
,
0110
0000
0100
0000
0010
1000
0001
0000
,
0100
0000
0001
0000
0010
0001
1000
0000
,
0110
0100
1001
0100
,
0110
1000
0001
1001
,
0110
0100
0100
0000
0010
1000
0010
0000
,
1000
0001
1000
0000
0100
1000
0100
0000
,
0110
0100
0100
0000
0010
0001
0010
0000
,
0001
1000
0001
0000
0100
0001
0100
0010
,
2000
0000
0000
0000
0000
3000
0000
0000
0000
0000
0000
0000
0000
0000
0000
0000
;

//---------------dance-single - Standard----------------
#NOTES:
     dance-single:
     Standard:
     Medium:
     6:
     0.327,0.341,0.159,0.012,0.080:
0000
0000
0000
0000
,
1000
0100
1000
0100
,
0001
0010
0001
0010
,
0100
1000
0100
1000
,
0010
0000
0100
0000
0000
0110
1001
0000
,
0100
0010
0001
0000
1000
0100
0010
0000
,
0001
1000
0100
0000
0010
0001
0100
0000
,
0100
0010
1000
0000
0001
0100
0010
0000
,
1000
0000
0001
0000
0100
0000
0000
0000
0010
0000
1000
0000
0100
0010
0100
0010
,
0100
0010
0001
0011
,
0100
0000
1000
0000
0001
0000
0010
0001
,
0100
0010
1000
1010
,
0100
0000
0000
0000
0100
0000
0001
0000
1000
0000
0000
0001
0000
0000
1000
0000
,
0001
0010
0100
1000
0100
0000
1100
0000
,
1000
0010
0100
0000
0100
0001
1000
0000
,
1000
0010
0100
0001
0100
0000
0101
0000
,
0001
0000
0010
0000
0100
0000
1000
0000
0001
0000
0000
1000
0000
0000
0010
0000
,
0110
0000
0010
0000
0010
1000
0100
0010
,
0001
0000
0000
0000
1000
0000
0000
0000
1010
0000
0000
0010
0000
0000
0100
0000
,
0001
0000
1000
0100
0010
0000
0001
0100
,
0010
0000
0010
0001
0010
1000
1001
0000
,
0110
0000
0010
0000
0010
0001
0100
0010
,
1000
0000
0000
0000
0001
0000
0000
0000
0011
0000
0000
0010
0000
0000
0100
0000
,
1000
0000
0001
0100
0010
0000
1000
0100
,
0010
0000
0010
1000
0010
0001
1001
0000
,
0110
0000
0100
0000
0100
0000
0010
0000
1000
0000
0001
0000
1000
0001
1000
0000
,
0100
0000
0010
0000
0010
0000
0100
0000
1000
0000
0001
0000
0001
0100
0001
0000
,
0010
0000
0100
0000
0100
0000
0010
0000
0001
0000
1000
0000
0001
1000
0001
0000
,
0100
0000
0010
0000
1000
0001
1000
0000
0100
0000
0010
0001
0010
0001
0100
0001
,
2000
0000
0000
0000
0000
3000
0000
0000
0000
0000
0000
0000
0000
0000
0000
0000
;

//---------------dance-single - Heavy----------------
#NOTES:
     dance-single:
     Heavy:
     Hard:
     8:
     0.459,0.431,0.159,0.012,0.570: // measure 1
0000
0000
0000
0000
,  // measure 2
1000
0000
0100
0000
1000
0000
0000
0000
0100
0000
0000
0010
0000
0000
0001
0000
,  // measure 3
0001
0000
0100
0000
0001
0000
0000
0000
0100
0000
0000
0010
0000
0000
1000
0000
,  // measure 4
0100
0000
0001
0000
0100
0000
0000
0000
0010
0000
0000
0001
0000
0000
1000
0000
,  // measure 5
0001
0000
0100
0000
1000
0000
0000
0000
0000
0000
0110
0000
0001
1000
0001
0000
,  // measure 6
1000
0000
0100
0000
1000
0010
0000
0000
0100
0000
0001
1000
0000
1000
0001
0000
,  // measure 7
0001
0000
0100
0000
0001
0010
0000
0000
0100
0000
1000
0001
0000
0001
1000
0000
,  // measure 8
0100
0000
0010
0000
0001
0100
0001
0100
0001
0000
1000
0100
0000
0100
1000
0000
,  // measure 9
0010
0000
0100
0000
0001
0010
0000
0100
1000
0000
0100
1000
0001
1000
0010
0100
,  // measure 10
0010
0000
0000
0000
1010
0000
0000
1000
0001
0000
0000
0000
0101
0000
0000
0000
,  // measure 11
0001
0000
1000
0000
0100
0000
0010
0100
0000
0000
0010
0000
0001
0000
1000
0001
,  // measure 12
0000
0000
0000
0000
0011
0000
0000
0001
1000
0000
0000
0000
1100
0000
0000
0000
,  // measure 13
1000
0000
0010
0000
0100
0000
0001
0000
1000
0100
0000
0001
0000
0100
1000
0000
,  // measure 14
1001
0000
1000
0000
0010
1000
0001
0000
1000
0000
0001
0000
0010
0001
1000
0000
,  // measure 15
0001
0000
1000
0000
0001
0100
0001
0000
0010
0000
0100
0000
1000
0010
1000
0000
,  // measure 16
0001
0000
1000
0000
0100
1000
0001
0000
1000
0000
0001
0000
0100
0001
1000
0000
,  // measure 17
0001
0000
1000
0000
0100
0000
0010
0000
0001
0100
0000
0100
0000
0010
1000
0001
,  // measure 18
1000
0000
0000
0100
0010
0100
0000
1000
0000
0010
0000
0001
0000
0000
0000
0010
,  // measure 19
0100
0010
0000
0100
0000
0001
0000
0010
0000
1000
0000
0010
0000
0000
0100
0000
,  // measure 20
0110
0000
0010
0000
0001
0100
0000
0010
0000
0000
0010
0000
1000
0100
0000
0010
,  // measure 21
0000
0000
0110
0000
0100
1000
0001
0100
0000
0110
0000
0100
0010
0000
0000
0000
,  // measure 22
1001
0000
0000
1000
0100
0001
0000
0100
0000
1000
0000
0001
0000
0000
0000
0001
,  // measure 23
0100
1000
0000
0100
0000
0001
0000
0010
0000
1000
0000
0100
0000
0000
0001
1000
,  // measure 24
0001
0000
0100
0000
0010
0000
1000
0100
0000
0000
0100
0000
0010
0000
0001
0100
,  // measure 25
0000
0000
0110
0000
0100
0001
1000
0100
0000
0110
0000
0100
0010
0000
0000
0000
,  // measure 26
1001
0000
0100
0000
0010
1000
0100
0010
0100
0000
1000
0001
0000
1000
0010
0000
,  // measure 27
0100
0000
0001
0000
1000
0100
0010
0000
0001
0000
0100
0001
0010
0001
1000
0100
,  // measure 28
0010
0000
0100
0000
0010
0001
0100
0010
0100
0000
0001
1000
0000
0001
0010
0000
,  // measure 29
0100
0000
1000
0000
0010
0100
0000
0001
0010
0001
0100
0010
1000
0100
0010
0001
,  // measure 30
2000
0000
0000
0000
0000
3000
0000
0000
0000
0000
0000
0000
0000
0000
0000
0000
;

//---------------dance-single - Beginner----------------
#NOTES:
     dance-single:
     Beginner:
     Beginner:
     1:
     0.140,0.142,0.074,0.000,0.000:
0000
0000
0000
0000
,
1000
0000
1000
0000
,
0001
0000
0001
0000
,
1000
0000
1000
0000
,
0001
0000
0000
0110
,
0110
0000
1000
0000
,
0100
0000
0001
0000
,
1000
0000
0001
0000
,
0010
0000
1000
1000
,
0000
0001
0001
0001
,
0000
1000
0000
0010
,
0000
1000
1000
1000
,
0000
0001
0001
0000
,
1001
1000
1000
0000
,
0001
0001
0001
0000
,
0010
0010
0010
0000
,
0100
0100
0100
0000
,
0110
0010
0010
0000
,
0100
0100
0100
0000
,
1000
0000
0010
0000
,
0100
0100
0100
0000
,
0110
0010
0010
0000
,
0100
0100
0100
0000
,
0001
0000
0010
0000
,
0100
0100
0100
0000
,
1001
0001
0001
0000
,
0100
0100
0100
0000
,
1000
1000
1000
0000
,
0001
0001
0001
0000
,
1000
0000
0000
0000
;
