#TITLE:DIAMOND DUST ZONE Act 1;
#SUBTITLE:[Sonic 3D Blast];
#ARTIST:SONIC TEAM;
#TITLETRANSLIT:;
#SUBTITLETRANSLIT:;
#ARTISTTRANSLIT:;
#CREDIT:Kewing Darksun;
#BANNER:DIAMOND DUST ZONE Act 1.png;
#BACKGROUND:DIAMOND DUST ZONE Act 1-bg.png;
#LYRICSPATH:;
#CDTITLE:!Kewing DarkSun v2 (cdtitle).png.png;
#MUSIC:09 - Diamond Dust Zone Act 1.mp3;
#OFFSET:-0.641;
#SAMPLESTART:0.280;
#SAMPLELENGTH:14.740;
#SELECTABLE:YES;
#BPMS:0.000=132.800;
#STOPS:;
#BGCHANGES:;

//---------------dance-single - ----------------
#NOTES:
     dance-single:
     :
     Easy:
     3:
     0.248,0.249,0.087,0.175,0.000:
0000
0000
1000
0000
,
0100
0000
1000
0001
,
0100
0000
0010
0000
,
0100
0001
0100
0001
,
0101
0000
0001
0000
,
0100
0000
0001
1000
,
0100
0000
0010
0000
,
0100
1000
0100
1000
,
0100
0010
0000
0010
,
0010
0100
0000
0100
,
0100
1000
0000
1000
,
1000
0001
0000
0001
,
0001
0100
0000
0100
,
0100
0010
0000
0010
,
0010
1000
0000
1000
,
1000
0001
0000
0001
,
1000
0100
1000
0100
,
0000
0010
0001
0010
,
0000
0001
1000
0001
,
1001
0000
0110
0000
,
2001
0000
0200
0000
,
3300
1000
0100
0010
,
0002
0000
1000
0000
,
2003
0000
3010
0100
,
0002
0000
0200
0000
,
0303
0001
0100
0010
,
2000
0000
3002
0000
,
1003
0000
0100
0010
,
0002
0000
2003
0000
,
3010
1000
0010
1000
,
0200
0000
0310
0001
,
0200
0000
0310
0000
,
0010
1000
0010
0100
,
0002
0000
2003
0000
,
3001
0100
0010
1000
,
1100
0000
0010
0001
,
0101
0001
0100
0001
,
0100
0010
1000
0100
,
0010
0001
0010
0001
,
0010
1000
0100
0001
,
1001
0000
0000
0000
;

//---------------dance-single - ----------------
#NOTES:
     dance-single:
     :
     Medium:
     7:
     0.426,0.448,0.100,0.125,0.062:
0000
0000
0010
1000
0010
0000
0100
0000
,
0001
1000
0001
0000
0100
0000
0010
1000
,
0010
0000
0100
0000
0001
1000
0100
0010
,
0001
0100
0010
1000
,
1001
0000
0010
0001
0010
0000
0100
0000
,
1000
0001
1000
0000
0100
0000
0010
0001
,
0010
0000
0100
0000
1000
0001
0100
0010
,
1000
0100
0010
0001
,
0000
0001
0100
0001
0000
0100
0010
0100
,
0000
0001
0100
0001
0000
0010
0100
0010
,
0000
0001
0100
0001
0000
1000
0010
1000
,
0000
0010
1000
0001
0000
0100
0001
1000
,
0000
1000
0100
1000
0000
0100
0010
0100
,
0000
1000
0100
1000
0000
0010
0100
0010
,
0000
1000
0100
1000
0000
0001
0010
0001
,
0000
0010
0100
1000
0000
0010
0100
0001
,
0000
1000
0100
0000
0001
0100
1000
0000
,
0000
0010
0100
0000
0001
1000
1001
0000
,
0000
0001
0100
0000
1000
0100
0001
0000
,
1000
0000
0000
0010
0000
0000
0100
0000
0000
0001
0000
0000
0000
0000
0000
0000
,
2001
0000
0000
0001
0000
0000
0200
0000
0000
0000
0000
0000
0000
0000
3300
0000
,
0000
0000
0010
0000
0001
0000
1000
0000
1000
0000
0000
0010
0000
0000
0100
0000
,
0002
0000
0100
0100
0000
0000
0013
0100
,
2000
0000
0100
0000
3000
0010
0010
0000
,
1002
0000
0000
1000
0000
0000
0100
0000
0100
0000
0000
0100
0000
0000
0103
0000
,
0000
0000
0010
0000
1000
0000
0001
0000
0001
0000
0000
0010
0000
0000
0100
0000
,
2000
0000
0010
0020
3000
0000
0100
0230
,
0000
0001
0000
0000
0001
0000
0000
0000
0301
0000
0000
0000
1000
0000
0000
0000
,
1001
0000
0010
0001
1000
0000
0010
0000
,
1000
0001
0001
0000
0010
0000
1000
0010
,
0001
0000
0100
0001
0010
0000
0100
1000
,
0010
0100
0100
0000
0100
0000
1000
0100
,
0001
0000
1000
0100
0010
0000
0100
0010
,
0002
0100
2003
0100
,
3001
0000
1000
0000
0001
0000
0100
0010
,
0100
0000
1001
0000
0010
0001
0100
0010
,
1000
0100
1000
0001
1000
0100
0001
0000
,
0001
0100
1000
0100
0010
0001
0100
0000
,
0001
0100
0001
1000
0001
0100
1000
0100
,
0001
0000
0100
0000
0010
0000
1000
0000
0100
0000
0010
0000
0000
0110
0000
1001
;

//---------------dance-single - ----------------
#NOTES:
     dance-single:
     :
     Hard:
     8:
     0.486,0.473,0.199,0.087,0.212: // measure 1
0000
0000
0000
0000
0100
0000
0001
0000
0010
0000
0000
0001
0000
0000
0001
0000
,  // measure 2
0010
0000
0100
0000
1000
0000
0000
0001
0000
0000
0001
0000
0100
0000
0010
0000
,  // measure 3
1000
0000
0000
0001
0000
0000
0001
0000
0000
0000
1000
0000
0010
0000
0100
0000
,  // measure 4
0110
0101
1001
0011
,  // measure 5
0110
0000
0000
0000
0100
0000
1000
0000
0010
0000
0000
1000
0000
0000
1000
0000
,  // measure 6
0010
0000
0100
0000
0001
0000
0000
1000
0000
0000
1000
0000
0100
0000
0010
0000
,  // measure 7
0001
0000
0000
1000
0000
0000
1000
0000
0000
0000
0001
0000
0010
0000
0100
0000
,  // measure 8
0110
1100
1001
1010
,  // measure 9
0110
0010
0100
0001
0000
0010
0100
1000
,  // measure 10
0000
0100
0010
0001
0000
0100
0010
1000
,  // measure 11
0000
0100
1000
0010
0000
0100
0001
0010
,  // measure 12
0000
0001
0100
1000
0000
1000
0010
0001
,  // measure 13
0000
0010
0100
1000
0000
0010
0100
0001
,  // measure 14
0000
0100
0010
1000
0000
0100
0010
0001
,  // measure 15
0000
0100
0001
0010
0000
0100
1000
0010
,  // measure 16
0000
1000
0100
0001
0000
0001
0010
0100
,  // measure 17
0100
0000
0001
0000
1000
0001
0000
0000
0010
0000
0001
1000
0000
0000
0100
0000
,  // measure 18
0100
0000
1000
0000
0001
1000
0000
0000
0010
0000
1000
0001
0000
0000
0100
0000
,  // measure 19
0100
0000
0010
0000
1000
0100
0000
0000
0010
0000
0001
0100
0000
0000
0000
0000
,  // measure 20
0001
1000
0000
0100
0000
0000
1000
0001
0000
0100
0000
0000
0010
0000
0100
0000
,  // measure 21
0110
0000
0000
0002
0000
0000
2000
0000
0000
0000
0000
0000
0000
0000
0000
0000
,  // measure 22
3003
0000
0010
0000
1000
0000
0100
0000
1000
0000
0000
0001
0000
0000
0010
0000
,  // measure 23
0001
0000
0000
1000
0000
0000
0010
0000
1000
0000
0000
0000
0100
0000
0010
0000
,  // measure 24
0001
1000
0010
0001
0000
0001
0010
1000
,  // measure 25
0001
0000
0000
0010
0000
0000
0100
0000
1000
0000
0000
0010
0000
0000
0100
0000
,  // measure 26
0000
0000
0001
1000
0001
0000
0010
0000
0001
0000
0000
0100
0000
0000
0010
0000
,  // measure 27
1000
0000
0000
0010
0000
0000
0100
0000
0001
0000
0000
0000
0010
0000
0200
0000
,  // measure 28
0000
1000
0000
0000
0001
0000
0000
0000
1300
0000
0000
0000
0001
0000
0100
0000
,  // measure 29
1000
0000
0100
0010
1000
0100
0010
0000
,  // measure 30
0001
0100
0010
0000
0001
0000
0010
1000
,  // measure 31
0100
0000
0000
0000
0010
0000
0001
0000
0100
0000
0000
1000
0000
0000
0100
0000
,  // measure 32
0001
0010
0100
0000
0001
0000
0100
1000
,  // measure 33
0001
0000
0000
0101
0000
0000
0100
0000
0010
0000
0000
1010
0000
0000
1000
0000
,  // measure 34
0100
0000
1000
0001
1000
0000
0100
0000
,  // measure 35
0020
0032
0203
0320
,  // measure 36
1030
0001
1001
0000
0010
0001
0100
0010
,  // measure 37
1000
0001
0010
0001
1000
0010
0100
0001
,  // measure 38
0010
1000
0010
0001
0100
0010
1000
0100
,  // measure 39
1000
0001
0100
0001
1000
0100
0010
0001
,  // measure 40
1000
0010
0000
0000
0010
0000
0100
0001
0000
0010
0000
0100
0000
0110
0000
1001
;

//---------------dance-single - ----------------
#NOTES:
     dance-single:
     :
     Beginner:
     1:
     0.142,0.175,0.075,0.000,0.000:
0000
0000
1000
0000
,
0001
0000
1000
0000
,
0100
0000
0010
0000
,
0100
0100
0100
0000
,
0110
0000
0001
0000
,
1000
0000
0001
0000
,
0100
0000
0010
0000
,
0100
0100
0100
0000
,
0001
0000
0000
0000
,
0010
0000
0000
0000
,
1000
0000
0000
0000
,
0010
0000
0001
0000
,
1000
0000
0000
0000
,
0010
0000
0000
0000
,
0001
0000
0010
0000
,
1000
1000
1000
0000
,
0100
0000
0000
0000
,
0010
0000
0000
0000
,
0001
0000
0000
0000
,
0100
0000
0010
0000
,
1001
0000
0000
0000
,
1000
0000
0100
0000
,
0010
0000
0000
0000
,
0001
0000
1000
0000
,
1001
0000
0000
0000
,
0100
0000
0010
0000
,
1000
0000
0000
0000
,
0100
0000
0010
0000
,
1001
0000
0001
0000
,
1000
0000
0001
0000
,
0100
0000
0010
0010
,
0010
0000
1000
0000
,
0100
0000
0010
0000
,
0100
0000
0010
0000
,
0001
0000
1000
0000
,
0110
0000
0000
0000
,
1001
0000
1000
0000
,
0010
0010
0010
0000
,
0001
0000
0100
0000
,
1000
1000
1000
1000
,
1000
0000
0000
0000
;
