#TITLE:DEAD END;
#SUBTITLE:(B4 ZA BEAT MIX);
#ARTIST:N&S;
#TITLETRANSLIT:;
#SUBTITLETRANSLIT:;
#ARTISTTRANSLIT:;
#CREDIT:Mr. Kewing;
#BANNER:DEAD END (B4 ZA BEAT MIX).png;
#BACKGROUND:DEAD END (B4 ZA BEAT MIX)-bg.png;
#LYRICSPATH:;
#CDTITLE:!Kewing DarkSun (cdtitle).png;
#MUSIC:DEAD END (B4 ZA BEAT MIX).ogg;
#OFFSET:-0.111;
#SAMPLESTART:21.460;
#SAMPLELENGTH:10.000;
#SELECTABLE:YES;
#BPMS:0.000=190.000;
#STOPS:;
#BGCHANGES:;

//---------------dance-single - ----------------
#NOTES:
     dance-single:
     :
     Hard:
     9:
     0.737,0.708,0.572,0.044,0.033: // measure 1
0000
0000
0000
0000
,  // measure 2
0000
0000
0000
0000
,  // measure 3
0000
0000
0000
0000
,  // measure 4
0000
0000
0000
0000
,  // measure 5
1000
0001
0100
0000
0100
0001
1000
0000
,  // measure 6
0001
1000
0100
0000
0100
1000
0001
0000
,  // measure 7
0010
0100
1000
0000
0010
0100
0001
0000
,  // measure 8
0010
0100
1000
0000
0001
0100
1000
0000
,  // measure 9
0101
0000
0000
0000
,  // measure 10
0010
1000
0100
0000
0100
0010
0001
0000
,  // measure 11
0001
1000
0010
0000
0010
0100
0001
0000
,  // measure 12
0001
0010
1000
0000
1000
0010
0001
0000
,  // measure 13
0001
0100
0010
1000
0100
1000
0001
0000
,  // measure 14
0010
0001
0100
0000
0100
0010
1000
0000
,  // measure 15
1000
0001
0010
0000
0010
0100
1000
0000
,  // measure 16
1000
0010
0001
0000
0001
0010
1000
0000
,  // measure 17
1000
0100
0010
0001
0100
0001
1000
0000
,  // measure 18
1000
0001
0100
0000
0100
0010
1000
0100
,  // measure 19
0001
0100
1000
0001
0100
0010
0000
0010
,  // measure 20
1000
0100
0010
0001
1000
0001
0100
0010
,  // measure 21
1000
0100
0010
0100
1000
0001
0000
0001
,  // measure 22
0100
0010
1000
0100
0010
0100
0010
0001
,  // measure 23
0100
1000
0100
0001
0100
0010
0000
0010
,  // measure 24
1000
0100
1000
0001
0100
0001
0010
0100
,  // measure 25
0010
0001
1000
0010
1000
0100
0000
0100
,  // measure 26
0110
0000
0010
0000
0100
1000
0010
1000
,  // measure 27
0010
0000
0001
0010
0000
1000
0000
1100
,  // measure 28
0100
1100
0000
0000
1000
0001
0100
0001
,  // measure 29
1000
0100
0000
0010
0000
0001
0000
0100
,  // measure 30
0110
0000
0010
0000
0100
0001
0010
0001
,  // measure 31
0010
0000
1000
0010
0000
0001
0000
0101
,  // measure 32
0100
0101
0000
0000
0001
1000
0100
1000
,  // measure 33
0001
0000
0000
0100
0000
0000
0010
0000
2002
0000
0000
0000
0000
0000
3003
0000
,  // measure 34
1010
0000
0101
0000
0100
0010
1000
0000
,  // measure 35
1100
0000
0011
0000
0010
0100
1000
0000
,  // measure 36
1010
0000
0101
0000
0100
0010
1000
0000
,  // measure 37
0100
0010
0001
0100
1000
0100
0010
0000
,  // measure 38
0110
0000
0000
0000
0000
0000
0000
1100
0000
0000
0000
0000
0101
0000
0000
0000
,  // measure 39
1001
0000
0000
0000
0000
0000
0000
0110
0000
0000
0000
0000
1001
0000
0000
0000
,  // measure 40
1000
0100
0001
0010
1000
0100
0001
1000
,  // measure 41
2002
0000
0000
3003
,  // measure 42
0001
1000
0100
0000
0100
0010
0001
0100
,  // measure 43
1000
0100
0001
1000
0100
0010
0000
0010
,  // measure 44
0001
0100
0010
1000
0001
1000
0100
0010
,  // measure 45
0001
0100
0010
0100
0001
1000
0000
1000
,  // measure 46
0100
0010
0001
0100
0010
0100
0010
1000
,  // measure 47
0100
0001
0100
1000
0100
0010
0000
0010
,  // measure 48
0001
0100
0001
1000
0100
1000
0010
0100
,  // measure 49
0010
1000
0001
0010
0001
0100
0000
0100
,  // measure 50
0001
1000
0010
0000
0010
0100
0001
0010
,  // measure 51
0001
0100
0010
1000
0100
0001
0000
0001
,  // measure 52
0100
0010
0001
0100
0010
1000
0010
0100
,  // measure 53
1000
0100
0001
0010
0100
0010
0000
0010
,  // measure 54
0001
0100
0010
1000
0100
1000
0010
0001
,  // measure 55
0010
0100
0001
1000
0100
0010
0000
0010
,  // measure 56
0100
1000
0010
0100
0001
0010
1000
0010
,  // measure 57
0100
0010
0001
0100
0010
1000
0000
1000
,  // measure 58
0100
0010
0001
0100
0000
1010
0000
0000
,  // measure 59
1000
1000
1000
0100
0001
0001
0001
0000
,  // measure 60
0100
0010
0001
0100
0000
1010
0000
0000
,  // measure 61
1001
0110
0011
1100
,  // measure 62
0010
0000
1000
0001
1000
0000
0000
0000
1001
0000
0000
0000
1001
0000
0000
0000
,  // measure 63
1100
0000
1001
0000
0101
0010
1000
0000
,  // measure 64
1000
0100
0001
0100
0000
0010
0011
0000
,  // measure 65
0101
0000
1001
0000
1100
0010
0001
0000
,  // measure 66
0001
0100
1000
0100
0000
0010
1010
0000
,  // measure 67
1010
0000
1001
0000
0011
0100
1000
0000
,  // measure 68
1000
0010
0001
0010
0000
0100
0101
0000
,  // measure 69
0011
0000
1001
0000
1010
0100
0001
0000
,  // measure 70
0001
0010
1000
0010
0000
0100
1100
0000
,  // measure 71
1001
0000
0000
1010
0000
0000
1010
0000
0000
0000
0100
0000
0010
0000
0001
0000
,  // measure 72
1001
0000
0000
1001
0000
0000
1001
0000
0110
0000
0000
0000
0000
0000
0000
0000
;

//---------------dance-single - ----------------
#NOTES:
     dance-single:
     :
     Easy:
     5:
     0.459,0.590,0.396,0.154,0.000:
0000
0000
0000
0000
,
0000
0000
0000
0000
,
0000
0000
0000
0000
,
0000
0000
0000
0000
,
0020
0000
0000
0030
0200
0000
0000
0300
,
0020
0000
0000
0030
0200
0000
0000
0300
,
2000
0000
3002
0000
,
2003
0000
0000
0000
3002
0000
0000
0003
,
1001
0000
0000
0000
,
0001
0100
0001
0100
,
0010
1000
0001
0000
,
1000
0001
0010
0100
,
1000
0000
0001
0000
0000
0100
0000
0100
,
0000
0010
1000
0100
,
0001
0100
1000
0000
,
1000
0001
0100
0001
,
0010
0000
0001
0000
0000
1000
0000
1000
,
0000
0100
1000
0100
,
0010
0001
1000
0000
,
0001
1000
0010
0100
,
0001
0000
1000
0000
0000
0100
0000
0100
,
0000
0010
0001
0100
,
1000
0100
0001
0000
,
0001
1000
0100
1000
,
0010
0000
1000
0000
0000
0001
0000
0001
,
0110
0000
0100
0000
,
0100
0000
0000
0000
0100
0000
0000
0010
,
0000
1001
0000
0000
0001
0000
0100
0000
,
0010
0000
0000
0000
0100
0000
0000
1000
,
0110
0000
0100
0000
,
0100
0000
0000
0000
0100
0000
0000
0010
,
0000
1001
0000
0000
1000
0000
0100
0000
,
0010
0100
0010
0000
2002
0000
3003
0000
,
0001
0001
0100
0010
,
1000
1000
0001
0001
,
0001
0010
0100
0100
,
1000
0010
0010
0010
,
0101
0000
0010
0000
,
1100
0000
0010
0000
,
0100
0010
0010
0100
,
1001
0000
0000
0000
,
0001
0010
0001
0100
,
0010
0000
1000
0000
0100
0010
0000
0010
,
0000
0001
0100
0001
,
0010
0000
0100
0000
0000
0100
0000
0100
,
1000
0010
1000
0100
,
0010
0000
0001
0000
0100
0010
0000
0010
,
0000
1000
0100
1000
,
0010
0000
0100
0000
0000
0100
0000
0100
,
0001
1001
0001
0010
,
0001
0000
1000
0000
0100
0010
0000
0010
,
0100
0001
0100
1000
,
0001
0000
0100
0000
0010
1000
0000
1000
,
0100
1001
1000
0100
,
1000
0000
0001
0000
0100
0010
0000
0010
,
0100
1000
0100
0001
,
1000
0000
0100
0000
0010
0001
0000
0001
,
0100
0000
0010
2000
0000
0200
0000
3300
,
0001
0100
1000
0010
,
1100
0000
0010
0002
0000
0200
0000
0303
,
0010
0100
0010
0100
,
1001
0000
0000
0000
,
1010
1010
1010
1100
,
0100
0010
0010
0000
0001
0000
0100
0000
,
0011
0011
0011
0101
,
0100
0010
0010
0000
1000
0000
0100
0000
,
1010
1010
1010
0101
,
0001
0010
0010
0000
1000
0000
0010
0000
,
0011
0011
0011
1100
,
1000
0010
0010
0000
0001
0000
0010
0000
,
1010
0011
1001
1001
,
0110
0110
1001
0000
;

//---------------dance-single - ----------------
#NOTES:
     dance-single:
     :
     Medium:
     8:
     0.590,0.669,0.484,0.000,0.028:
0000
0000
0000
0000
,
0000
0000
0000
0000
,
0000
0000
0000
0000
,
0000
0000
0000
0000
,
0001
0100
0001
0100
,
0010
1000
0010
1000
,
0100
0010
0001
0100
,
1001
0100
1001
0010
,
1100
0000
0000
0000
,
1000
0100
0010
0000
0001
0000
0100
0000
,
0001
0000
1000
0000
0100
0001
0100
0000
,
1000
0000
0010
0000
0100
1000
0100
0000
,
0001
0000
0100
0000
0010
1000
0000
1000
,
0100
0000
0010
0000
0001
1000
0100
0000
,
1000
0000
0010
0000
0100
0001
0000
0001
,
0010
0000
0100
0000
1000
0001
1000
0010
,
1000
0000
0100
0000
0010
0001
0000
0000
,
0001
0100
0010
0000
1000
0000
0100
0000
,
1000
0000
0001
0000
0100
1000
0100
0000
,
0001
0000
0010
0000
0100
0001
0100
0000
,
0001
0000
0100
0000
0010
0001
0000
0001
,
0100
0000
0010
0000
1000
0001
0100
0000
,
0001
0000
0010
0000
0100
1000
0000
1000
,
0010
0000
0100
0000
0001
1000
0001
0010
,
0001
0000
0100
0000
0010
1000
0000
0001
,
1001
0100
1000
0010
,
0001
0000
0010
0100
0000
0010
0000
1000
,
0001
0100
0000
0000
0001
0000
0010
0000
,
0110
0000
0000
0100
0000
0000
1000
0000
,
1001
0100
0001
0010
,
1000
0000
0010
0100
0000
0010
0000
0001
,
1000
0100
0000
0000
1000
0000
0010
0000
,
0100
0000
0000
0100
0000
0000
0100
0000
0110
0000
0000
0000
0000
0000
0000
0000
,
1000
0000
1000
0000
1000
0001
0010
0000
,
0010
0000
0010
0000
0010
0100
1000
0000
,
1000
0000
1000
0000
1000
0010
0100
0000
,
0100
0001
0010
0100
1000
0010
0100
0000
,
1001
0000
0000
0000
0000
0000
0000
0010
0000
0000
0000
0000
0100
0000
0000
0000
,
1001
0000
0000
0000
0000
0000
0000
0100
0000
0000
0000
0000
0010
0000
0000
0000
,
0001
1000
0001
1000
0010
0100
0010
0100
,
0110
0000
0000
0000
,
0010
1000
0001
0000
0001
0010
0100
0000
,
1000
0000
0001
0000
1000
0010
0100
0000
,
0100
0001
1000
0000
1000
0100
0010
0000
,
0001
0000
0100
0000
0001
0010
0000
0000
,
0010
0001
1000
0000
1000
0010
0100
0000
,
0001
0000
1000
0000
0001
0010
0100
0000
,
0100
1000
0001
0000
0001
0100
0010
0000
,
1000
0000
0100
0000
1000
0010
0000
0000
,
0110
0000
0010
0000
1000
0100
0010
0000
,
0010
0001
1000
0100
1000
0001
0000
0001
,
0100
0010
1000
0000
1000
0001
0010
0000
,
0010
0001
0100
0010
1000
0100
0000
0010
,
0100
1000
0001
0000
0001
0100
0010
0000
,
0010
1000
0001
0100
0001
1000
0000
1000
,
0100
0010
0001
0000
0001
1000
0010
0000
,
0010
1000
0100
0010
0001
0100
0000
0000
,
0101
0000
0001
0010
0000
0110
0000
0000
,
1000
0100
0010
0001
0100
0001
1000
0000
,
1100
0000
1000
0010
0000
0110
0000
0000
,
0110
1100
0101
1001
,
1000
0100
0001
0000
1001
0000
1001
0000
,
1100
1001
1100
1001
,
0010
1000
0010
0001
0000
0100
0001
0000
,
1010
1001
1010
1001
,
0010
0001
0010
1000
0000
0100
1000
0000
,
0011
1001
0011
1001
,
0001
0100
1000
0100
0000
0010
1000
0000
,
0101
1001
0101
1001
,
1000
0100
0001
0100
0000
0010
0001
0000
,
1100
0000
0000
0011
0000
0000
1100
0000
0000
0000
0000
0000
0000
0000
0000
0000
,
0101
0000
0000
1010
0000
0000
0101
0000
1001
0000
0000
0000
0000
0000
0000
0000
;

//---------------dance-single - ----------------
#NOTES:
     dance-single:
     :
     Beginner:
     3:
     0.277,0.472,0.286,0.000,0.000:
0000
0000
0000
0000
,
0000
0000
0000
0000
,
0000
0000
0000
0000
,
0000
0000
0000
0000
,
1000
0000
0001
0000
,
1000
0000
0001
0000
,
1000
0000
0001
0000
,
1000
0000
0001
0000
,
1001
0000
0000
0000
,
1000
0000
1000
0000
,
0001
0000
0100
0000
,
0010
0000
1000
0000
,
0001
0000
0001
0001
,
0001
0000
0001
0000
,
1000
0000
0100
0000
,
0010
0000
0001
0000
,
1000
0000
0000
1000
,
1000
0000
0010
0000
,
0001
0000
0010
0000
,
1000
0000
0100
0000
,
0010
0000
0001
0001
,
0001
0000
0010
0000
,
1000
0000
0010
0000
,
0001
0000
0100
0000
,
0010
0000
0100
0000
,
1001
0000
0001
0000
,
0100
0000
0000
0010
,
0010
0000
1000
0000
,
1000
0000
0000
0000
,
1001
0000
1000
0000
,
0100
0000
0000
0010
,
0010
0000
0001
0000
,
1001
0000
0000
0000
,
0001
0000
0100
0000
,
0010
0000
1000
0000
,
0001
0000
1000
0000
,
0001
0001
0001
0000
,
1000
0000
0001
0000
,
1000
0000
0001
0000
,
1000
0000
0001
0000
,
0110
0000
0000
0000
,
0001
0000
1000
0000
,
0100
0000
0001
0000
,
0100
0000
0010
0000
,
0100
0100
0000
1000
,
1000
0000
0001
0000
,
0100
0000
1000
0000
,
0100
0000
0010
0000
,
1000
1000
0000
0001
,
0001
0000
0010
0000
,
1000
1000
1000
0000
,
0001
0000
0100
0000
,
0010
0010
0000
0100
,
0100
0000
1000
0000
,
0010
0010
0010
0000
,
0001
0000
1000
0000
,
0100
0000
0010
0000
,
0110
0010
0010
0000
,
1000
1000
1000
0000
,
0110
0010
0010
0010
,
0001
0001
0001
0000
,
0110
0000
0000
0000
,
1001
1001
1001
0000
,
0001
0000
0100
0000
,
1001
1001
1001
0000
,
1000
0000
0100
0000
,
1001
1001
1001
0000
,
0010
0000
0001
0000
,
0110
0110
0110
0000
,
0010
0000
1000
0000
,
0110
0110
1001
0000
,
0110
0110
1001
0000
;
