#TITLE:CASH MONEY;
#SUBTITLE:;
#ARTIST:Hardcore Music Terror;
#TITLETRANSLIT:;
#SUBTITLETRANSLIT:;
#ARTISTTRANSLIT:;
#CREDIT:Mr. Kewing;
#BANNER:CASH MONEY.png;
#BACKGROUND:CASH MONEY-bg.png;
#LYRICSPATH:;
#CDTITLE:!Mr Kewing S1 (cdtitle).png;
#MUSIC:CASH MONEY.ogg;
#OFFSET:0.138;
#SAMPLESTART:11.823;
#SAMPLELENGTH:12.000;
#SELECTABLE:YES;
#BPMS:0.000=170.000;
#STOPS:131.000=2.470
,160.000=1.059
,173.000=1.059
,202.000=1.059
;
#BGCHANGES:0.000=CASH MONEY.avi=1.000=0=0=0,
280.000=CASH MONEY-bg.png=1.000=1=0=0,
99999=-nosongbg-=1.000=0=0=0 // don't automatically add -songbackground-
;

//---------------dance-single - ----------------
#NOTES:
     dance-single:
     :
     Challenge:
     8:
     0.514,0.564,0.446,0.047,0.109: // measure 1
0000
0000
0000
0000
,  // measure 2
0000
0000
0000
0000
,  // measure 3
0000
0000
0000
0000
,  // measure 4
0000
0000
0000
0000
,  // measure 5
0000
0000
0000
0000
,  // measure 6
0000
0000
0000
0000
,  // measure 7
0000
0000
0000
0000
,  // measure 8
0000
0000
0000
0000
0000
0000
0000
0000
0000
0000
0000
0000
0001
0000
0000
0001
,  // measure 9
0000
0000
0001
0000
0000
0001
0000
0000
0001
0000
0000
0000
1000
0000
0001
0000
,  // measure 10
0100
0000
0010
0000
1000
0001
0010
0000
,  // measure 11
0100
0000
1000
0010
1000
0010
0100
0000
,  // measure 12
0010
1000
0010
0100
0001
0010
0011
0000
,  // measure 13
0011
0000
1001
0000
1000
0000
0001
1000
,  // measure 14
0100
0000
0010
0000
0001
1000
0010
0000
,  // measure 15
0100
0000
0001
0010
0001
0010
0100
0000
,  // measure 16
0010
0001
0010
0100
1000
0010
1010
0000
,  // measure 17
1010
0000
1001
0000
1000
0001
0010
0100
,  // measure 18
1000
0010
0100
0010
1000
0001
1000
0001
,  // measure 19
0010
0001
0100
0000
0010
0100
0110
0000
,  // measure 20
1001
0000
0110
0000
0010
0100
0001
0000
,  // measure 21
1000
0000
0110
0000
0001
1000
0010
0100
,  // measure 22
0001
0010
0100
0010
0001
1000
0001
1000
,  // measure 23
0010
1000
0100
0000
0010
0100
0110
0000
,  // measure 24
1001
0000
0110
0000
0010
0100
1000
0000
,  // measure 25
0001
0110
1000
0020
,  // measure 26
0000
0000
0030
0000
1000
0002
0000
0000
,  // measure 27
0000
0003
0000
0000
0010
0000
0200
0000
,  // measure 28
0000
0000
0300
0000
1000
0002
0000
0000
,  // measure 29
0000
0003
0100
0000
0010
0000
1010
0000
,  // measure 30
1001
0000
0000
0011
0000
0000
0110
0000
0000
0010
0100
0010
,  // measure 31
0100
0000
0000
1000
0001
1000
0001
0000
0000
0011
0000
0000
,  // measure 32
1001
0000
0000
1010
0000
0000
0110
0000
0000
0100
0010
0100
,  // measure 33
0010
0000
0000
1000
0001
1000
0001
0000
0000
0000
0000
0000
,  // measure 34
1000
0010
0100
0000
0100
0000
0100
0000
,  // measure 35
0100
0001
0010
0000
0010
0000
0010
0000
,  // measure 36
0010
0100
0001
0000
0001
0000
0001
0000
,  // measure 37
0001
0100
1000
0000
1000
0000
1000
0000
,  // measure 38
1000
0001
0100
0000
0100
0000
0100
0000
,  // measure 39
0100
0010
0001
0000
0001
0000
0001
0000
,  // measure 40
0001
0010
1000
0000
1000
0000
1000
0000
,  // measure 41
0000
0000
0000
1100
0000
0000
1100
0000
0000
0010
0001
0000
,  // measure 42
0010
0001
0000
0101
0000
0000
0101
0000
0000
0010
1000
0000
,  // measure 43
0010
1000
0000
1001
0000
0000
1001
0000
0000
0100
0010
0000
,  // measure 44
0100
0000
0010
0000
0000
0000
0110
0000
0000
0000
0000
0000
0001
0000
0000
1000
0000
0000
0100
0000
0000
0000
0000
0000
,  // measure 45
0010
0001
0000
0001
0010
0000
0000
0000
0100
0000
1000
0000
0010
0000
0000
0000
,  // measure 46
0100
0000
0001
0000
0010
0000
0000
0000
0001
0000
0000
1000
0000
0000
0001
0000
,  // measure 47
0010
0000
0000
0010
0000
0000
0010
0000
0100
0000
0000
0000
1000
0000
0000
0001
0000
0000
0100
0000
0000
0000
0000
0000
,  // measure 48
0010
1000
0000
1000
0010
0000
0000
0000
0100
0000
0000
0000
0001
0000
0000
0000
,  // measure 49
0010
1000
0100
0001
,  // measure 50
1000
0010
0001
0100
,  // measure 51
1000
0000
0001
0000
0000
0000
0001
1000
,  // measure 52
0100
0000
0011
0000
1000
0001
0100
0000
,  // measure 53
1010
0000
1000
0010
0100
0001
0010
0000
,  // measure 54
0100
0010
0001
0010
0001
0100
0101
0000
,  // measure 55
1010
0000
1001
0000
0001
0000
1000
0001
,  // measure 56
0100
0000
1010
0000
0001
1000
0100
0000
,  // measure 57
0011
0000
0001
0010
0100
1000
0010
0000
,  // measure 58
0100
0010
1000
0010
1000
0100
1100
0000
,  // measure 59
0011
0000
1001
0000
0010
0100
0001
0010
,  // measure 60
0100
1000
0010
0001
0010
1000
0001
0100
,  // measure 61
1000
0100
0001
0000
0001
1000
1001
0000
,  // measure 62
0110
0000
1001
0000
0100
0010
0001
0000
,  // measure 63
1000
0000
0110
0000
0010
0100
1000
0010
,  // measure 64
0100
0001
0010
1000
0010
0001
1000
0100
,  // measure 65
0001
0100
1000
0000
1000
0001
1001
0000
,  // measure 66
0110
0000
1001
0000
0100
0010
1000
0000
,  // measure 67
0001
0110
0010
0000
,  // measure 68
0000
0000
0000
0000
,  // measure 69
0000
0000
0000
0000
0001
0000
0000
0000
0000
0000
0000
0000
0000
1000
0000
0000
,  // measure 70
0000
0000
0000
0010
0000
0200
0000
0000
,  // measure 71
0300
0000
0000
0000
;
