#TITLE:BOOM-CHAKA;
#SUBTITLE:;
#ARTIST:DAGON;
#TITLETRANSLIT:;
#SUBTITLETRANSLIT:;
#ARTISTTRANSLIT:;
#CREDIT:Kewing Darksun;
#BANNER:BOOM-CHAKA.png;
#BACKGROUND:BOOM-CHAKA-bg.png;
#LYRICSPATH:;
#CDTITLE:!Kewing v3 (cdtitle).png;
#MUSIC:BOOM-CHAKA.ogg;
#OFFSET:-0.412;
#SAMPLESTART:37.311;
#SAMPLELENGTH:13.460;
#SELECTABLE:YES;
#BPMS:0.000=143.000;
#STOPS:;
#BGCHANGES:;

//---------------dance-single - Kewing----------------
#NOTES:
     dance-single:
     Kewing:
     Hard:
     9:
     0.521,0.555,0.350,0.000,0.142: // measure 1
0000
0000
0000
0000
,  // measure 2
0000
0000
0000
0000
,  // measure 3
0000
0000
0000
0000
,  // measure 4
0000
0000
0000
0000
,  // measure 5
0000
0000
0000
0000
,  // measure 6
0000
0000
0000
0000
,  // measure 7
1000
0000
0100
0000
0010
0010
0001
0000
,  // measure 8
1000
0000
0010
0000
0100
0100
0001
0000
,  // measure 9
1000
0000
0001
0000
0010
0010
0100
0000
,  // measure 10
1000
0001
0101
1100
,  // measure 11
0100
0001
0100
0000
0100
0010
1000
0000
,  // measure 12
0100
1000
0100
0000
0100
0010
0001
0000
,  // measure 13
0100
0001
0100
0000
0100
1000
0100
0000
,  // measure 14
0010
1000
0010
0000
0010
0001
0010
0000
,  // measure 15
1000
0000
1001
0000
0010
1000
0010
0001
,  // measure 16
0010
0000
0110
0000
0100
0001
0100
1000
,  // measure 17
0100
0000
1100
0000
1000
0010
0100
0001
,  // measure 18
0010
0000
0011
0000
0001
0100
0010
1000
,  // measure 19
0100
0000
0000
1100
0000
0000
1000
0000
0100
0000
0001
0000
0100
0000
0000
0000
,  // measure 20
1100
0000
0100
0010
1000
0010
0001
0000
,  // measure 21
1000
0000
0000
0101
0000
0000
0001
0000
0100
0000
1000
0000
0100
0000
0000
0000
,  // measure 22
0101
0000
0100
0010
0001
0010
1000
0000
,  // measure 23
1001
0000
1000
0001
0010
1000
0010
0001
,  // measure 24
1000
0000
1000
0001
0100
1000
0100
0001
,  // measure 25
1000
0000
0001
1000
0100
0001
0100
1000
,  // measure 26
0001
0100
0010
0001
0010
0100
0010
1000
,  // measure 27
0001
0010
0110
0000
1000
0100
0110
0000
,  // measure 28
0010
0100
1000
0001
0100
0010
1010
0000
,  // measure 29
1100
0000
0000
0100
0010
0000
0000
0010
0001
0000
0100
0000
0110
0000
0000
0000
,  // measure 30
0010
0001
0010
0100
0001
1000
0100
0000
,  // measure 31
1000
0010
0110
0000
0001
0100
0110
0000
,  // measure 32
0010
0100
0001
1000
0100
0010
0011
0000
,  // measure 33
0101
0000
0000
0100
0010
0000
0000
0010
1000
0000
0000
1000
0100
0000
0000
0100
,  // measure 34
0001
0000
0000
0001
0100
0000
0000
0100
1000
0000
0010
0000
0110
0000
0000
0000
,  // measure 35
0000
0000
0000
0000
0100
0000
0000
1000
0000
1000
0000
0000
0010
0000
0000
0000
,  // measure 36
0000
0000
0000
0000
0010
0000
0000
0001
0000
0001
0000
0000
0100
0000
0000
0000
,  // measure 37
0000
0000
0000
0000
0100
0000
0000
1000
0000
1000
0000
0000
0010
0000
0000
0000
,  // measure 38
0000
0000
0010
0000
0001
1000
0001
1000
,  // measure 39
0001
0000
0100
0000
0010
0000
1000
1000
,  // measure 40
1000
0000
0100
0000
0010
0000
0001
0001
,  // measure 41
0001
0010
0100
1000
,  // measure 42
1001
0110
1100
0101
,  // measure 43
0001
0010
0100
0000
0100
0010
1000
0010
,  // measure 44
0001
0000
0001
0000
0001
0000
0100
0000
1000
0000
0100
0001
0000
0000
0000
0000
,  // measure 45
0001
0010
0100
0000
0100
0001
0100
1000
,  // measure 46
0010
0000
0010
0000
0010
0000
0100
0000
1000
0000
0100
0000
0001
1000
0001
0000
,  // measure 47
1000
0010
0100
0000
0100
0010
0001
0010
,  // measure 48
1000
0000
0001
0000
1000
0000
0100
0000
0001
0000
0100
1000
0000
0000
0000
0000
,  // measure 49
1000
0010
0100
0000
0100
1000
0100
0001
,  // measure 50
0010
0000
1000
0000
0010
0000
0100
0000
0001
0000
0100
0000
0010
0001
0010
0000
,  // measure 51
0011
0000
0000
1001
0000
0000
0001
0000
0100
0000
1000
0000
0100
0000
0001
0000
,  // measure 52
0010
0000
0000
1001
0000
0000
1000
0000
0100
0000
0001
0000
0100
0000
1000
0000
,  // measure 53
0010
0000
0000
1001
0000
0000
0001
0000
0010
0000
1000
0000
0010
0000
0001
0000
,  // measure 54
0100
0000
0000
1001
0000
0000
0100
0000
0010
0000
0001
0000
0010
0000
1000
0000
,  // measure 55
0100
0000
0000
0110
0000
0001
1000
0000
0100
0000
0001
0000
0100
0000
1000
0000
,  // measure 56
0010
0000
0000
0110
0000
1000
0001
0000
0100
0000
1000
0000
0100
0000
0001
0000
,  // measure 57
0010
0000
0000
0110
0000
0001
1000
0000
0010
0000
0001
0000
0010
0000
0100
0000
,  // measure 58
0001
0010
1000
0001
0100
0010
0110
0000
,  // measure 59
1001
0000
1000
0000
0010
0000
0100
0100
,  // measure 60
0100
0000
0001
0000
0100
0000
1000
1000
,  // measure 61
1000
0000
0100
0000
0001
0000
0010
0010
,  // measure 62
0010
0100
1100
0101
;

//---------------dance-single - Kewing----------------
#NOTES:
     dance-single:
     Kewing:
     Medium:
     6:
     0.377,0.468,0.246,0.161,0.000:
0000
0000
0000
0000
,
0000
0000
0000
0000
,
0000
0000
0000
0000
,
0000
0000
0000
0000
,
0000
0000
0000
0000
,
0000
0000
0000
0000
,
1000
0100
0010
0000
,
1000
0100
0010
0000
,
0001
0100
0010
0000
,
0001
0100
0110
0000
,
0001
1000
0001
0001
,
0100
0010
0100
0100
,
0001
0010
0100
0100
,
1000
0010
0100
0100
,
0001
0000
1000
0000
0100
0100
0100
0000
,
1000
0000
0001
0000
0100
0100
0100
0000
,
0010
0000
1000
0000
0100
0100
0100
0000
,
0010
0000
0001
0000
0100
0010
0100
0000
,
1001
0000
0000
1000
0200
0000
0320
0000
,
0031
0000
0000
0001
0200
0000
0320
0000
,
1030
0000
0000
0100
0020
0000
0032
0000
,
1003
0000
0000
0010
0200
0000
0302
0000
,
1003
0000
0100
0000
0020
0001
0032
0000
,
1003
0000
0010
0000
0200
0001
0302
0000
,
0013
0000
0100
0000
2000
0001
3002
0000
,
0103
1000
0010
0001
,
0100
0000
0101
0000
0001
0001
0010
0000
,
1000
0010
0001
0101
,
1010
0000
1010
0000
1000
1000
0100
0000
,
0010
0001
0010
0110
,
0100
0000
1100
0000
1000
1000
0010
0000
,
0001
0010
1000
1100
,
0011
0011
1100
1100
,
0110
1001
0110
1001
,
0000
0100
0000
1000
,
0000
0100
0000
0001
,
0000
0100
0000
1000
,
0000
0100
0100
0100
,
0001
0100
0010
0000
,
0001
0100
0010
0000
,
1000
0100
0010
0000
,
1000
0100
0110
0000
,
0001
0001
0001
0000
1000
0000
0010
0000
,
0100
0001
0100
0000
0010
0000
0010
0000
,
1000
1000
1000
0000
0100
0000
0010
0000
,
0001
1000
0001
1000
0100
0000
1001
0000
,
1000
1000
1000
0000
0001
0000
0010
0000
,
0100
1000
0100
0000
0010
0000
0010
0000
,
0001
0001
0001
0000
0100
0000
0010
0000
,
1000
0001
1000
0001
0100
0000
0110
0000
,
0010
0000
0010
0000
1000
0001
0020
0000
,
0130
0000
0100
0000
1000
0001
0200
0000
,
0310
0000
0010
0000
1000
0100
0020
0000
,
0130
0000
0100
0000
1000
0010
0100
0000
,
0010
0000
1000
0000
0001
1000
0001
0010
,
0100
0000
0100
0000
1000
0001
1000
0010
,
0100
0000
0100
0000
0001
0010
0100
1000
,
0010
1010
0101
0110
,
1001
0000
0001
0010
,
0100
0000
0010
0001
,
1000
0000
0010
1000
,
0100
0010
0110
1001
;

//---------------dance-single - Kewing----------------
#NOTES:
     dance-single:
     Kewing:
     Easy:
     4:
     0.299,0.409,0.189,0.132,0.000:
0000
0000
0000
0000
,
0000
0000
0000
0000
,
0000
0000
0000
0000
,
0000
0000
0000
0000
,
0000
0000
0000
0000
,
0000
0000
0000
0000
,
0010
0000
1000
0000
,
0100
0000
0010
0000
,
0001
0000
0100
0000
,
0010
0010
0110
0000
,
0001
1000
0100
0000
,
0010
0001
1000
0000
,
0001
1000
0100
0010
,
0001
1000
0100
0000
,
1000
0001
0100
0000
,
0010
1000
0001
0000
,
1000
0001
0100
0010
,
1000
0001
0100
0001
,
1000
0000
0002
0103
,
0101
0000
2000
3100
,
1100
0000
0200
0310
,
0110
0000
0002
1003
,
1001
0001
0200
0302
,
1003
0100
2000
3200
,
0310
0001
0200
0320
,
1030
0001
1000
0000
,
0100
0100
0010
0010
,
0001
1000
0100
0010
,
0001
0001
0001
0001
,
0010
0100
1000
0001
,
0100
0100
0010
0010
,
1000
0001
0100
0010
,
1000
1000
0100
0100
,
0001
0001
1000
1001
,
0000
0000
0000
1000
,
0000
0000
0000
0100
,
0000
0000
0000
0001
,
0000
0010
0000
0100
,
0010
0010
0001
0000
,
0100
0100
0010
0000
,
1000
1000
0100
0000
,
0010
0010
0110
0000
,
0001
1000
0010
0100
,
0001
0001
0001
0011
,
0000
0001
0100
0010
,
1000
0010
0001
0010
,
1000
0001
0010
0100
,
1000
1000
1000
1010
,
0000
1000
0100
0010
,
0001
0010
1000
0100
,
0001
0001
2000
3010
,
1010
1000
0002
0013
,
0011
0010
0200
1300
,
1010
0010
0200
0301
,
0010
0001
1100
1100
,
1000
0010
0101
0101
,
0100
0010
1001
1001
,
1000
0100
0001
0010
,
1000
0100
1000
0000
,
0100
0010
0100
0000
,
0010
0001
0100
0000
,
0010
0010
0110
1001
;

//---------------dance-single - Kewing----------------
#NOTES:
     dance-single:
     Kewing:
     Beginner:
     2:
     0.153,0.234,0.066,0.000,0.000:
0000
0000
0000
0000
,
0000
0000
0000
0000
,
0000
0000
0000
0000
,
0000
0000
0000
0000
,
0000
0000
0000
0000
,
0000
0000
0000
0000
,
1000
0000
0000
0000
,
0001
0000
0000
0000
,
0100
0000
0000
0000
,
0010
0000
0010
0000
,
1000
0000
0000
0000
,
0001
0000
0000
0000
,
0100
0000
0100
0000
,
0010
0000
0010
0000
,
0001
0000
0000
0000
,
1000
0000
0000
0000
,
0010
0000
0010
0000
,
0100
0000
0100
0000
,
1000
0000
0010
0000
,
0010
0000
0001
0000
,
0001
0000
0010
0000
,
0010
0000
1000
0000
,
1000
0000
0001
0001
,
0001
0000
0010
0010
,
0010
0000
0100
0100
,
0100
0000
0000
0000
,
0110
0000
0001
0000
,
1000
0000
0100
0000
,
0110
0000
0110
0000
,
0010
0000
0001
0000
,
0110
0000
1000
0000
,
0001
0000
0100
0000
,
0110
0000
0100
0000
,
0100
0100
0100
0100
,
0000
0000
0000
0100
,
0000
0000
0000
0001
,
0000
0000
0000
0010
,
0000
0000
0000
0000
,
0001
0000
0000
0000
,
1000
0000
0000
0000
,
0100
0000
0000
0000
,
0010
0000
0010
0000
,
0001
0000
0100
0000
,
1000
0000
0100
0000
,
0010
0000
1000
0000
,
0001
0000
1000
1000
,
1000
0000
0100
0000
,
0001
0000
0100
0000
,
0010
0000
0001
0000
,
1000
1000
1000
0000
,
0001
0000
0010
0000
,
0010
0000
1000
0000
,
1000
0000
0100
0000
,
0100
0000
0001
0000
,
0001
0000
1000
1000
,
1000
0000
0100
0100
,
0100
0000
0001
0001
,
0001
0001
0001
0000
,
1000
0000
0000
0000
,
0100
0000
0000
0000
,
0010
0000
0100
0000
,
0100
0000
0110
1001
;

//---------------dance-single - Kewing----------------
#NOTES:
     dance-single:
     Kewing:
     Challenge:
     9:
     0.552,0.614,0.218,0.000,0.511: // measure 1
0000
0000
0000
0000
,  // measure 2
0000
0000
0000
0000
,  // measure 3
0000
0000
0000
0000
,  // measure 4
0000
0000
0000
0000
,  // measure 5
0000
0000
0000
0000
,  // measure 6
0000
0000
0000
0000
,  // measure 7
1000
0000
0000
0000
0100
0000
0000
0010
0000
0000
0010
0000
0001
0000
0000
0000
,  // measure 8
1000
0000
0000
0000
0010
0000
0000
0100
0000
0000
0100
0000
0001
0000
0000
0000
,  // measure 9
1000
0000
0000
0000
0001
0000
0000
0010
0000
0000
0010
0000
0100
0000
0000
0000
,  // measure 10
1000
0001
0101
1100
,  // measure 11
0100
0000
0001
0000
0100
0000
0000
0010
0000
0000
1000
0000
0100
0000
0000
0000
,  // measure 12
0010
0000
0001
0000
0010
0000
0000
0100
0000
0000
1000
0000
0010
0000
0000
0000
,  // measure 13
0010
0000
1000
0000
0010
0000
0000
0100
0000
0000
0001
0000
0010
0000
0000
0000
,  // measure 14
0100
0000
1000
0000
0100
0000
0000
0010
0000
0000
0001
0000
0100
0000
0000
0000
,  // measure 15
0010
0000
1000
0000
0010
0000
0100
0010
0000
0000
1000
0000
0001
0000
0000
0000
,  // measure 16
0010
0000
0001
0000
0010
0000
0100
0010
0000
0000
0001
0000
1000
0000
0000
0000
,  // measure 17
0010
0000
0100
0000
0001
0000
0100
0010
0000
0000
1000
0000
0100
0000
0000
0000
,  // measure 18
0010
0000
0100
0000
1000
0000
0100
0010
0000
0000
0001
0000
0100
0000
0000
0000
,  // measure 19
0110
0000
0000
1010
0000
0000
1000
0000
0100
0000
0010
0000
0100
0000
1000
0000
,  // measure 20
0001
0000
0000
1100
0000
0000
1000
0000
0010
0000
0100
0000
0010
0000
1000
0000
,  // measure 21
0100
0000
0000
0011
0000
0000
0001
0000
0100
0000
0010
0000
0100
0000
0001
0000
,  // measure 22
1000
0000
0000
0101
0000
0000
0001
0000
0010
0000
0100
0000
0010
0000
0000
0000
,  // measure 23
1001
0000
0000
0001
0000
0010
0100
0000
1000
0000
0001
0000
0100
0000
0010
0000
,  // measure 24
1000
0000
0000
1000
0000
0001
0010
0000
0100
0000
1000
0000
0010
0000
0100
0000
,  // measure 25
0001
0000
0000
0001
0000
1000
0100
0000
1000
0000
0010
0000
0100
0000
0001
0000
,  // measure 26
0010
0000
0010
0000
0100
0000
0100
0000
1000
0001
1000
0000
0100
0010
0100
0000
,  // measure 27
1000
0001
0101
0000
0001
1000
1100
0000
,  // measure 28
0010
0000
0100
0000
1000
0000
0001
0100
0000
0010
0000
0010
1000
0000
0000
0000
,  // measure 29
1100
0000
0000
0100
0010
0000
0000
0010
0001
0000
0100
0000
0110
0000
0000
0000
,  // measure 30
0100
0000
0001
0000
1000
0000
0100
0000
0010
0001
0000
0001
0100
0000
0000
0000
,  // measure 31
0001
1000
1100
0000
1000
0001
0101
0000
,  // measure 32
0010
0000
0100
0000
0001
0000
1000
0100
0000
0010
0000
0010
0001
0000
0000
0000
,  // measure 33
0101
0000
0000
0100
0010
0000
0000
0010
1000
0000
0000
1000
0100
0000
0000
0100
,  // measure 34
0010
0000
0000
0010
0001
0000
0000
0001
0100
0000
0010
0000
0110
0000
0000
0000
,  // measure 35
0000
0000
0000
0000
0100
0000
0000
1000
0000
1000
0000
0000
0010
0000
0000
0000
,  // measure 36
0000
0000
0000
0000
0010
0000
0000
0001
0000
0001
0000
0000
0100
0000
0000
0000
,  // measure 37
0000
0000
0000
0000
0100
0000
0000
1000
0000
1000
0000
0000
0010
0000
0000
0000
,  // measure 38
0000
0000
0010
0000
0001
1000
0001
1000
,  // measure 39
0001
0000
0000
0001
0000
0000
0100
0000
0000
0100
0000
0000
0010
0000
0000
0000
,  // measure 40
0010
0000
0000
0010
0000
0000
1000
0000
0000
1000
0000
0000
0100
0000
0000
0000
,  // measure 41
0100
0000
0000
0100
0000
0000
0010
0000
0000
0010
0000
0000
0100
0000
0000
0000
,  // measure 42
1001
0110
1100
0101
,  // measure 43
0001
0000
0010
0000
0100
0000
0000
0010
0000
0001
0000
0100
0000
0010
0000
1000
,  // measure 44
0001
0000
0001
0000
0001
0000
0100
0000
0010
0000
0100
0001
0000
0000
0000
0000
,  // measure 45
1000
0000
0100
0000
0010
0000
0000
0100
0000
1000
0000
0001
0000
0100
0000
0010
,  // measure 46
1000
0000
1000
0000
1000
0000
0100
0000
0010
0001
0010
0000
0100
1000
0100
0000
,  // measure 47
1000
0000
0010
0000
0100
0000
0000
0010
0000
1000
0000
0100
0000
0010
0000
0001
,  // measure 48
0100
0000
0100
0000
0100
0000
0010
0000
0100
0000
0001
1000
0000
0000
0000
0000
,  // measure 49
0001
0000
0010
0000
0100
0000
0000
0010
0000
0001
0000
1000
0000
0010
0000
0100
,  // measure 50
0001
0000
0001
0000
0001
0000
1000
0000
0100
0010
0100
0000
1000
0001
1000
0000
,  // measure 51
0010
0000
0000
0010
0000
0100
0001
0100
0001
0000
0010
0000
0100
0000
1000
0000
,  // measure 52
0100
0000
0000
0100
0000
0010
0001
0010
0001
0000
1000
0000
0010
0000
0100
0000
,  // measure 53
0001
0000
0000
0001
0000
1000
0100
1000
0100
0000
0010
0000
0001
0000
0100
0000
,  // measure 54
0010
0000
0000
0010
0000
1000
0001
1000
0001
0000
0010
0000
0100
1000
0100
0000
,  // measure 55
0010
0000
0000
0001
0000
0010
0100
0010
0001
0000
1000
0000
0001
0000
0100
0000
,  // measure 56
0010
0000
0000
1000
0000
0010
0100
0010
1000
0000
0100
0000
0001
0000
0100
0000
,  // measure 57
0010
0000
0000
0001
0000
0010
0100
1000
0001
0000
0100
0000
1000
0000
0100
0000
,  // measure 58
0010
0000
1000
0100
0010
0000
0001
0100
0010
0000
1000
0100
0010
0000
0000
0000
,  // measure 59
1001
0000
0000
0001
0000
0000
0010
0000
0000
0010
0000
0000
0100
0000
0000
0000
,  // measure 60
1000
0000
0000
1000
0000
0000
0010
0000
0000
0010
0000
0000
0001
0000
0000
0000
,  // measure 61
0010
0000
0000
0010
0000
0000
0100
0000
0000
0100
0000
0000
0001
0000
0000
0000
,  // measure 62
0010
0100
1100
0101
;
