#TITLE:Aztec Bump;
#SUBTITLE:;
#ARTIST:Electronic Boutique;
#TITLETRANSLIT:;
#SUBTITLETRANSLIT:;
#ARTISTTRANSLIT:;
#GENRE:;
#CREDIT:Mr. Kewing;
#BANNER:Aztec Bump.png;
#BACKGROUND:Aztec Bump-bg.png;
#LYRICSPATH:;
#CDTITLE:!Kewing (cdtitle).png;
#MUSIC:Aztec Bump.ogg;
#OFFSET:0.305263;
#SAMPLESTART:69.260002;
#SAMPLELENGTH:14.660000;
#SELECTABLE:YES;
#BPMS:0.000000=124.999992
;
#STOPS:
;
#BGCHANGES:0.450=Aztec Bump.avi=1.000=0=0=0=StretchNoLoop====,
211.000=Aztec Bump-bg.png=1.000=1=0=1===CrossFade==,
99999=-nosongbg-=1.000=0=0=0 // don't automatically add -songbackground-
;
#KEYSOUNDS:;
#ATTACKS:;

//---------------dance-single - ----------------
#NOTES:
     dance-single:
     :
     Challenge:
     14:
     0.596008,0.765964,0.222124,0.154521,0.651884,432.000000,409.000000,23.000000,16.000000,0.000000,0.000000,0.596008,0.765964,0.222124,0.154521,0.651884,432.000000,409.000000,23.000000,16.000000,0.000000,0.000000:
// measure 0
0000
0000
0000
0000
,  // measure 1
0000
0000
0000
0000
,  // measure 2
0000
0000
0000
0000
,  // measure 3
0000
0000
0000
0000
,  // measure 4
0000
0000
0000
0000
1010
0000
0000
0000
0010
0000
0000
0010
0000
0000
1000
0000
,  // measure 5
0100
0000
0000
0000
1010
0000
0000
0000
1000
0000
0000
1000
0000
0000
0001
0000
,  // measure 6
0100
0000
0000
0000
0011
0000
0000
0000
0010
0000
0000
0010
0000
0000
0001
0000
,  // measure 7
0100
0000
0000
0000
0011
0000
0000
0000
0001
0000
0000
0001
0000
1000
0100
0000
,  // measure 8
0010
0001
0010
0100
2000
0000
0000
0000
0010
0000
0000
0010
0000
0000
0001
0000
,  // measure 9
0100
0000
0000
0000
3010
0000
0000
0000
0010
0000
0000
0100
0000
0000
0001
0000
,  // measure 10
0010
0000
0000
0000
1002
0000
0000
0000
0010
0000
0000
0010
0000
0000
1000
0000
,  // measure 11
0100
0000
0000
0000
0013
0000
0000
0000
0010
0000
0000
0100
0000
0000
1000
0000
,  // measure 12
0010
0000
0000
0000
2000
0000
0100
0000
0001
0000
0000
0001
0000
0000
0010
0000
,  // measure 13
0100
0000
0000
0000
3010
0000
0100
0000
0001
0000
0000
0100
0010
0000
1000
0000
,  // measure 14
0100
0000
0010
0000
0002
0000
0100
0000
1000
0000
0000
1000
0000
0000
0010
0000
,  // measure 15
0100
0023
0000
0200
,  // measure 16
0000
0000
0000
0330
1100
0000
1000
0000
0010
0100
0000
0000
0010
0000
1000
0000
,  // measure 17
0100
0010
0000
0000
0011
0000
0001
0000
0100
0010
0000
1000
0001
0000
0100
0000
,  // measure 18
1000
0000
0000
0000
0101
0000
0001
0000
0010
0100
0000
0000
0010
0000
0001
0000
,  // measure 19
0100
0010
0000
0000
1010
0000
1000
0000
0100
0010
0000
0001
1000
0000
0100
0000
,  // measure 20
0001
0000
0000
0000
0110
0000
1000
0001
0000
1000
0001
0000
0100
0000
0010
0000
,  // measure 21
1000
0100
0000
0000
1010
0000
0100
0000
0001
0010
0000
0001
0100
0000
0010
0000
,  // measure 22
1000
0000
0000
0000
1100
0000
0010
0000
0001
0100
0000
0000
0010
0000
0100
0000
,  // measure 23
0001
0010
0000
0000
0101
0000
0010
0000
1000
0100
0000
1000
0010
0000
0001
0000
,  // measure 24
0100
0000
0020
0000
0000
0000
0030
0000
1001
0000
0000
0001
0000
0000
1100
0000
,  // measure 25
0100
0000
0010
0000
0011
0000
0000
0000
1000
0000
0000
1000
0000
0000
0010
0000
,  // measure 26
0100
0000
0000
0000
1001
0000
0000
0000
1000
0000
0000
1000
0000
0000
0101
0000
,  // measure 27
0100
0000
0010
0000
1010
0000
0000
0000
0001
0000
0000
0001
0000
0000
0010
0100
,  // measure 28
0000
1000
0100
0010
0001
0000
0100
0010
0000
0100
0010
0000
1000
0100
1000
0000
,  // measure 29
1000
0010
1000
0000
1000
0000
0100
0010
0000
0100
0010
0000
0001
0100
0001
0000
,  // measure 30
0001
0010
0001
0000
0200
0000
0000
0000
0310
0000
0002
0000
0000
0000
0013
0000
,  // measure 31
2000
0000
0000
0000
0000
3100
0002
0000
,  // measure 32
0203
0000
0000
0000
0310
0000
0001
1000
0000
0001
0100
0000
0010
1000
0010
0000
,  // measure 33
0010
0001
0010
0000
0100
0000
0001
1000
0000
0001
0010
0000
0100
1000
0100
0000
,  // measure 34
0100
0001
0100
0000
0010
0000
0001
0100
0000
1000
0100
0000
0010
0001
0010
0000
,  // measure 35
0010
1000
0010
0000
0110
0000
0100
0001
0000
0001
1000
0001
0000
0001
0010
0000
,  // measure 36
0100
1000
0010
0100
0001
0000
1000
0000
0100
0001
0000
0100
0010
0000
1000
0000
,  // measure 37
0010
0001
0000
0010
0100
0000
1000
0000
0010
0001
0000
0010
0100
0000
0001
0000
,  // measure 38
0010
0000
0000
0000
0011
0000
0001
0000
0100
1000
0000
0100
0010
0000
0001
0000
,  // measure 39
0010
1000
0000
0010
0100
0000
0001
0000
0010
1000
0000
0010
0100
0000
1000
0000
,  // measure 40
0010
0000
0000
0000
0110
0000
0001
1000
0000
0001
1000
0000
0010
0000
1000
0000
,  // measure 41
0100
0001
0000
0100
1000
0000
0001
0000
0100
1000
0000
0100
0001
0000
0010
0000
,  // measure 42
0100
0000
0000
0000
0110
0000
1000
0000
0001
0010
0000
1000
0010
0000
0001
0000
,  // measure 43
0100
1000
0000
0100
0001
0000
1000
0000
0100
0001
0000
0100
1000
0001
0100
0010
,  // measure 44
0100
0001
1000
0000
0001
0000
0010
0100
0000
1000
0100
0000
0010
0001
0100
0001
,  // measure 45
0010
0001
0100
0000
0001
0000
0100
0010
0000
1000
0010
0000
0100
0001
0010
0001
,  // measure 46
0100
0001
0010
0000
0001
0000
0100
0010
0000
1000
0010
0000
0001
0010
1000
0010
,  // measure 47
0001
0010
1000
0000
0010
0000
0100
0001
0000
0010
1000
0000
0002
0000
0203
0000
,  // measure 48
2300
0000
3010
0100
0010
0000
0100
0001
0000
0010
0100
0000
1000
0001
1000
0010
,  // measure 49
1000
0100
1000
0010
0100
0000
0010
1000
0000
0100
0010
0000
0001
1000
0001
0010
,  // measure 50
0001
0100
0001
0010
0100
0000
1000
0010
0000
0100
0001
0000
0010
0100
0010
0001
,  // measure 51
0010
1000
0010
0100
1000
0010
0100
0001
1000
0010
0100
0001
0010
0100
1000
0010
,  // measure 52
0100
0001
0010
0100
2000
0000
0000
0000
0000
0000
0000
0000
0000
0000
3000
0000
;

//---------------dance-single - ----------------
#NOTES:
     dance-single:
     :
     Hard:
     12:
     0.478738,0.612771,0.173836,0.154521,0.280069,347.000000,329.000000,18.000000,16.000000,0.000000,0.000000,0.478738,0.612771,0.173836,0.154521,0.280069,347.000000,329.000000,18.000000,16.000000,0.000000,0.000000:
0000
0000
0000
0000
,
0000
0000
0000
0000
,
0000
0000
0000
0000
,
0000
0000
0000
0000
,
0000
0000
0000
0000
0010
0000
0000
0000
0001
0000
0000
0001
0000
0000
0100
0000
,
0001
0000
0010
0000
0100
0000
1000
0001
,
0100
0000
0000
0000
0010
0000
0000
0000
1000
0000
0000
1000
0000
0000
0100
0000
,
1000
0000
0010
0000
0100
0000
0001
1000
,
0100
0010
0002
0000
0100
0000
0000
0010
,
0000
1000
0103
0000
0100
0000
0000
0000
,
0010
0000
2001
0000
0100
0000
0000
0010
,
0000
0001
3100
0000
0100
0000
0000
0000
,
0010
0000
0000
0000
1002
0000
0000
0000
0010
0000
0000
0010
0000
0000
1000
0000
,
0100
0000
0013
0000
1000
0000
0001
0100
,
0010
0000
0000
0000
2001
0000
0000
0000
0010
0000
0000
0010
0000
0000
0001
0000
,
0100
3020
0000
0200
,
0000
0330
0101
0001
1000
0000
1000
0001
,
0010
0000
0000
0000
0011
0000
0001
0000
1000
0000
0000
0010
0100
0000
0001
0000
,
1000
0000
1100
1000
0001
0000
0001
1000
,
0010
0000
0000
0000
1010
0000
1000
0000
0001
0000
0000
0010
0100
0000
1000
0000
,
0001
0000
0101
0001
0010
0000
0010
0001
,
0100
0000
0000
0000
1010
0000
1000
0000
0100
0000
0000
0010
0001
0000
0100
0000
,
0010
0000
1010
1000
0100
0000
0100
1000
,
0010
0000
0000
0000
0101
0000
0001
0000
0010
0000
0000
0100
1000
0000
0010
0000
,
0100
0000
0002
0000
0000
0000
0003
0000
0011
0000
0000
0010
0000
0000
0101
0000
,
0100
0000
0000
0000
0011
0000
0000
0000
0001
0000
0000
0100
0000
0000
0001
0000
,
1000
0000
0000
0000
1010
0000
0000
0000
0010
0000
0000
0010
0000
0000
1100
0000
,
0100
0000
0000
0000
1010
0000
0000
0000
1000
0000
0000
0000
0100
0000
1000
0010
,
0000
0100
0001
0000
0010
0000
0001
0100
0000
0000
0001
0000
0010
0100
0010
0000
,
0001
0000
1000
0000
0010
0000
1000
0100
0000
0000
1000
0000
0010
0100
0010
0000
,
1000
0001
0020
0000
0000
0130
2000
0000
,
3002
0000
0000
0000
0000
0103
0020
0000
,
2030
0000
0000
0000
3010
0000
0100
0001
0000
0000
0010
0000
0100
1000
0100
0000
,
0010
0000
0001
0000
0100
0000
0010
1000
0000
0000
0100
0000
0010
0001
0010
0000
,
0100
0000
1000
0000
0010
0000
0100
0001
0000
0000
0010
0000
0100
1000
0100
0000
,
0010
0000
0001
0000
0100
0000
0010
1000
0000
0000
1001
0000
0000
1000
0100
0000
,
0010
0000
0001
0000
1000
0000
0001
0000
0100
0000
0000
0010
0100
0000
0001
0000
,
0010
0000
0000
0000
0010
0000
0001
0000
0100
0000
0000
0010
0001
0000
0010
0000
,
1000
0000
0000
0000
0001
0000
1000
0000
0100
0000
0000
0010
0100
0000
1000
0000
,
0010
0000
0000
0000
0010
0000
1000
0000
0100
0000
0000
0010
1000
0000
0010
0000
,
0001
0000
0000
0000
1000
0000
0010
0000
0100
0000
0000
1000
0100
0000
0001
0000
,
0010
0000
0000
0100
0010
0000
0001
0000
0100
0000
0000
0010
0001
0000
0010
0000
,
1000
0000
0000
0001
1000
0000
0100
0000
0010
0000
0000
1000
0010
0000
0001
0000
,
0100
0000
0000
0010
0100
0000
0001
0000
0010
0000
0000
0100
0001
0000
1000
0000
,
0010
0000
0001
0000
1000
0000
0010
0000
0100
0000
0010
0000
1000
0010
1000
0000
,
0010
0100
0010
0000
1000
0000
0100
0000
0010
0000
0100
0000
1000
0001
1000
0000
,
0001
0100
0001
0000
1000
0000
0100
0000
0001
0000
0100
0000
1000
0010
1000
0000
,
0010
0100
0010
0000
1000
0000
0001
0000
1000
0000
0100
0000
0020
0000
0032
0000
,
0203
0000
0300
0000
0010
0000
1000
0001
0000
1000
0001
0000
0010
0100
0010
0000
,
0010
0001
0010
0000
0100
0000
1000
0001
0000
1000
0001
0000
0100
0010
0100
0000
,
0100
0001
0100
0000
1000
0000
0100
0010
0000
0100
0010
0000
1000
0100
1000
0000
,
1000
0001
1000
0000
0001
0010
0001
0000
0001
0100
0001
0000
1000
0100
1000
0000
,
1000
0010
1000
0000
0002
0000
0000
0000
0000
0000
0000
0000
0000
0000
0003
0000
;

//---------------dance-single - ----------------
#NOTES:
     dance-single:
     :
     Medium:
     9:
     0.364227,0.434046,0.260754,0.135206,0.053116,264.000000,237.000000,27.000000,14.000000,0.000000,0.000000,0.364227,0.434046,0.260754,0.135206,0.053116,264.000000,237.000000,27.000000,14.000000,0.000000,0.000000:
0000
0000
0000
0000
,
0000
0000
0000
0000
,
0000
0000
0000
0000
,
0000
0000
0000
0000
,
0000
0000
0011
0000
0001
0000
0000
0100
,
0000
0011
0010
0100
,
1000
0000
1010
0000
1000
0000
0000
0100
,
0000
1010
0010
0100
,
0001
1000
2001
0000
0000
0000
0000
0100
,
0000
3010
0000
0000
,
1000
0000
1002
0000
0000
0000
0000
0100
,
0000
0013
0000
0000
,
0010
0000
0012
0000
1000
0000
0000
0100
,
0000
0013
0001
0100
,
0010
0000
2010
0000
0001
0000
0000
0100
,
0000
3020
0000
0200
,
0000
0330
1001
0000
0001
0000
1100
0000
,
0100
0000
1010
0000
0010
0000
0100
0001
,
1000
1001
1000
0101
,
0100
0000
0011
0000
0010
0000
0100
1000
,
0001
0101
0100
1001
,
1000
0000
0011
0000
0010
0000
0100
1000
,
0010
1100
0100
1001
,
0001
0000
1010
0000
0010
0000
0100
0001
,
0010
0200
0000
0300
0011
0000
0000
0101
,
0000
0001
0010
0000
0001
0000
0100
0000
,
0010
0000
1010
0000
1000
0000
0000
1100
,
0000
1000
0010
0000
0100
0000
0001
0010
,
0100
1000
0001
0000
1000
0000
1000
0010
,
0001
0010
1000
0000
0001
0000
0001
0010
,
1000
0010
0002
0000
0000
0000
2003
0000
,
3200
0000
0000
2300
,
3020
0000
0000
0000
1030
0000
0000
1000
0000
0000
0100
0000
0001
0000
0100
0000
,
1000
0000
0000
0000
0001
0000
0000
0001
0000
0000
0100
0000
1000
0000
0100
0000
,
0001
0000
0000
0000
0010
0000
0000
0010
0000
0000
0100
0000
1000
0000
0010
0000
,
0100
0000
0000
0000
1001
0000
0000
1001
0000
0000
1001
0000
0000
0000
1000
0000
,
0100
0010
0001
0100
0001
0000
0001
1000
,
0001
0000
0001
0010
0001
0000
0100
0010
,
1000
0000
1000
0100
1000
0000
1000
0001
,
1000
0000
1000
0010
1000
0000
0100
0010
,
0001
0000
0100
0001
0100
0000
0100
0010
,
0100
0000
0100
1000
0100
0000
1000
0100
,
0001
0000
0010
0001
0010
0000
0010
0100
,
0010
0000
0010
1000
0010
0000
1000
0010
,
0001
0000
0000
0000
0010
0000
0000
0100
0000
0000
1000
0000
0100
0000
1000
0000
,
0010
0000
1000
0000
0100
0000
0000
0010
0000
0000
0001
0000
0100
0000
0001
0000
,
0010
0000
0001
0000
0100
0000
0000
0010
0000
0000
0100
0000
1000
0000
0100
0000
,
0001
0000
0100
0000
1000
0000
0000
0100
0000
0000
0010
0000
2000
0000
0000
0000
,
3001
0000
0000
0000
0010
0000
0100
1000
0000
0000
1000
0000
0001
0000
0100
0000
,
0001
0000
0010
0000
0001
0000
0100
0010
0000
0000
0010
0000
1000
0000
0001
0000
,
1000
0000
0100
0000
1000
0000
0010
0100
0000
0000
0100
0000
1000
0000
0100
0000
,
0010
0100
0001
0010
1000
0010
0001
0100
,
1000
0100
0002
0000
0000
0000
0000
0003
;

//---------------dance-single - ----------------
#NOTES:
     dance-single:
     :
     Easy:
     6:
     0.271791,0.331918,0.222124,0.106233,0.004829,197.000000,174.000000,23.000000,11.000000,0.000000,0.000000,0.271791,0.331918,0.222124,0.106233,0.004829,197.000000,174.000000,23.000000,11.000000,0.000000,0.000000:
0000
0000
0000
0000
,
0000
0000
0000
0000
,
0000
0000
0000
0000
,
0000
0000
0000
0000
,
0000
1010
0000
0100
,
1000
0010
0000
1000
,
0000
0011
0000
0100
,
0001
0010
0000
0001
,
0000
0000
2001
0000
0000
0000
0000
0100
,
0000
3100
0000
0000
,
0000
0000
1002
0000
0000
0000
0000
0100
,
0000
0103
0000
0000
,
0000
0000
2001
0000
0001
0000
0000
0001
,
0000
3100
0000
0010
,
0001
0000
1002
0000
1000
0000
0000
1000
,
0000
0203
0000
0020
,
0000
0330
0101
0000
0001
0000
1000
0000
,
0001
0011
0001
0100
,
0010
1010
1000
0001
,
1000
1100
0100
0010
,
0001
0011
0001
1000
,
0001
0101
0001
0010
,
0100
1100
1000
0001
,
1000
1010
1000
0100
,
0010
0000
0000
0000
0011
0000
0000
0001
,
0000
0100
0010
0000
,
1000
0000
1000
0000
0010
0000
0000
1000
,
0000
0100
0100
0000
,
1000
0000
0001
0000
0100
0000
0010
0100
,
0010
0000
1000
0000
0100
0000
0010
0100
,
0010
0002
0000
0000
,
0023
0000
0000
0230
,
0000
0000
1300
0000
0010
0000
0100
0001
,
0100
0000
0001
0000
0010
0000
0100
1000
,
0100
0000
0010
0000
0001
0000
0100
0010
,
0100
0000
0000
0000
0001
0000
0000
1000
0000
0000
0001
0000
0000
0000
0000
0000
,
0000
1100
0100
0010
,
0001
0101
0100
0010
,
1000
0101
0100
0010
,
1000
1100
0100
0010
,
0001
1100
1000
0100
,
0001
0101
0001
0010
,
1000
0101
0001
0100
,
1000
1100
1000
0010
,
0001
0000
0100
0000
0010
0000
1000
0100
,
1000
0000
0010
0000
0100
0000
0001
0010
,
0001
0000
1000
0000
0001
0000
0100
1000
,
0100
0001
0010
0200
,
0300
0000
1000
0000
0010
0000
0100
0001
,
0010
0000
0100
0000
1000
0000
0010
1000
,
0100
0000
0010
0000
0100
0000
0001
0100
,
1000
0000
0010
0100
0010
0000
1000
0001
,
1000
0001
2000
0000
0000
0000
0000
3000
;

//---------------dance-single - ----------------
#NOTES:
     dance-single:
     :
     Beginner:
     2:
     0.143484,0.201843,0.067603,0.057945,0.000000,104.000000,97.000000,7.000000,6.000000,0.000000,0.000000,0.143484,0.201843,0.067603,0.057945,0.000000,104.000000,97.000000,7.000000,6.000000,0.000000,0.000000:
0000
0000
0000
0000
,
0000
0000
0000
0000
,
0000
0000
0000
0000
,
0000
0000
0000
0000
,
0000
0001
0000
0000
,
0100
0100
0000
0010
,
0000
1000
0000
0000
,
0100
0100
0000
0010
,
0000
0002
0000
0000
,
0000
0003
0000
0000
,
0000
2000
0000
0000
,
0000
3000
0000
0000
,
0000
0002
0000
0000
,
0000
0003
0000
0000
,
1000
2000
0000
0000
,
0001
3002
0000
0000
,
0000
0013
0000
1000
,
0000
0001
0000
0010
,
0010
0010
0000
0001
,
0000
1000
0000
0010
,
0010
0010
0000
0100
,
0000
0001
0000
0010
,
0010
0010
0000
0100
,
0000
1000
0000
0010
,
0010
0000
1000
0000
,
0100
0100
0000
0010
,
0000
0001
0000
0000
,
0100
0100
0000
0000
,
0010
0010
0000
1000
,
1000
1000
0000
0001
,
0001
0002
0000
0000
,
0000
0000
0000
0000
,
0000
1003
0000
0100
,
0000
0001
0000
1000
,
0000
0010
0000
0001
,
0000
1001
0000
0001
,
0001
0001
0000
0010
,
0000
0100
0000
0001
,
0001
0001
0000
0100
,
0000
0010
0000
1000
,
1000
1000
0000
0010
,
0000
0100
0000
1000
,
1000
1000
0000
0010
,
0000
0100
0000
0001
,
0001
0001
0000
1001
,
0000
0100
0000
1001
,
0000
0010
0000
1001
,
0000
0100
0000
0000
,
0000
0001
0000
0110
,
0000
1000
0000
0110
,
0000
0001
0000
0110
,
0000
1000
1000
1000
,
1000
1000
0000
0000
;
