#TITLE:AM-3P;
#SUBTITLE:(Blue Trance Mix);
#ARTIST:Tsukasa feat. KTz;
#TITLETRANSLIT:;
#SUBTITLETRANSLIT:;
#ARTISTTRANSLIT:;
#CREDIT:Kewing Darksun;
#BANNER:AM-3P (Blue Trance Mix).png;
#BACKGROUND:AM-3P (Blue Trance Mix)-bg.png;
#LYRICSPATH:;
#CDTITLE:!Kewing DarkSun v3 (cdtitle).png;
#MUSIC:AM-3P (Blue Trance Mix).ogg;
#OFFSET:-0.051;
#SAMPLESTART:54.908;
#SAMPLELENGTH:13.920;
#SELECTABLE:YES;
#BPMS:0.000=140.000;
#STOPS:;
#BGCHANGES:;

//---------------dance-single - ----------------
#NOTES:
     dance-single:
     :
     Easy:
     5:
     0.317,0.401,0.341,0.036,0.000: // measure 1
0000
0000
0000
0000
,  // measure 2
0000
0000
0000
0000
,  // measure 3
0000
0000
0000
0000
,  // measure 4
0000
0000
0000
0000
,  // measure 5
0100
0000
0000
1000
,  // measure 6
0001
0000
0000
0100
0000
0000
0000
0000
,  // measure 7
0001
0000
0010
0000
,  // measure 8
0010
0010
0010
0100
,  // measure 9
1001
0100
0001
0100
,  // measure 10
1010
1000
0001
1000
,  // measure 11
1100
0010
0001
0010
,  // measure 12
0101
1001
1010
0110
,  // measure 13
0010
1000
0100
0001
,  // measure 14
0100
1000
0000
0010
,  // measure 15
0100
0000
0000
0001
0000
0000
1000
0000
,  // measure 16
0000
0001
0000
0000
0010
0000
0100
0000
,  // measure 17
1001
0000
1000
0001
0000
0200
0000
0000
,  // measure 18
0000
0000
0000
0000
,  // measure 19
0302
0000
0000
0000
,  // measure 20
0000
0000
0000
0000
,  // measure 21
2003
0000
0000
0000
,  // measure 22
0000
0000
0000
0000
,  // measure 23
3020
0000
0000
0000
,  // measure 24
0000
0000
0000
0000
,  // measure 25
0130
0000
0000
0000
,  // measure 26
0001
0000
0000
0000
,  // measure 27
1000
0000
0000
0000
,  // measure 28
0100
0001
0010
0000
,  // measure 29
0100
0000
0000
0000
,  // measure 30
0001
0000
0000
0000
,  // measure 31
1000
0000
0110
0000
,  // measure 32
0100
1001
0100
0110
,  // measure 33
1001
0010
0010
0001
,  // measure 34
0101
0010
1000
0001
,  // measure 35
1100
0100
0100
1000
,  // measure 36
1010
0000
1000
0000
0010
0100
0001
0000
,  // measure 37
1001
1001
0010
0100
,  // measure 38
0110
0100
1000
0001
,  // measure 39
0011
0001
0100
0010
,  // measure 40
1000
0001
1000
0000
0100
0010
0100
0000
,  // measure 41
1001
0010
0010
1000
,  // measure 42
1100
0010
0001
1000
,  // measure 43
0101
0100
0100
0001
,  // measure 44
0011
0000
0001
0000
0010
0100
1000
0000
,  // measure 45
1001
1001
0010
0100
,  // measure 46
0110
0100
0001
1000
,  // measure 47
1010
1000
0100
0010
,  // measure 48
0001
0100
0010
0000
0100
0010
1000
0000
,  // measure 49
1000
1000
1000
0000
0100
0100
0000
0001
,  // measure 50
0001
0100
0010
0001
,  // measure 51
0000
0001
0001
0000
0100
0100
0000
1000
,  // measure 52
1000
0100
0010
1000
,  // measure 53
0001
0001
0001
0000
0010
0010
0010
0000
,  // measure 54
0100
0101
0100
1000
,  // measure 55
1000
1000
1000
0000
0010
0010
0010
0000
,  // measure 56
0100
1100
0100
0101
,  // measure 57
1001
0100
1000
0100
,  // measure 58
0011
0001
1000
0001
,  // measure 59
0101
0010
1000
0010
,  // measure 60
1100
1001
0011
0110
,  // measure 61
0100
0010
1000
0100
,  // measure 62
1000
0010
0001
1000
,  // measure 63
1001
0000
0001
0001
0000
0100
0100
0000
,  // measure 64
0010
0010
0000
1000
1000
1000
0001
0001
,  // measure 65
0100
0000
0000
0000
;

//---------------dance-single - ----------------
#NOTES:
     dance-single:
     :
     Medium:
     7:
     0.380,0.430,0.242,0.036,0.000:
0000
0000
0000
0000
,
0000
0000
0000
0000
,
0000
0000
0000
0000
,
0000
0000
0000
0000
,
0100
0000
0001
0010
,
0100
0000
0000
1000
0000
0000
0000
0000
,
0001
0000
1000
0000
,
0110
0000
0100
0000
0001
1000
0001
1000
,
0001
0000
0010
0000
0100
0000
1000
0001
,
1000
0000
0010
0000
0100
0000
0001
1000
,
0001
0000
0010
0000
0100
0000
1000
0001
,
1000
0100
1000
0001
1000
0100
0000
0000
,
0010
0000
0001
1000
0010
0000
1010
0000
,
0010
0110
0100
0101
,
1001
0000
1000
1000
0000
0001
0001
0000
,
0100
0100
0000
0010
0010
1000
0100
0010
,
0110
0000
0001
1000
0000
0020
0000
0000
,
0000
0000
0000
0000
,
0230
0000
0000
0000
,
0000
0000
0000
0000
,
0302
0000
0000
0000
,
0000
0000
0000
0000
,
2003
0000
0000
0000
,
0000
0000
0000
0000
,
3100
0000
0001
0000
0000
0100
0100
0000
,
0010
0000
1000
0000
0000
0010
0010
0000
,
0100
0000
1000
0000
0000
0010
0010
0000
,
0001
0100
1000
0010
,
0001
0000
0100
0000
0000
0100
1000
0000
,
0010
0000
0001
0000
0000
0100
0010
0000
,
0110
0000
0110
0000
,
1001
0000
0100
0010
0100
1000
0010
0000
,
1100
0000
0100
0010
0001
0000
1000
0000
,
1010
1000
0001
0010
,
0101
0000
0100
0010
1000
0000
0001
0000
,
0011
0000
0010
0000
0100
1000
0010
0001
,
0010
0000
1000
0000
0001
0000
0010
1000
,
0010
0000
0001
0000
1000
0000
0010
0001
,
0010
0000
1000
0000
0001
0000
0010
0100
,
1000
0100
0001
0100
1000
0001
0000
0000
,
0101
0000
0100
0010
1000
0000
0001
0000
,
0011
0001
1000
0010
,
1100
0000
0100
0010
0001
0000
1000
0000
,
1010
0000
0010
0000
0100
0001
0010
1000
,
0010
0000
0001
0000
0100
0000
0010
0001
,
0010
0000
1000
0000
0100
0000
0010
1000
,
0010
0000
0001
0000
0100
0000
0010
0100
,
1000
0100
0010
0100
0001
1000
0100
0000
,
1000
0100
1000
0000
0100
0010
0000
0100
,
1000
1000
0100
0000
1000
0001
0001
0100
,
0000
0100
0001
0000
0100
0010
0000
0100
,
0001
0001
0100
0000
0001
1000
1000
0100
,
0000
0010
0001
0000
0010
1000
0000
0010
,
0001
0001
0010
0000
0001
1000
1000
0010
,
0000
0010
1000
0000
0010
0001
0000
0010
,
1000
0001
0010
0000
0100
0000
0110
0000
,
1001
0000
1000
0100
0000
0010
0001
0001
,
0100
0000
1000
0100
0000
0010
1000
1000
,
0100
0000
0001
0100
0000
0010
0001
0001
,
0100
1000
0100
0001
0100
0010
0000
0000
,
0010
0000
1000
0001
0100
0000
1010
0000
,
0100
0001
0010
0101
,
1001
0000
0000
1100
0000
0000
0011
0000
,
0000
1001
0000
0000
1010
1000
0001
0001
,
0101
0000
0000
0000
;

//---------------dance-single - ----------------
#NOTES:
     dance-single:
     :
     Hard:
     8:
     0.451,0.545,0.233,0.036,0.152:
0000
0000
0000
0000
,
0000
0000
0000
0000
,
0000
0000
0000
0000
,
0000
0000
0000
0000
,
0110
0000
0010
0100
,
1000
0000
0000
0001
0000
0000
0000
0100
,
0010
0000
0000
0000
0000
0000
0000
0000
0100
0000
0000
0000
0000
0000
0000
0001
,
1000
0000
0100
0000
0010
0001
0010
0001
,
1000
0000
0000
0010
0000
0000
0010
0000
0000
0000
1000
0000
0001
0000
1000
0000
,
0100
0000
0000
0010
0000
0000
0010
0000
0000
0000
0001
0000
1000
0000
0001
0000
,
0100
0000
0000
0010
0000
0000
0010
0000
0000
0000
1000
0000
0100
0000
0010
0000
,
0001
0010
0000
0000
0001
1000
0000
0000
0001
0100
0000
0000
0110
0000
0000
0000
,
1001
0000
1000
0001
0010
0100
0010
0000
,
0100
1000
1001
0000
0001
0000
1010
0000
,
1001
0000
0010
0011
0000
0100
1100
0000
,
0010
1001
0000
0100
0010
1000
0100
0010
,
1001
0000
0000
0000
0010
0000
1000
0001
0000
0000
0020
0000
0000
0000
0000
0000
,
0000
0000
0000
0000
,
0032
0000
0000
0000
,
0000
0000
0000
0000
,
2003
0000
0000
0000
,
0000
0000
0000
0000
,
3020
0000
0000
0000
,
0000
0000
0000
0000
,
0130
0000
0000
0001
0000
0000
0010
0000
0000
0000
0100
0000
1000
0000
0000
0000
,
0100
0000
0000
1000
0000
0000
0010
0000
0000
0000
0100
0000
0001
0000
0000
0000
,
0100
0000
0000
1000
0000
0000
0100
0000
0000
0000
0001
0000
1000
0000
0000
0000
,
1000
0100
0010
0001
0010
0100
1000
0000
,
1000
0000
0000
0010
0000
0000
0001
0000
0000
0000
0010
0000
0100
0000
0000
0000
,
0001
0000
0000
0010
0000
0000
1000
0000
0000
0000
0010
0000
0001
0000
1000
0000
,
1001
0000
0101
0000
,
1010
0000
0000
0000
1000
0000
0001
0000
0010
0100
0000
0010
0100
0000
1000
0000
,
0001
0000
0000
0000
0001
0000
0100
0000
0010
0000
0000
1000
0000
0000
0001
0000
,
0100
0000
0010
1000
0100
0000
0010
0001
,
1000
0000
0000
0001
0000
0000
0100
0000
0010
0000
0000
0000
1000
0000
0100
0000
,
0010
0000
0100
0001
0100
1000
0010
0100
,
0001
0000
0000
0010
0000
0000
0001
0000
0000
0100
0001
0000
0010
0000
0001
0000
,
1000
0000
0000
0010
0000
0000
1000
0000
0000
0100
1000
0000
0010
0000
1000
0000
,
0001
0000
0000
0100
0000
0000
0001
0000
0000
0010
0100
0000
1000
0000
0001
0000
,
1000
0010
0000
0000
1000
0001
0000
0000
1000
0100
0000
0000
0110
0000
0000
0000
,
1001
0000
0000
0000
1000
0000
0100
0000
0010
0000
0000
0001
0000
0000
1000
0000
,
0100
0000
0010
0001
0100
0000
0010
1000
,
0001
0000
0000
1000
0000
0000
0100
0000
0010
0000
0000
0000
0001
0000
0100
0000
,
0010
0000
0100
1000
0100
0001
0010
0100
,
1000
0000
0000
0001
0000
0000
0100
0000
0000
0010
0100
0000
0001
0000
0010
0000
,
0001
0000
0000
1000
0000
0000
0100
0000
0000
0010
0100
0000
1000
0000
0010
0000
,
1000
0000
0000
0010
0000
0000
0001
0000
0000
0010
1000
0000
0100
0000
0010
0000
,
0001
0010
1000
0010
0001
0100
1000
0100
,
0010
1000
0100
0000
0001
0100
0000
1000
,
0001
0100
0010
0000
0001
0010
1000
0001
,
0000
0001
0100
0000
1000
0100
0000
0001
,
1000
0100
0010
0000
1000
0010
0001
1000
,
0000
0001
0010
0000
1000
0010
0000
0001
,
1000
0010
0100
0000
1000
0100
0001
1000
,
0000
1000
0010
0000
0001
0010
0000
1000
,
0001
0010
0100
0000
0110
0000
1001
0000
,
1000
0100
1000
0100
0001
0100
0001
0100
,
0010
0100
1000
0100
0010
0001
0100
0010
,
0100
1000
0100
1000
0100
0001
0100
0001
,
0100
1000
0100
0010
0100
0001
1001
0000
,
0100
0000
0001
0100
1000
0000
1001
0000
,
0100
0000
1000
0100
0001
0000
1001
0000
,
1100
0000
0010
0011
0000
0100
0101
0000
,
0010
1010
0000
0010
1000
1000
0001
1001
,
0101
0000
0000
0000
;

//---------------dance-single - ----------------
#NOTES:
     dance-single:
     :
     Challenge:
     9:
     0.524,0.631,0.287,0.063,0.385:
0000
0000
0000
0000
,
0000
0000
0000
0000
,
0000
0000
0000
0000
,
0000
0000
0000
0000
,
1002
0000
1003
0001
,
0200
0000
0000
0000
0000
0000
0320
0000
0000
0000
0000
0000
0000
0000
0130
0010
,
0100
0000
0000
0000
0000
0000
0000
0000
0110
0000
0000
0000
0000
0000
0000
0001
,
1000
0000
0000
0000
0110
0000
0000
0000
0001
0000
0010
0000
0100
1000
0001
1000
,
0001
0000
0000
0100
0000
0000
0010
0000
0000
1000
0100
0000
0010
0000
0001
0000
,
1000
0000
0000
0100
0000
0000
0010
0000
0000
0001
0100
0000
0010
0000
1000
0000
,
0001
0000
0000
0100
0000
0000
0010
0000
0000
1000
0100
0000
0010
0000
0001
0000
,
0001
0100
0000
0100
0010
0000
0010
1000
0000
1000
0001
0000
1001
0000
0000
0000
,
0110
0000
0100
1000
0001
0100
0010
0000
,
1000
0100
0001
0000
0001
0010
1000
0000
,
1001
0000
1000
0101
0000
0001
1100
0000
,
0010
1001
0000
1000
0100
0010
0001
1000
,
1001
0000
0000
0000
0100
0000
0001
1000
0000
0000
0200
0000
0000
0000
0000
0000
,
0000
0000
0000
0000
,
0302
0000
0000
0000
,
0000
0000
0000
0000
,
2003
0000
0000
0000
,
0000
0000
0000
0000
,
3200
0000
0000
0000
,
0000
0000
0000
0000
,
0301
0000
0000
0100
0000
0000
0010
0000
0000
0000
1000
0000
0100
0000
0010
0000
,
0001
0000
0000
1000
0000
0000
0001
0000
0000
0000
0100
0000
0010
0000
0100
0000
,
0001
0000
0000
1000
0000
0000
0100
0000
0000
0000
0010
0000
0001
0000
0100
0000
,
1000
0100
0001
0100
1000
0100
0010
0000
,
1000
0000
0000
0100
0000
0000
0010
0000
0000
0000
0001
0000
0100
0000
0010
0000
,
1000
0000
0000
0001
0000
0000
1000
0000
0000
0000
0100
0000
0010
0000
0100
1000
,
0001
0000
0100
0000
1010
0000
0100
0001
,
0010
0000
1000
0000
0010
0000
0001
0000
0100
0010
0000
1000
0001
0000
0100
0000
,
0101
0000
0000
0001
0000
0000
0010
0000
0001
0000
0000
1000
0000
0000
0001
0000
,
1010
0000
0000
0010
0000
0000
0100
0000
0001
0000
1000
0000
0001
0000
0010
0000
,
0101
0000
0000
0001
0000
0000
0100
0000
0010
0000
0000
1000
0000
0000
0001
0000
,
1100
0000
0000
0100
0000
0000
0010
0000
0001
0000
0100
0000
1000
0000
0010
0000
,
0001
0000
0000
0100
0000
0000
0001
0000
0000
0010
0100
0000
0001
0000
0100
0000
,
1000
0000
0000
0100
0000
0000
1000
0000
0000
0010
0100
0000
1000
0000
0100
0000
,
0001
0000
0000
0010
0000
0000
1000
0000
0000
0010
0001
0000
0100
0000
0010
0000
,
1000
0100
0000
0010
0001
0000
0100
0010
0000
1000
0001
0000
1001
0000
0000
0000
,
1100
0000
0000
1000
0000
0000
0010
0000
1000
0000
0000
0001
0000
0000
1000
0000
,
0011
0000
0000
0010
0000
0000
0100
0000
1000
0000
0001
0000
1000
0000
0010
0000
,
1100
0000
0000
1000
0000
0000
0100
0000
0010
0000
0000
0001
0000
0000
1000
0000
,
0101
0000
0000
0100
0000
0000
0010
0000
1000
0000
0100
0000
0001
0000
0010
0000
,
1000
0000
0000
0010
0000
0000
1000
0000
0000
0100
0010
0000
1000
0000
0010
0000
,
0001
0000
0000
0010
0000
0000
0001
0000
0000
0100
0010
0000
0001
0000
0010
0000
,
1000
0000
0000
0001
0000
0000
1000
0000
0000
0100
0010
0000
0001
0000
1000
0000
,
0100
1000
0000
0010
0100
0000
0010
0001
0000
0010
0100
0000
0010
1000
0001
0000
,
0001
1000
0100
0000
0010
0000
0000
0010
0001
0000
1000
0000
0000
0000
0100
0000
,
0010
0000
0001
0000
0100
1000
0000
0100
0000
0010
0000
0100
0000
0001
0000
0000
,
0010
0001
0100
0000
0010
0000
0000
0010
1000
0000
0001
0000
0000
0000
0010
0000
,
0100
0000
1000
0001
1000
0000
0010
0001
0000
0010
0000
0100
0000
0001
0000
0000
,
0100
0001
0010
0000
0100
0000
0000
0100
1000
0000
0001
0000
0000
0000
0010
0000
,
0100
0000
1000
0000
0010
0001
0000
0010
0000
0100
0000
0010
0000
1000
0000
0000
,
0100
1000
0010
0000
0100
0000
0000
0100
0001
0000
1000
0000
0000
0001
0010
0000
,
1000
0000
0010
0100
0000
1000
0001
0000
0000
0000
0000
0000
1001
0000
0000
0000
,
0001
0010
0100
0001
0100
0010
0001
1000
,
0100
1000
0010
0100
1000
0100
0010
1000
,
0001
0010
1000
0001
0100
0010
0100
1000
,
0001
0100
0000
1000
0100
0000
0001
0010
0000
1000
0010
0000
0001
0000
0000
0000
,
0001
0100
0001
0010
0001
1000
0101
0000
,
1000
0010
1000
0100
1000
0001
1010
0000
,
1001
0000
0010
0101
0000
0010
1100
0000
,
0010
1001
0000
0100
1010
1010
1001
1001
,
0101
0000
0000
0000
;

//---------------dance-single - ----------------
#NOTES:
     dance-single:
     :
     Beginner:
     2:
     0.154,0.229,0.045,0.000,0.000:
0000
0000
0000
0000
,
0000
0000
0000
0000
,
0000
0000
0000
0000
,
0000
0000
0000
0000
,
1000
0000
0000
0000
,
0010
0000
0100
0000
,
0001
0000
0001
0000
,
0001
0000
0001
0001
,
0001
0000
1000
0000
,
0001
0000
0100
0000
,
0010
0000
1000
0000
,
0001
0001
0001
0000
,
0100
0100
0000
0010
,
0000
0010
0000
0100
,
0100
0000
0001
0001
,
0000
1000
1000
1000
,
1000
0000
0000
0000
,
0000
0000
0000
0000
,
0001
0000
0000
0000
,
0000
0000
0000
0000
,
0010
0000
0000
0000
,
0000
0000
0000
0000
,
0100
0000
0000
0000
,
0000
0000
0000
0000
,
1000
0000
0000
0000
,
0001
0000
0000
0000
,
1000
0000
0000
0000
,
0001
0000
0000
0000
,
0100
0000
0000
0000
,
0100
0000
0000
0000
,
0010
0000
0010
0000
,
1000
0000
0100
0100
,
0100
0000
0010
0000
,
0001
0000
0010
0000
,
1000
0000
0010
0000
,
0100
0000
0010
0000
,
1001
0000
0010
0000
,
0001
0000
1000
0000
,
0100
0000
0010
0000
,
0001
0001
0001
0000
,
0100
0000
0010
0000
,
1000
0000
0010
0000
,
0001
0000
0010
0000
,
0100
0000
0010
0010
,
0010
0000
0010
0000
,
1000
0000
0001
0000
,
0100
0000
0010
0000
,
1000
1000
1000
1000
,
1000
0000
0001
0000
,
0100
0000
0100
0000
,
0010
0000
1000
0000
,
0001
0000
0001
0000
,
0010
0000
0100
0000
,
1000
0000
1000
0000
,
0010
0000
0100
0000
,
0001
0000
0001
0000
,
1001
0000
0010
0000
,
1001
0000
0100
0000
,
1001
0000
0010
0000
,
1001
0001
0001
0000
,
1000
0000
0001
0000
,
0100
0000
0001
0000
,
1000
0000
0100
0100
,
0000
0001
0001
0001
,
0001
0000
0000
0000
;
