#TITLE:3y3s;
#SUBTITLE:;
#ARTIST:青龍;
#TITLETRANSLIT:;
#SUBTITLETRANSLIT:;
#ARTISTTRANSLIT:seiryu;
#CREDIT:Kewing;
#BANNER:3y3s BANNER.png;
#BACKGROUND:3y3s BG.png;
#LYRICSPATH:;
#CDTITLE:!Kewing v3 (cdtitle).png;
#MUSIC:3Y3S.mp3;
#OFFSET:-2.885;
#SAMPLESTART:97.100;
#SAMPLELENGTH:10.080;
#SELECTABLE:YES;
#BPMS:0.000=191.000,200.000=47.750,203.000=191.000,283.000=47.750,285.000=191.000;
#STOPS:;
#BGCHANGES:;

//---------------dance-single - ----------------
#NOTES:
     dance-single:
     :
     Easy:
     5:
     0.328,0.597,0.334,0.127,0.000: // measure 1
0000
0000
0000
0000
,  // measure 2
0000
0000
0000
0000
,  // measure 3
0000
0000
0000
0000
,  // measure 4
0000
0000
0000
0000
,  // measure 5
0000
0000
0000
0000
,  // measure 6
0000
0000
0000
0000
,  // measure 7
0000
0000
0000
0000
,  // measure 8
0000
0000
0000
0000
,  // measure 9
0000
0000
0000
0000
,  // measure 10
1000
0000
0001
0000
,  // measure 11
1000
0000
0100
1000
,  // measure 12
0001
0000
1000
0000
,  // measure 13
0001
0000
0100
0001
,  // measure 14
1000
0100
0100
0000
,  // measure 15
1000
0010
0010
0000
,  // measure 16
0100
0001
0001
1000
,  // measure 17
1100
0000
0000
0000
,  // measure 18
0101
0001
1000
0000
,  // measure 19
1000
1000
0100
0000
,  // measure 20
0001
0001
0100
0000
,  // measure 21
0010
0010
0100
0100
,  // measure 22
0110
0000
0001
0001
,  // measure 23
0101
0000
1000
1000
,  // measure 24
1100
0000
0100
0010
,  // measure 25
1001
0000
0000
0000
,  // measure 26
0002
0000
0000
1000
,  // measure 27
0203
0000
0000
0001
,  // measure 28
0320
0000
0000
0100
,  // measure 29
2030
0000
0000
3001
,  // measure 30
0110
0000
0010
0000
,  // measure 31
1001
0000
0100
0000
,  // measure 32
1001
0010
0100
0010
,  // measure 33
1001
0000
0000
0000
,  // measure 34
1000
0001
0010
0001
,  // measure 35
0100
0000
0110
0100
,  // measure 36
0001
0000
0100
0001
,  // measure 37
0010
0110
0100
1000
,  // measure 38
0000
1000
0010
1000
,  // measure 39
0100
0000
0110
0100
,  // measure 40
1000
0000
0100
1000
,  // measure 41
0010
0100
0110
0100
,  // measure 42
0001
0010
1000
0010
,  // measure 43
0001
0010
0110
0010
,  // measure 44
0001
0100
1000
0100
,  // measure 45
0001
0010
0110
0100
,  // measure 46
2000
0001
0001
3000
,  // measure 47
0002
1000
1000
0003
,  // measure 48
1001
0110
0110
1001
,  // measure 49
0002
0023
0230
2300
,  // measure 50
3002
0203
0320
2030
,  // measure 51
3100
0000
0000
1000
,  // measure 52
0000
0000
0001
1000
,  // measure 53
0000
0000
0000
0100
,  // measure 54
0000
0000
0010
0100
,  // measure 55
0000
1000
0000
0010
,  // measure 56
0000
0100
0000
1000
,  // measure 57
0000
0100
0010
0010
,  // measure 58
0000
1000
0000
0001
,  // measure 59
0000
0000
0000
1000
,  // measure 60
0000
0010
0000
0100
,  // measure 61
0001
0001
0010
0010
,  // measure 62
0000
0100
0000
0100
,  // measure 63
1000
1000
0010
0010
,  // measure 64
0000
0100
0000
1001
,  // measure 65
0000
0010
0000
1100
,  // measure 66
0000
0110
0000
1010
,  // measure 67
0000
0011
0100
1000
,  // measure 68
0000
0101
0000
0110
,  // measure 69
0000
0011
0010
1000
,  // measure 70
0100
0011
0001
1001
,  // measure 71
1000
1010
0100
0002
,  // measure 72
0003
1001
0100
0001
,  // measure 73
0010
0001
1000
1010
,  // measure 74
0001
0010
0100
1000
,  // measure 75
0010
1000
0001
0011
,  // measure 76
1000
0001
0100
1000
,  // measure 77
0100
0001
0010
0100
,  // measure 78
0001
0100
0000
1000
,  // measure 79
0000
0001
0000
0000
,  // measure 80
0000
1001
0010
0100
,  // measure 81
1000
0100
0001
0011
,  // measure 82
1000
0001
0010
1000
,  // measure 83
0010
0100
1000
1010
,  // measure 84
0001
0101
0000
0000
,  // measure 85
1000
1100
1000
0010
,  // measure 86
0100
1001
0010
0110
,  // measure 87
0100
1001
0000
0001
,  // measure 88
1000
0200
0000
0000
,  // measure 89
0000
0300
0000
0000
;

//---------------dance-single - ----------------
#NOTES:
     dance-single:
     :
     Medium:
     7:
     0.442,0.597,0.287,0.104,0.016: // measure 1
0000
0000
0000
0000
,  // measure 2
0000
0000
0000
0000
,  // measure 3
0000
0000
0000
0000
,  // measure 4
0000
0000
0000
0000
,  // measure 5
0000
0000
0000
0000
,  // measure 6
0000
0000
0000
0000
,  // measure 7
0000
0000
0000
0000
,  // measure 8
0000
0000
0000
0000
,  // measure 9
0000
0000
0000
0000
,  // measure 10
1000
0010
0010
1000
,  // measure 11
0100
0100
0010
0000
,  // measure 12
0001
0010
0010
0001
,  // measure 13
0100
0100
0010
0000
,  // measure 14
1000
0100
0100
0010
,  // measure 15
1000
1000
0010
0001
,  // measure 16
0001
0100
0010
1000
,  // measure 17
0101
0000
0000
0000
,  // measure 18
1100
0001
0100
0100
,  // measure 19
0010
0001
0001
1000
,  // measure 20
0100
0010
0010
0100
,  // measure 21
0001
0001
0010
0100
,  // measure 22
1001
0001
0001
1000
,  // measure 23
0101
1000
1000
0001
,  // measure 24
1100
0010
1001
1001
,  // measure 25
0110
0000
0000
0000
,  // measure 26
1000
0000
0001
0100
0000
0001
1000
0000
,  // measure 27
0100
0000
1000
0100
0000
1000
0001
0000
,  // measure 28
0100
0000
0010
0100
0000
0001
0010
0000
,  // measure 29
0100
0000
0010
0100
0000
1000
0010
0000
,  // measure 30
1001
0100
0001
0100
,  // measure 31
1001
0100
1000
0100
,  // measure 32
0011
0000
1100
0000
0100
0010
0100
1000
,  // measure 33
0001
0000
0000
0000
,  // measure 34
0001
0000
0100
0000
0010
0000
1000
0200
,  // measure 35
0000
0300
0010
0000
0100
1000
0001
0000
,  // measure 36
0100
0000
0010
0000
0001
0000
0010
1000
,  // measure 37
0000
1000
0000
1000
0100
0000
0110
0000
,  // measure 38
1000
0000
0100
0000
0010
0000
0001
0200
,  // measure 39
0000
0300
0010
0000
0100
0001
1000
0000
,  // measure 40
0100
0000
0010
0000
1000
0000
0010
0001
,  // measure 41
0000
0001
0000
0001
0100
0000
0110
0000
,  // measure 42
1000
0000
0100
0020
0000
0130
1000
0001
,  // measure 43
1000
0000
0010
0000
0100
0001
0010
0000
,  // measure 44
0001
0000
0100
0020
0000
0130
0001
1000
,  // measure 45
0001
0000
0010
0000
0100
1000
0010
0000
,  // measure 46
1000
0000
0000
0100
0000
0000
0010
0000
0000
0100
0000
0000
1100
0000
0000
0000
,  // measure 47
0001
0000
0000
0100
0000
0000
0010
0000
0000
0100
0000
0000
0001
0000
1000
0000
,  // measure 48
0001
0011
0110
1100
,  // measure 49
1001
0002
0203
0320
,  // measure 50
0230
2300
3200
0302
,  // measure 51
0013
0000
0000
0001
,  // measure 52
1000
0000
1000
0010
,  // measure 53
0100
0001
0000
1000
,  // measure 54
0001
0000
0001
0010
,  // measure 55
0100
1000
1000
0001
,  // measure 56
0100
0000
0010
1000
,  // measure 57
0001
0000
0001
0000
1000
1000
0000
0000
,  // measure 58
0000
0100
0100
0000
0000
0010
0010
0000
,  // measure 59
0000
0000
0000
0001
,  // measure 60
1000
0001
0100
0100
,  // measure 61
0001
0000
0010
0000
0100
1000
1000
0000
,  // measure 62
0001
1000
0100
0100
,  // measure 63
1000
0000
0010
0000
0100
0001
0001
0000
,  // measure 64
1000
0001
0100
1010
,  // measure 65
0001
1000
0100
0011
,  // measure 66
0001
1001
0001
0101
,  // measure 67
0100
0000
0001
1000
0100
0010
0001
0000
,  // measure 68
0100
1010
1000
1001
,  // measure 69
1000
1100
0110
0011
,  // measure 70
0100
1001
0110
1001
,  // measure 71
0110
0000
1000
0001
0100
0020
0000
0000
,  // measure 72
0000
0030
0100
0001
1000
0001
0000
0010
,  // measure 73
0100
1000
0001
0000
0100
0000
1001
0000
,  // measure 74
0010
0000
0100
1000
0001
1000
0000
0010
,  // measure 75
0100
0001
1000
0000
0100
0000
1001
0000
,  // measure 76
0010
0100
0001
0000
1000
0000
0100
0010
,  // measure 77
0100
1000
0001
0000
0100
0000
0010
0000
,  // measure 78
1000
0100
0010
0000
0001
0100
0010
0000
,  // measure 79
1000
0100
0010
0000
0000
0000
0000
0000
,  // measure 80
0000
0000
0010
0001
0100
0001
0000
0010
,  // measure 81
0100
1000
0010
0000
0001
0000
0110
0000
,  // measure 82
1000
0000
0010
1000
0100
1000
0000
0010
,  // measure 83
0100
0001
0010
0000
1000
0000
0110
0000
,  // measure 84
0001
0100
0000
0010
1000
0100
0000
0010
,  // measure 85
0001
0100
0010
0000
0100
0000
0001
1000
,  // measure 86
0100
1000
0010
0000
0010
1000
0100
0010
,  // measure 87
0001
0100
0010
0000
0000
0000
0000
1000
,  // measure 88
0001
1000
0200
0000
0000
0000
0000
0000
,  // measure 89
0000
0300
0000
0000
;

//---------------dance-single - ----------------
#NOTES:
     dance-single:
     :
     Hard:
     9:
     0.530,0.667,0.342,0.064,0.104:
0000
0000
0000
0000
,
0000
0000
0000
0000
,
0000
0000
0000
0000
,
0000
0000
0000
0000
,
0000
0000
0000
0000
,
0000
0000
0000
0000
,
0000
0000
0000
0000
,
0000
0000
0000
0000
,
0000
0000
0000
0000
,
1000
0010
1000
0001
,
0100
0100
1000
0100
,
0001
0010
0001
1000
,
0100
0100
0001
0100
,
0010
0000
0001
0000
1000
0000
0010
0010
,
0100
0000
1000
0000
0100
0000
0001
0001
,
1000
0100
0010
0001
,
1100
0000
0000
0000
,
0101
0000
1000
0000
0010
0000
0100
1000
,
1000
0000
0100
0000
0001
0000
0010
0100
,
0100
0000
0001
0000
0100
0000
1000
0010
,
0010
0000
0001
0000
0100
1000
0001
0000
,
1001
0000
0010
0000
0100
0000
0001
1000
,
0011
0000
0100
0000
0010
0000
1000
0001
,
1010
0001
0110
1001
,
0110
0000
0000
0000
,
0010
0000
0000
0100
0000
0000
0001
0000
0000
0100
0000
0000
0010
0000
1000
0000
,
0100
0000
0000
0010
0000
0000
1000
0000
0000
0010
0000
0000
0100
0000
1000
0000
,
0010
0000
0000
0001
0000
0000
1000
0000
0000
0001
0000
0000
0010
0000
1000
0000
,
0100
0000
0000
0001
0000
0000
1000
0000
0000
0010
0000
0000
0100
0000
1000
0000
,
0010
0000
0001
0010
1000
0000
0100
0000
,
0110
0000
1000
0010
0001
0000
0100
0000
,
1001
1010
0110
0011
,
1001
0000
0000
0000
0001
1000
0001
0000
,
0110
0000
0100
0000
1000
0010
0100
0002
,
0000
0003
0010
0000
0010
0001
0100
0000
,
0010
0000
0100
0000
0001
0010
0100
2000
,
0000
3010
0000
0010
0010
1000
0100
0000
,
1000
0000
0001
0000
0010
0001
0100
0020
,
0000
0030
0001
0000
0001
0010
1000
0000
,
0100
0000
1000
0000
0010
1000
0100
0020
,
0000
1030
0000
1000
0010
0001
0100
0000
,
0001
0010
1000
0020
0000
0130
0001
0100
,
1000
0000
0000
1000
0001
0000
0100
0000
0010
0000
1000
0000
0100
0000
0000
0000
,
1000
0010
0001
0020
0000
0130
1000
0100
,
0001
0000
0000
0001
1000
0000
0100
0000
0010
0000
0001
0000
0100
0000
0000
0000
,
0010
0100
0000
0010
1000
0000
0010
0100
0000
0001
0100
0000
0010
0000
0000
0000
,
1000
0001
0000
1000
0100
0000
1000
0001
0000
0100
0001
0000
1000
0000
1000
0000
,
0001
0011
1100
1010
,
1001
0000
0000
1000
0100
0000
0000
0100
0010
0000
0000
0001
0010
0000
0000
0010
,
0100
0000
0000
1000
0001
0000
0000
0001
0100
0000
0000
0010
1000
0000
0000
0100
,
0010
0000
0000
0001
,
1000
0010
0000
0100
0010
0000
0001
0000
,
0010
1000
0100
0010
,
0001
0100
0000
0010
0100
0000
1000
0000
,
0100
0000
0010
0000
1000
0001
0000
0010
,
0100
1000
0100
0001
,
0100
0000
0010
0000
0100
1000
0000
0000
,
0000
0010
0100
0000
0000
0001
1000
0000
,
0000
0000
0000
0001
,
1000
0010
0001
1000
,
0001
0000
0100
0000
1000
1000
1000
0000
,
0001
0010
1000
0001
,
1000
0000
0100
0000
0001
0001
0001
0000
,
0010
0100
0001
1001
,
1000
0010
0100
1001
,
1001
0110
0110
1010
,
0101
1010
0011
1100
,
0011
0101
0110
1100
,
0011
0000
0101
0000
1010
0000
0010
0100
,
0001
0010
0100
1000
0010
0001
0010
1000
,
0100
0010
0001
1000
0001
0200
0000
0000
,
0000
0000
0000
0300
0100
0000
0010
0000
1000
0000
0100
0000
0010
0000
0100
0000
,
1000
0001
0101
0000
1001
0000
0011
0000
,
1100
0000
0100
0010
0001
0100
0010
0100
,
0001
1000
0100
0010
0001
0100
1000
0000
,
0100
0010
0000
1000
0001
0010
0100
1000
,
0100
0001
0100
0010
0001
1000
0010
0000
,
0100
0001
0100
0000
0100
1000
0100
0000
,
0100
0010
0100
0000
0000
0000
0000
1000
,
0001
0010
0100
1000
0010
0100
0001
0100
,
1000
0100
0001
1000
1100
0000
0110
0000
,
0011
0000
1000
0010
0001
0100
0010
1000
,
0100
0010
0100
1000
0010
0001
0010
1000
,
0010
0100
0000
0001
0010
0001
0000
0100
,
1000
0100
0010
1000
0100
0010
0100
1000
,
0001
0100
0010
1000
0100
0001
1000
0010
,
0001
0100
0010
0000
0000
0000
0000
1000
,
0001
1000
0200
0000
0000
0000
0000
0000
,
0000
0300
0000
0000
;

//---------------dance-single - ----------------
#NOTES:
     dance-single:
     :
     Beginner:
     2:
     0.181,0.278,0.151,0.000,0.000: // measure 1
0000
0000
0000
0000
,  // measure 2
0000
0000
0000
0000
,  // measure 3
0000
0000
0000
0000
,  // measure 4
0000
0000
0000
0000
,  // measure 5
0000
0000
0000
0000
,  // measure 6
0000
0000
0000
0000
,  // measure 7
0000
0000
0000
0000
,  // measure 8
0000
0000
0000
0000
,  // measure 9
0000
0000
0000
0000
,  // measure 10
0001
0000
0000
0000
,  // measure 11
1000
0000
0000
0000
,  // measure 12
0100
0000
0000
0000
,  // measure 13
0010
0000
0000
0000
,  // measure 14
0001
0000
0001
0000
,  // measure 15
1000
0000
1000
0000
,  // measure 16
0100
0000
0100
0000
,  // measure 17
0110
0000
0000
0000
,  // measure 18
1000
0000
1000
0000
,  // measure 19
0001
0000
0001
0000
,  // measure 20
0100
0000
0100
0000
,  // measure 21
1000
0000
1000
0000
,  // measure 22
1001
0000
0000
0000
,  // measure 23
0010
0000
0000
0000
,  // measure 24
0100
0000
0110
0000
,  // measure 25
1001
0000
0000
0000
,  // measure 26
0001
0000
0000
0000
,  // measure 27
1000
0000
0000
0000
,  // measure 28
0110
0000
0000
0000
,  // measure 29
0001
0000
0000
0000
,  // measure 30
0110
0000
0000
0000
,  // measure 31
1000
0000
0000
0000
,  // measure 32
1001
0000
1001
0000
,  // measure 33
1001
0000
0000
0000
,  // measure 34
0001
0000
1000
0000
,  // measure 35
0001
0000
0010
0000
,  // measure 36
0100
0000
1000
0000
,  // measure 37
0010
0010
0010
0010
,  // measure 38
0010
0000
1000
0000
,  // measure 39
0001
0000
1000
0000
,  // measure 40
0100
0000
0010
0000
,  // measure 41
0001
0001
0001
0000
,  // measure 42
0100
0000
1000
0000
,  // measure 43
0100
0100
0100
0000
,  // measure 44
0010
0000
0001
0000
,  // measure 45
0010
0010
0010
0000
,  // measure 46
1000
1000
1000
0000
,  // measure 47
0001
0001
0001
0000
,  // measure 48
0100
0100
0100
0100
,  // measure 49
0100
0000
0000
0000
,  // measure 50
0010
0000
0000
0000
,  // measure 51
1000
0000
0000
1000
,  // measure 52
0000
0000
0000
0000
,  // measure 53
0000
0000
0000
0001
,  // measure 54
0000
0000
0000
0000
,  // measure 55
0000
0000
0000
0010
,  // measure 56
0000
0000
0000
0100
,  // measure 57
0000
0000
0000
1000
,  // measure 58
0000
0000
0000
0001
,  // measure 59
0000
0000
0000
1000
,  // measure 60
0000
0000
0000
0010
,  // measure 61
0000
0000
0001
0001
,  // measure 62
0000
0000
0000
0010
,  // measure 63
0000
0000
1000
1000
,  // measure 64
0000
0000
0100
0100
,  // measure 65
0000
0000
0010
0010
,  // measure 66
0000
1001
0000
0001
,  // measure 67
0000
1000
0000
1001
,  // measure 68
0000
0010
0000
0110
,  // measure 69
0000
0100
0000
0010
,  // measure 70
0000
1001
0000
1001
,  // measure 71
0000
0110
0110
0000
,  // measure 72
0000
1000
0000
0100
,  // measure 73
0000
0001
0001
0001
,  // measure 74
0000
0100
0000
1000
,  // measure 75
0000
0010
0010
0010
,  // measure 76
0000
0100
0000
1000
,  // measure 77
0000
0100
0000
0001
,  // measure 78
0001
0001
0000
0010
,  // measure 79
0000
0100
0000
0000
,  // measure 80
0000
1000
0000
0010
,  // measure 81
0000
0001
0001
0001
,  // measure 82
0000
0100
0000
1000
,  // measure 83
0000
0010
0010
0010
,  // measure 84
0000
0110
0000
0000
,  // measure 85
0000
1001
0000
0000
,  // measure 86
0000
0100
0100
0010
,  // measure 87
0010
0010
0000
0000
,  // measure 88
0000
1001
0000
0000
;
