#VERSION:0.83;
#TITLE:Zitti e buoni;
#SUBTITLE:;
#ARTIST:MÃ¥neskin;
#TITLETRANSLIT:;
#SUBTITLETRANSLIT:;
#ARTISTTRANSLIT:;
#GENRE:;
#ORIGIN:;
#CREDIT:;
#BANNER:Zitti-e-buoni_banner.png;
#BACKGROUND:Zitti-e-buoni_bg.png;
#PREVIEWVID:;
#JACKET:Zitti-e-buoni_jacket.png;
#CDIMAGE:;
#DISCIMAGE:;
#LYRICSPATH:;
#CDTITLE:;
#MUSIC:Zitti-e-buoni.ogg;
#OFFSET:-0.025000;
#SAMPLESTART:48.965038;
#SAMPLELENGTH:18.640781;
#SELECTABLE:YES;
#BPMS:0.000=103.000;
#STOPS:198.000=0.583;
#DELAYS:;
#WARPS:;
#TIMESIGNATURES:0.000=4=4;
#TICKCOUNTS:0.000=4;
#COMBOS:0.000=1;
#SPEEDS:0.000=1.000=0.000=0;
#SCROLLS:0.000=1.000;
#FAKES:;
#LABELS:0.000=Song Start;
#BGCHANGES:;
#KEYSOUNDS:;
#ATTACKS:
;

//---------------dance-single - ----------------
#NOTEDATA:;
#CHARTNAME:;
#STEPSTYPE:dance-single;
#DESCRIPTION:;
#CHARTSTYLE:;
#DIFFICULTY:Hard;
#METER:13;
#RADARVALUES:0.418291,0.505597,0.190663,0.231519,0.190663,430.000000,402.000000,28.000000,34.000000,0.000000,0.000000,0.000000,0.000000,0.000000,0.418291,0.505597,0.190663,0.231519,0.190663,430.000000,402.000000,28.000000,34.000000,0.000000,0.000000,0.000000,0.000000,0.000000;
#CREDIT:;
#NOTES:
// measure 0
0000
0000
0000
0000
,  // measure 1
0000
0000
0000
0000
,  // measure 2
0000
0000
0000
0000
,  // measure 3
0000
0000
0000
0000
,  // measure 4
0000
0000
0000
0000
,  // measure 5
1000
0100
0010
0001
,  // measure 6
0001
0100
0010
0010
,  // measure 7
1000
0010
0100
0001
,  // measure 8
0001
0010
0100
0100
,  // measure 9
1000
0100
0010
1000
,  // measure 10
0010
0001
0100
0100
,  // measure 11
0001
0100
0010
0001
,  // measure 12
0010
1000
0100
0100
,  // measure 13
1000
0000
0000
0100
0010
0000
0000
0000
0001
0000
0000
0100
0010
0000
0000
0000
,  // measure 14
1000
0000
0000
0100
0010
0000
0000
0000
0001
0000
0010
0000
0001
0000
0001
0000
,  // measure 15
1000
0000
0000
0010
0100
0000
0000
0000
0001
0000
0000
0010
0100
0000
0000
0000
,  // measure 16
1000
0000
0000
0010
0100
0000
0000
0000
0001
0000
0100
0000
0001
0000
0001
0000
,  // measure 17
1000
0000
0000
1000
0010
0000
0100
0000
0001
0000
0100
0000
0010
0000
0100
0000
,  // measure 18
0001
0000
0000
0001
0010
0000
0100
0000
1000
0000
0100
0000
0010
0000
0100
0000
,  // measure 19
1000
0000
0000
1000
0001
0000
0001
0000
0100
0000
0010
0000
0100
0000
0010
0000
,  // measure 20
1000
0100
0010
0100
0010
1000
0010
0001
,  // measure 21
0001
0000
0100
0000
0001
0020
0000
0000
0130
0000
1000
0000
1000
0020
0000
0000
,  // measure 22
1030
0000
0100
0000
1000
0020
0000
0000
0130
0000
0100
0000
0001
0000
0001
0000
,  // measure 23
0001
0000
0010
0000
0001
0200
0000
0000
0310
0000
1000
0000
1000
0200
0000
0000
,  // measure 24
1300
0000
0010
0000
1000
0020
0000
0000
0130
0000
1000
0000
0100
0000
0001
0000
,  // measure 25
0002
0000
0100
0000
1003
0020
0000
0000
2030
0000
0100
0000
3001
0020
0000
0000
,  // measure 26
0032
0000
0100
0000
1003
0020
0000
0000
0130
0000
0100
0000
0101
0000
0001
0000
,  // measure 27
0002
0000
0010
0000
1003
0200
0000
0000
2300
0000
0010
0000
3001
0200
0000
0000
,  // measure 28
0302
0000
0010
0000
1003
0200
0000
0000
0310
0000
0100
0000
0001
0000
0100
0000
,  // measure 29
0200
0000
0320
0000
0031
0100
0001
0100
,  // measure 30
0002
0000
0023
0000
0130
1000
0010
1000
,  // measure 31
0020
0000
0230
0000
0301
0010
0001
0010
,  // measure 32
0002
0000
2003
0000
3010
0001
0010
1000
,  // measure 33
0100
0000
0110
0000
0001
0100
1000
0100
,  // measure 34
0001
0000
1001
0000
0010
0100
0010
1000
,  // measure 35
0010
0000
0110
0000
0001
0010
1000
0010
,  // measure 36
0001
0000
1001
0000
0001
0010
0100
1000
,  // measure 37
0100
0000
0000
0010
0100
0000
0010
0000
0001
0000
0100
0000
1000
0000
0100
0000
,  // measure 38
0001
0000
0000
1000
0001
0000
1000
0000
0010
0000
0100
0000
0010
0000
1000
0000
,  // measure 39
0010
0000
0000
0100
0010
0000
0100
0000
0001
0000
0010
0000
1000
0000
0010
0000
,  // measure 40
0001
0000
0000
1000
0001
0000
1000
0000
0100
0000
0010
0000
0100
0000
1000
0000
,  // measure 41
0101
0000
0000
0110
0000
0010
0000
1000
0000
1000
0100
0000
0001
0000
0100
0000
,  // measure 42
1100
0000
0000
1001
0000
0001
0000
0010
0000
0010
0100
0000
0010
0000
0001
0000
,  // measure 43
1010
0000
0000
0110
0000
0100
0000
0001
0000
0001
0010
0000
1000
0000
0010
0000
,  // measure 44
0011
0000
0000
1001
0000
1000
0100
1000
0100
0000
0010
0000
0100
0000
1000
0000
,  // measure 45
0020
0000
0000
0000
0000
0000
0000
0000
0000
0000
0000
0000
0130
0001
0100
0001
,  // measure 46
0100
0000
0011
0000
0000
0001
0101
0000
,  // measure 47
0010
0000
0101
0000
0000
0001
0011
1000
,  // measure 48
0100
0000
1010
0000
0000
1000
1100
0000
,  // measure 49
1000
0010
0001
1000
0100
0000
0001
0100
,  // measure 50
0001
0020
0001
0000
0130
0000
1000
0000
1000
0020
0100
0000
1030
0000
0100
0000
,  // measure 51
1000
0020
1000
0000
0130
0000
0100
0000
0101
0000
0001
0000
0011
0000
0010
0000
,  // measure 52
0001
0200
0001
0000
0310
0000
1000
0000
1000
0200
0010
0000
1300
0000
0010
0000
,  // measure 53
1000
0020
1000
0000
0130
0000
0100
0000
0010
0100
0010
0100
0001
0000
1000
0000
,  // measure 54
0010
0010
1000
0001
0010
0010
0001
0100
,  // measure 55
0010
0010
1000
0010
0100
0110
0010
0010
,  // measure 56
0001
0001
0010
0010
1000
1000
0100
0010
,  // measure 57
1000
1000
0010
0001
0010
0001
1000
1000
,  // measure 58
0010
0100
0010
0000
1000
0000
1000
0000
0100
0010
0100
0000
1000
0000
1000
0000
,  // measure 59
0001
0010
0001
0000
0002
0000
1003
0000
0110
0000
0110
0000
0001
0000
0001
0000
,  // measure 60
0010
0100
0010
0000
0001
0000
0001
0000
0100
0010
0100
0000
0001
0000
0001
0000
,  // measure 61
1000
0010
1000
0000
1000
0000
1000
0000
0110
0000
0110
0000
1001
0000
1001
0000
;

//---------------dance-single - ----------------
#NOTEDATA:;
#CHARTNAME:;
#STEPSTYPE:dance-single;
#DESCRIPTION:;
#CHARTSTYLE:;
#DIFFICULTY:Medium;
#METER:8;
#RADARVALUES:0.296695,0.315998,0.217901,0.183854,0.010214,305.000000,273.000000,32.000000,27.000000,0.000000,0.000000,0.000000,0.000000,0.000000,0.296695,0.315998,0.217901,0.183854,0.010214,305.000000,273.000000,32.000000,27.000000,0.000000,0.000000,0.000000,0.000000,0.000000;
#CREDIT:;
#NOTES:
// measure 0
0000
0000
0000
0000
,  // measure 1
0000
0000
0000
0000
,  // measure 2
0000
0000
0000
0000
,  // measure 3
0000
0000
0000
0000
,  // measure 4
0000
0000
0000
0000
,  // measure 5
1000
1000
0001
0001
,  // measure 6
1000
1000
0010
0010
,  // measure 7
1000
1000
0001
0001
,  // measure 8
1000
1000
0100
0100
,  // measure 9
1000
0001
1000
1000
,  // measure 10
0001
0001
0010
0010
,  // measure 11
0001
0001
1000
1000
,  // measure 12
0001
0001
0100
0100
,  // measure 13
0010
1000
0100
1000
,  // measure 14
0001
0010
0001
1001
,  // measure 15
0001
0010
0100
1000
,  // measure 16
1000
0010
0100
0110
,  // measure 17
0001
0000
1000
0010
1000
0000
0001
0000
,  // measure 18
1000
0000
0001
0010
0001
0000
1001
0000
,  // measure 19
0001
0000
0010
0100
0010
0000
0001
0000
,  // measure 20
0100
0000
0010
0000
1000
0010
0100
0001
,  // measure 21
1000
0000
0021
0000
0031
0100
0020
0000
,  // measure 22
1030
0021
0031
1020
,  // measure 23
1030
0000
0101
0000
0001
0010
0200
0000
,  // measure 24
1300
0201
0301
1200
,  // measure 25
1300
0000
1020
0000
1030
0100
0020
0000
,  // measure 26
0031
2010
3010
0012
,  // measure 27
0013
0000
1200
0000
1300
0010
0200
0000
,  // measure 28
0301
0101
1001
1100
,  // measure 29
2000
3020
1030
0001
,  // measure 30
0002
0023
0031
1000
,  // measure 31
0200
0320
0031
0001
,  // measure 32
0100
0000
0100
0000
0010
0010
0010
0010
,  // measure 33
1000
1100
0010
0001
,  // measure 34
0001
0101
0010
1000
,  // measure 35
1000
1010
0100
0001
,  // measure 36
0001
0011
0100
1000
,  // measure 37
1000
0000
0101
0000
0010
0001
0010
0000
,  // measure 38
0001
0000
1100
0000
0010
1000
0010
1000
,  // measure 39
0001
0000
1010
0000
0100
1000
0100
0000
,  // measure 40
0001
0000
1010
0000
0100
0100
0001
0001
,  // measure 41
1000
0000
0000
0000
1100
0000
0000
0001
0000
0000
0010
0000
0001
0000
0000
0000
,  // measure 42
0001
0000
0000
0000
0101
0000
0000
1000
0000
0000
0010
0000
1000
0000
0000
0000
,  // measure 43
1000
0000
0000
0000
1010
0000
0000
0001
0000
0000
0100
0000
0001
0000
0000
0000
,  // measure 44
0001
0011
0110
1100
,  // measure 45
2000
0000
0000
3001
,  // measure 46
1000
0000
0001
0000
0000
1000
0001
0000
,  // measure 47
0100
0000
0010
0000
0000
0100
0010
0000
,  // measure 48
1000
0000
0001
0000
0000
1000
0001
0000
,  // measure 49
0010
0000
0100
0000
0110
0000
1000
0100
,  // measure 50
0020
0000
0031
0100
0020
0000
1030
0010
,  // measure 51
0200
0000
0301
0000
1001
0001
1000
0010
,  // measure 52
0200
0000
0301
0010
0200
0000
1300
0100
,  // measure 53
0020
0000
0031
0100
0010
0010
1000
0000
,  // measure 54
0010
0010
0001
0000
0010
0010
1000
0000
,  // measure 55
0100
0100
0001
0000
0100
0100
1000
0000
,  // measure 56
0001
0001
0010
0000
0001
0001
1000
0000
,  // measure 57
0001
0001
0100
0100
0001
0001
0001
0000
,  // measure 58
1000
1000
0010
0000
1000
1000
0001
0000
,  // measure 59
1000
1000
0200
0000
1000
1300
0001
0000
,  // measure 60
0100
0100
1000
0000
0100
0100
0001
0000
,  // measure 61
0010
0010
1000
0000
0010
0010
0100
0100
;

//---------------dance-single - ----------------
#NOTEDATA:;
#CHARTNAME:;
#STEPSTYPE:dance-single;
#DESCRIPTION:;
#CHARTSTYLE:;
#DIFFICULTY:Easy;
#METER:7;
#RADARVALUES:0.224710,0.294932,0.136188,0.177044,0.000000,231.000000,211.000000,20.000000,26.000000,0.000000,0.000000,0.000000,0.000000,0.000000,0.224710,0.294932,0.136188,0.177044,0.000000,231.000000,211.000000,20.000000,26.000000,0.000000,0.000000,0.000000,0.000000,0.000000;
#CREDIT:;
#NOTES:
// measure 0
0000
0000
0000
0000
,  // measure 1
0000
0000
0000
0000
,  // measure 2
0000
0000
0000
0000
,  // measure 3
0000
0000
0000
0000
,  // measure 4
0000
0000
0000
0000
,  // measure 5
1000
0000
0001
0000
,  // measure 6
1000
0000
0001
0010
,  // measure 7
0100
0000
0010
0000
,  // measure 8
0100
0000
0010
0010
,  // measure 9
0001
0000
1000
0000
,  // measure 10
0001
0000
1000
0010
,  // measure 11
0100
0000
0010
0000
,  // measure 12
0100
0000
0010
0010
,  // measure 13
1000
0010
1000
0001
,  // measure 14
0001
0010
0001
1000
,  // measure 15
1000
0100
0010
0001
,  // measure 16
0001
0100
0010
1000
,  // measure 17
0001
0010
0100
0010
,  // measure 18
0001
0100
0010
0100
,  // measure 19
0010
1000
0100
1000
,  // measure 20
0001
0100
0010
1000
,  // measure 21
0001
1001
2000
3020
,  // measure 22
1030
1001
0002
0023
,  // measure 23
0031
1001
2000
3200
,  // measure 24
1300
0001
0101
1100
,  // measure 25
0100
0110
0020
0032
,  // measure 26
0103
0101
0200
2300
,  // measure 27
3100
0110
0020
2030
,  // measure 28
3100
1100
0110
0011
,  // measure 29
2000
3000
0020
0030
,  // measure 30
2000
3000
0001
0100
,  // measure 31
0002
0003
0020
0030
,  // measure 32
0002
0003
1000
1000
,  // measure 33
0100
0100
0010
0010
,  // measure 34
0001
0001
1000
1000
,  // measure 35
0010
0010
0100
0100
,  // measure 36
0001
0001
1000
1000
,  // measure 37
0100
0010
0100
1000
,  // measure 38
0001
1000
0001
0100
,  // measure 39
0100
0010
0100
0001
,  // measure 40
1000
0001
1000
0001
,  // measure 41
0012
0013
0100
1000
,  // measure 42
2010
3010
0100
0001
,  // measure 43
0201
0301
0100
0010
,  // measure 44
1020
1030
0001
1001
,  // measure 45
0020
0000
0000
0030
,  // measure 46
1000
0010
0000
0010
,  // measure 47
0001
0010
0000
0010
,  // measure 48
1000
0100
0000
0100
,  // measure 49
0001
0100
1000
1000
,  // measure 50
1001
0000
0001
0010
0001
0000
0001
0000
,  // measure 51
1001
0000
1000
0010
1000
0000
1000
0000
,  // measure 52
1001
0000
0001
0100
0001
0000
0001
0000
,  // measure 53
1001
0000
0100
1000
0100
1000
0100
0000
,  // measure 54
0010
0100
0001
0100
,  // measure 55
1000
0002
1000
0103
,  // measure 56
0010
0100
1000
0100
,  // measure 57
0001
0000
2000
0000
3002
0000
1003
1000
,  // measure 58
0000
0000
0001
0001
0000
0000
1000
1000
,  // measure 59
0000
0000
0001
0001
0001
0000
0010
0010
,  // measure 60
0000
0000
0100
0100
0000
0000
0010
0000
,  // measure 61
0001
0000
0100
0000
1000
0000
0100
0100
;

//---------------dance-single - ----------------
#NOTEDATA:;
#CHARTNAME:;
#STEPSTYPE:dance-single;
#DESCRIPTION:;
#CHARTSTYLE:;
#DIFFICULTY:Beginner;
#METER:3;
#RADARVALUES:0.119651,0.210240,0.061285,0.000000,0.000000,123.000000,114.000000,9.000000,0.000000,0.000000,0.000000,0.000000,0.000000,0.000000,0.119651,0.210240,0.061285,0.000000,0.000000,123.000000,114.000000,9.000000,0.000000,0.000000,0.000000,0.000000,0.000000,0.000000;
#CREDIT:;
#NOTES:
// measure 0
0000
0000
0000
0000
,  // measure 1
0000
0000
0000
0000
,  // measure 2
0000
0000
0000
0000
,  // measure 3
0000
0000
0000
0000
,  // measure 4
0000
0000
0000
0000
,  // measure 5
1000
0000
0000
0000
,  // measure 6
1000
0000
0000
0000
,  // measure 7
1000
0000
0000
0000
,  // measure 8
1000
0000
0000
0000
,  // measure 9
0001
0000
0000
0000
,  // measure 10
0001
0000
0000
0000
,  // measure 11
0001
0000
0000
0000
,  // measure 12
0001
0000
0000
0000
,  // measure 13
1000
0000
0001
0000
,  // measure 14
1000
0000
0001
0000
,  // measure 15
0001
0000
1000
0000
,  // measure 16
0001
0000
1000
0000
,  // measure 17
1000
0000
0010
0000
,  // measure 18
0001
0000
0010
0000
,  // measure 19
1000
0000
0100
0000
,  // measure 20
0001
0000
0100
0000
,  // measure 21
1000
1000
0000
1000
,  // measure 22
0000
0001
0001
0001
,  // measure 23
0001
0001
0000
0001
,  // measure 24
0000
1000
1000
1000
,  // measure 25
1000
1000
0000
0010
,  // measure 26
0000
0100
0100
0100
,  // measure 27
0100
0100
0000
0010
,  // measure 28
0000
0010
0010
0010
,  // measure 29
0010
0000
0000
0000
,  // measure 30
0000
0000
0000
0000
,  // measure 31
0000
0000
0000
0000
,  // measure 32
0000
0000
0000
0000
,  // measure 33
1000
0000
0100
0000
,  // measure 34
0010
0000
0010
0000
,  // measure 35
0001
0000
0100
0000
,  // measure 36
0010
0000
0010
0000
,  // measure 37
1000
0000
0100
0000
,  // measure 38
0010
0000
0001
0000
,  // measure 39
0001
0000
0100
0000
,  // measure 40
0010
0000
1000
0000
,  // measure 41
1000
1000
1000
0000
,  // measure 42
0010
0010
0010
0000
,  // measure 43
0001
0001
0001
0000
,  // measure 44
0010
0010
0010
0010
,  // measure 45
0010
0000
0000
0000
,  // measure 46
1000
0000
0000
0000
,  // measure 47
0100
0000
0000
0000
,  // measure 48
0001
0000
0000
0000
,  // measure 49
0100
0000
0000
0010
,  // measure 50
0010
0010
0010
0010
,  // measure 51
0010
0010
0000
0100
,  // measure 52
0100
0100
0100
0100
,  // measure 53
0100
0100
0000
1000
,  // measure 54
0000
0010
0000
0001
,  // measure 55
0000
1000
0000
0100
,  // measure 56
0000
0001
0000
0010
,  // measure 57
0000
0100
0000
1001
,  // measure 58
0000
1001
0000
1001
,  // measure 59
0000
1001
0000
0110
,  // measure 60
0000
0110
0000
0110
,  // measure 61
0000
0110
0000
1001
;

//---------------dance-single - ----------------
#NOTEDATA:;
#CHARTNAME:;
#STEPSTYPE:dance-single;
#DESCRIPTION:;
#CHARTSTYLE:;
#DIFFICULTY:Challenge;
#METER:15;
#RADARVALUES:0.629382,0.674130,0.115760,0.360898,0.977148,647.000000,630.000000,17.000000,53.000000,0.000000,0.000000,0.000000,0.000000,0.000000,0.629382,0.674130,0.115760,0.360898,0.977148,647.000000,630.000000,17.000000,53.000000,0.000000,0.000000,0.000000,0.000000,0.000000;
#CREDIT:;
#NOTES:
// measure 0
0000
0000
0000
0000
,  // measure 1
0000
0000
0000
0000
,  // measure 2
0000
0000
0000
0000
,  // measure 3
0000
0000
0000
0000
,  // measure 4
0000
0000
0000
0000
,  // measure 5
1000
0000
0000
0010
0000
1000
0010
0000
0100
0000
0000
0001
0000
0100
0001
0000
,  // measure 6
0001
0000
0000
0010
0000
0001
0010
0000
0100
0000
0010
0100
0010
0000
0001
0000
,  // measure 7
0001
0000
0000
0010
0000
0001
0010
0000
0100
0000
0000
1000
0000
0100
1000
0000
,  // measure 8
1000
0000
0000
0010
0000
1000
0010
0000
0100
0000
0010
0100
0010
0000
0100
0010
,  // measure 9
1000
0000
0000
0100
0000
1000
0100
0000
0010
0000
0000
0001
0000
0010
0001
0000
,  // measure 10
0001
0000
0000
0100
0000
0001
0100
0000
0010
0000
0100
0010
0100
0000
0001
0000
,  // measure 11
0001
0000
0000
0100
0000
0001
0100
0000
0010
0000
0000
1000
0000
0010
1000
0000
,  // measure 12
1000
0000
0000
0100
0000
1000
0100
0000
0010
0000
0100
0010
0100
0000
0010
0100
,  // measure 13
0010
0000
0000
0001
0000
0000
0000
0000
0000
0001
0000
0000
0010
0000
0000
0100
0000
0000
1000
0000
0000
0100
0000
0000
0010
0000
0000
0001
0000
0000
0000
0000
0000
0001
0000
0000
0100
0000
0000
0000
0010
0000
0000
0000
0100
0000
0000
0000
,  // measure 14
0010
0000
0000
1000
0000
0000
0000
0000
0000
1000
0000
0000
0010
0000
0000
0100
0000
0000
0000
0000
0000
0100
0000
0000
0010
0000
0000
0000
0000
0000
0010
0000
0000
0001
0000
0000
0000
0000
0000
0000
0010
0000
0000
0000
0100
0000
0000
0000
,  // measure 15
0001
0000
0000
0000
1000
0000
0000
0000
0000
0001
0000
0000
1000
0000
0000
0010
0000
0000
0000
0000
0000
0100
0000
0000
0001
0000
0000
1000
0000
0000
0001
0000
0000
0100
0000
0000
0001
0000
0000
0000
0000
0000
0010
0000
0000
0001
0000
0000
,  // measure 16
0100
0001
0010
0001
0010
0000
0010
0001
0010
0100
1000
0100
1000
0000
0001
1000
,  // measure 17
0000
0010
0000
1000
0010
0000
1000
0001
0000
0001
1000
0001
0010
0001
0000
0001
,  // measure 18
1000
0000
0000
0001
0000
0000
0000
0000
0000
0100
0000
0000
0010
0000
0000
0000
0000
0000
0100
0000
0000
0010
0000
0000
1000
0000
0000
0100
0000
0000
0010
0000
0000
0001
0000
0000
0010
0000
0000
0000
0100
0000
0000
0000
0010
0000
0000
0000
,  // measure 19
0100
0000
0000
0000
0010
0000
0000
0000
0000
0001
0000
0000
0100
0000
0000
0000
0000
0000
0001
0000
0000
1000
0000
0000
0000
0000
0000
1000
0000
0000
0001
0000
0000
1000
0000
0000
0100
0000
0000
0000
0000
0000
0010
0000
0000
0001
0000
0000
,  // measure 20
0000
1000
0010
0100
0001
0000
0100
0001
0000
1000
0010
0100
0001
1000
0100
0010
,  // measure 21
0001
0000
1000
0100
0010
2000
0000
0000
3010
0000
0001
0100
0010
0002
0010
0000
,  // measure 22
0013
0000
1000
0010
0100
2000
0000
0000
3100
0000
0001
0010
0100
0000
0100
0010
,  // measure 23
0001
0000
1000
0010
0100
2000
0000
0000
3100
0000
0001
0010
0100
0002
0100
0000
,  // measure 24
0103
0000
1000
0100
0010
2000
0000
0000
3010
0000
0001
0010
0100
0001
0100
0010
,  // measure 25
0001
0000
0001
0100
0010
0002
0000
0000
0013
0000
1000
0100
0010
2000
0010
0000
,  // measure 26
3010
0000
0001
0010
0100
0002
0000
0000
0103
0000
1000
0010
0100
0000
0100
0010
,  // measure 27
1000
0000
0001
0010
0100
0002
0000
0000
0103
0000
1000
0010
0100
2000
0100
0000
,  // measure 28
3100
0000
0001
0100
0010
0002
0000
0000
0013
0000
1000
0010
0100
0001
0100
0010
,  // measure 29
1000
0000
1000
0010
0000
0010
0100
0010
0001
0000
0001
0000
0010
0000
0010
0000
,  // measure 30
1000
0000
1000
0100
0000
0100
0010
0100
0001
0000
0001
0000
0100
0000
1000
0000
,  // measure 31
0001
0000
0001
0100
0000
0100
0010
0100
1000
0000
1000
0000
0100
0000
0100
0000
,  // measure 32
0001
0000
0001
0010
0000
0010
0100
0010
1000
0000
0010
0000
0001
0010
0001
0010
,  // measure 33
0002
1000
0000
1003
0000
1010
0000
1000
0010
1000
0200
0000
0310
0001
0200
0000
,  // measure 34
0302
0000
0000
1000
0000
0000
0000
0000
0000
1003
0000
0000
0000
0000
0000
1100
0000
0000
0000
0000
0000
1000
0000
0000
0100
0000
0000
1000
0000
0000
0002
0000
0000
0000
0000
0000
0103
0000
0010
0000
0100
0000
0010
0000
0000
0000
0000
0000
,  // measure 35
0020
0000
0000
1000
0000
0000
0000
0000
0000
1030
0000
0000
0000
0000
0000
1001
0000
0000
0000
0000
0000
0001
0000
0000
0010
0000
0000
0001
0000
0000
0200
0000
0000
0000
0000
0000
0301
0000
1000
0000
0001
0000
2000
0000
0000
0000
0000
0000
,  // measure 36
3002
0000
0000
0010
0000
0000
0000
0000
0000
0013
0000
0000
0000
0000
0000
1100
0000
0000
0000
0000
0000
0100
0000
0000
0010
0000
0000
0001
0000
0000
0100
0000
0000
0001
0000
0000
1000
0000
0010
0000
1000
0000
0020
0000
0000
0000
0000
0000
,  // measure 37
2030
0001
0000
3001
0000
0011
0000
0001
0010
0001
0200
0000
0310
1000
0200
0000
,  // measure 38
2300
0000
0000
0001
0000
0000
0000
0000
0000
3001
0000
0000
0000
0000
0000
0101
0000
0000
0000
0000
0000
0001
0000
0000
0100
0000
0000
0001
0000
0000
2000
0000
0000
0000
0000
0000
3100
0000
0010
0000
0100
0000
0010
0000
0000
0000
0000
0000
,  // measure 39
0020
0000
0000
0001
0000
0000
0000
0000
0000
0031
0000
0000
0000
0000
0000
1001
0000
0000
0000
0000
0000
1000
0000
0000
0010
0000
0000
1000
0000
0000
0200
0000
0000
0000
0000
0000
1300
0000
0001
0000
1000
0000
0002
0000
0000
0000
0000
0000
,  // measure 40
2003
0010
0000
3010
0000
0101
0000
0100
0010
1000
0100
1000
0001
0000
0101
0000
,  // measure 41
0002
0000
0000
1000
0000
0000
0000
0000
0000
0023
0000
0000
0000
0000
0000
1030
0000
0000
0000
0000
0000
0010
0000
0000
0001
0000
0000
1000
0000
0000
0200
0000
0000
0000
0000
0000
0310
0000
0001
0000
0010
0000
0001
0000
0000
0000
0000
0000
,  // measure 42
0002
0000
0000
1000
0000
0000
0000
0000
0000
0203
0000
0000
0000
0000
0000
1300
0000
0000
0000
0000
0000
0100
0000
0000
0001
0000
0000
1000
0000
0000
0002
0000
0000
0000
0000
0000
0103
0000
0001
0000
0100
0000
0001
0000
0000
0000
0000
0000
,  // measure 43
0020
0000
0000
1000
0000
0000
0000
0000
0000
0230
0000
0000
0000
0000
0000
1300
0000
0000
0000
0000
0000
0001
0000
0000
0010
0000
0000
1000
0000
0000
0020
0000
0000
0000
0000
0000
0031
0000
1000
0000
0001
0000
1000
0000
0000
0000
0000
0000
,  // measure 44
0002
0000
0000
0010
0000
0000
0000
0000
0000
0203
0000
0000
0000
0000
0000
1300
0000
0000
0001
0000
0000
1000
0000
0000
0100
0000
0000
0001
0000
0000
0010
0000
0000
0001
0000
0000
1000
0000
0010
0000
1000
0000
0020
0000
0000
0000
0000
0000
,  // measure 45
2030
0000
0000
0000
0010
0000
0000
0000
3010
0000
0100
0100
0010
1000
0010
1000
,  // measure 46
0100
0000
0110
0000
0000
0100
0110
0000
,  // measure 47
0100
0000
0110
0000
0000
0100
0110
0002
,  // measure 48
0103
0000
0110
0000
0000
0100
0110
0000
,  // measure 49
0001
0100
0001
1000
0010
0001
1000
0100
0002
0000
0003
0000
0100
0000
0010
0001
,  // measure 50
1000
0200
0000
0000
0301
0000
0010
1000
0001
0200
1000
0000
1300
0000
0010
0001
,  // measure 51
1000
0200
0000
0000
1300
0000
0100
0001
0010
0000
0010
0001
0010
0000
0100
0001
,  // measure 52
1000
0020
0000
0000
0031
0000
0100
1000
0001
0020
1000
0000
1030
0000
0100
0001
,  // measure 53
1000
0020
0000
0000
0031
0000
0010
0001
1000
0010
1000
0010
0100
0100
0000
0100
,  // measure 54
0010
1000
0010
0000
0100
0100
0000
0100
0010
0001
0010
0000
0100
0100
0000
0100
,  // measure 55
0001
0010
0001
0000
0200
0000
0301
0001
0010
1000
0010
0010
0100
0100
0000
0100
,  // measure 56
0010
0001
0010
0000
0100
0100
0010
0100
0010
1000
0010
0000
0100
0100
0000
0100
,  // measure 57
1000
0000
0000
0010
0000
0000
1000
0000
0000
0000
0000
0000
1000
0000
0001
0000
1000
0000
0001
0000
1000
0000
0001
0000
0010
0000
0100
0000
0010
0000
0100
0000
0010
0000
0100
0000
1000
0000
0000
0000
0000
0000
1000
0000
0000
0000
0000
0000
,  // measure 58
0100
0001
0100
0000
1000
0000
1000
0000
0010
0001
0010
0000
1000
0000
1000
0000
,  // measure 59
0010
0001
1000
0000
0100
0010
1000
0100
0010
0000
0110
0000
0001
0000
0001
0000
,  // measure 60
0100
1000
0100
0000
0001
0000
0001
0010
1000
0010
0001
0000
0001
0000
0001
0000
,  // measure 61
0010
0000
0000
1000
0000
0000
0001
0000
0000
0100
0000
0000
1000
0000
0010
0000
1000
0000
0010
0000
1000
0000
0010
0000
0100
0000
0001
0000
0100
0000
0001
0000
0100
0000
0001
0000
0100
0000
0000
0000
0000
0000
0110
0000
0000
0000
0000
0000
;
