#VERSION:0.83;
#TITLE:Zettai Sengen ~Recital~;
#SUBTITLE:;
#ARTIST:Pastel*Palettes;
#TITLETRANSLIT:;
#SUBTITLETRANSLIT:;
#ARTISTTRANSLIT:;
#GENRE:;
#ORIGIN:;
#CREDIT:;
#BANNER:Zettai Sengen ~Recital~ banner.png;
#BACKGROUND:Zettai Sengen ~Recital~ bg.png;
#PREVIEWVID:;
#JACKET:;
#CDIMAGE:;
#DISCIMAGE:;
#LYRICSPATH:;
#CDTITLE:;
#MUSIC:Zettai Sengen ~Recital~.ogg;
#OFFSET:0.000000;
#SAMPLESTART:33.746304;
#SAMPLELENGTH:12.000000;
#SELECTABLE:YES;
#BPMS:0.000=177.000;
#STOPS:;
#DELAYS:;
#WARPS:;
#TIMESIGNATURES:0.000=4=4;
#TICKCOUNTS:0.000=4;
#COMBOS:0.000=1;
#SPEEDS:0.000=1.000=0.000=0;
#SCROLLS:0.000=1.000;
#FAKES:;
#LABELS:0.000=Song Start;
#BGCHANGES:;
#KEYSOUNDS:;
#ATTACKS:
;

//---------------dance-single - ----------------
#NOTEDATA:;
#CHARTNAME:;
#STEPSTYPE:dance-single;
#DESCRIPTION:;
#CHARTSTYLE:;
#DIFFICULTY:Hard;
#METER:14;
#RADARVALUES:0.639940,0.791026,0.577124,0.531320,0.059545,489.000000,426.000000,63.000000,58.000000,0.000000,0.000000,0.000000,0.000000,0.000000,0.639940,0.791026,0.577124,0.531320,0.059545,489.000000,426.000000,63.000000,58.000000,0.000000,0.000000,0.000000,0.000000,0.000000;
#CREDIT:;
#NOTES:
// measure 0
0000
0000
0000
0000
,  // measure 1
0000
0000
0000
0000
,  // measure 2
0000
0000
0000
0000
,  // measure 3
0000
0000
0000
0000
,  // measure 4
0000
0000
0000
0000
,  // measure 5
0000
0000
0000
0000
,  // measure 6
1000
0100
0010
0100
1000
0100
0010
0100
,  // measure 7
1000
0100
0010
0100
0001
0100
0110
0000
,  // measure 8
0001
0100
0010
0100
0001
0100
0010
0100
,  // measure 9
0001
0100
0010
0100
0001
0100
0010
2010
,  // measure 10
0000
3100
1000
0001
0010
0001
0000
0012
,  // measure 11
0000
0103
0001
1000
0010
1000
0010
0210
,  // measure 12
0000
0301
0100
1000
0100
0001
0010
0021
,  // measure 13
0000
0031
1000
0100
0001
0100
1000
0010
,  // measure 14
1000
0010
1010
0000
0001
0010
0011
0000
,  // measure 15
1000
0100
1100
0000
0001
0100
0101
0000
,  // measure 16
0001
0010
0010
0001
0001
0010
0010
0100
,  // measure 17
0100
0000
1000
0000
1000
0000
0010
0000
0010
0000
0100
0010
0100
0010
0100
0010
,  // measure 18
0000
0000
0000
0000
,  // measure 19
2000
3010
0200
0301
,  // measure 20
0000
0000
0000
0000
,  // measure 21
0002
0013
0200
1300
,  // measure 22
0000
1000
0100
1000
0100
0000
0000
0001
,  // measure 23
0100
0001
0100
0000
0000
1000
0100
1000
,  // measure 24
0010
0000
0000
0010
1000
0000
0000
1000
,  // measure 25
0001
0100
1000
0100
0001
0000
1001
0000
,  // measure 26
0100
0001
0010
0001
0100
0001
0010
0001
,  // measure 27
0100
0110
0010
1010
,  // measure 28
0100
1000
0010
1000
0100
1000
0010
1000
,  // measure 29
0100
0110
0010
0011
,  // measure 30
0001
0100
1000
0100
0001
0100
0101
0000
,  // measure 31
1000
0100
0001
0100
1000
0100
1100
0000
,  // measure 32
1000
0100
0010
0001
0010
0100
1000
0001
,  // measure 33
1000
0010
1000
0001
0010
0001
0110
0000
,  // measure 34
2100
3010
0102
0013
,  // measure 35
2010
3100
0012
0103
,  // measure 36
0101
0000
1010
0000
1000
0100
0011
0000
,  // measure 37
1000
0000
0010
0000
0010
0000
0001
0000
0100
0000
0010
0000
0010
0100
0010
0000
,  // measure 38
0200
0000
0310
1000
0200
0000
0310
0001
,  // measure 39
0020
0000
0130
1000
0020
0000
0130
0000
,  // measure 40
0001
0000
0001
0000
0010
0001
0000
0100
,  // measure 41
0000
0100
1000
0010
0001
0010
1000
0100
,  // measure 42
0010
0000
0010
0000
0010
0000
0011
0000
0000
0000
0100
0010
0100
0000
0000
0000
,  // measure 43
1000
1000
1000
1010
0000
0100
0001
1000
,  // measure 44
0001
0000
1001
0000
1001
1010
0000
0120
,  // measure 45
0000
0100
1030
0000
0100
0100
1000
0020
,  // measure 46
0000
0000
0130
0000
0002
0000
0000
0000
1003
0000
0001
0010
0001
0010
0001
0000
,  // measure 47
2002
0000
3003
0101
0000
0100
1000
0010
,  // measure 48
2010
0000
3001
2200
0000
3300
0110
0000
,  // measure 49
2002
0000
3003
1100
0000
0100
1000
0010
,  // measure 50
0022
0000
0033
0202
0000
0303
0110
0000
,  // measure 51
1001
0000
0010
0000
0001
0100
0000
2100
,  // measure 52
0000
0010
0000
0001
0000
0100
0000
3001
,  // measure 53
1000
0100
1000
0001
0000
1000
0000
0020
,  // measure 54
0000
0100
0100
0032
0000
1003
0100
0010
,  // measure 55
0220
0000
0330
0101
0000
1000
0100
0010
,  // measure 56
0210
0000
1300
2200
0000
3300
1001
0000
,  // measure 57
0220
0000
0330
1100
0000
0001
0100
0010
,  // measure 58
1000
0100
1000
0010
0000
1000
0001
0000
,  // measure 59
2000
3020
0032
0023
,  // measure 60
2030
0000
3010
0000
0010
0001
0100
0000
,  // measure 61
0002
0023
2030
3020
,  // measure 62
0032
0000
0013
0000
0010
1000
0100
0000
,  // measure 63
0011
0000
1010
0000
,  // measure 64
0101
0000
0000
1100
0000
2200
0000
3300
,  // measure 65
1000
0010
0001
0010
1000
0000
2002
0000
,  // measure 66
0000
0000
0000
0000
3003
0000
1000
0010
,  // measure 67
0100
0001
1000
0001
0100
0001
1000
0001
,  // measure 68
0100
0001
1000
0001
0010
0001
1000
0100
,  // measure 69
0100
1000
0001
1000
0100
1000
0001
1000
,  // measure 70
0100
1000
0001
1000
0010
1000
1000
1020
,  // measure 71
0000
0130
1000
0001
0010
1000
0000
0021
,  // measure 72
0000
0130
0001
1000
0010
0001
0010
0210
,  // measure 73
0000
1300
0100
0001
0100
1000
0010
0120
,  // measure 74
0000
1030
0001
0100
1000
0100
0001
0010
,  // measure 75
0001
0010
0011
0000
1000
0010
1010
0000
,  // measure 76
0001
0100
0101
0000
1000
0100
1100
0000
,  // measure 77
0001
0000
0100
0001
0100
0000
0010
0100
0010
0000
1000
0010
1000
0010
1000
0010
,  // measure 78
1000
0000
0000
0000
0000
0000
0100
0010
0100
0000
0000
0000
0000
0000
0000
0000
;

//---------------dance-single - ----------------
#NOTEDATA:;
#CHARTNAME:;
#STEPSTYPE:dance-single;
#DESCRIPTION:;
#CHARTSTYLE:;
#DIFFICULTY:Medium;
#METER:11;
#RADARVALUES:0.454109,0.539336,0.384749,0.366428,0.004580,347.000000,305.000000,42.000000,40.000000,0.000000,0.000000,0.000000,0.000000,0.000000,0.454109,0.539336,0.384749,0.366428,0.004580,347.000000,305.000000,42.000000,40.000000,0.000000,0.000000,0.000000,0.000000,0.000000;
#CREDIT:;
#NOTES:
0000
0000
0000
0000
,
0000
0000
0000
0000
,
0000
0000
0000
0000
,
0000
0000
0000
0000
,
0000
0000
0000
0000
,
0000
0000
0000
0000
,
1000
0100
1000
0000
0001
0100
0001
0000
,
1000
0100
1000
0000
0010
1000
0001
0000
,
0001
0100
0001
0000
1000
0100
1000
0000
,
0001
0100
0001
0000
0010
0100
0000
2000
,
0000
0000
3001
0000
0010
0001
0000
0002
,
0000
0000
1003
0000
0010
0001
0010
2000
,
0000
3001
0100
0000
0001
0000
1000
0020
,
0000
1030
0100
0000
0100
0010
0100
0000
,
1000
1010
0001
0011
,
1000
1100
0001
0101
,
1000
0010
0100
0000
0001
0100
0010
0000
,
1000
0010
1000
0010
0100
0001
0100
0000
,
0000
0000
0000
0000
,
0002
0003
2000
3000
,
0000
0000
0000
0000
,
2000
3000
0002
0003
,
0000
1000
0000
0000
0100
0000
0000
0001
,
0000
0000
0100
0000
0000
1000
0000
0000
,
0010
0000
1000
0000
,
0001
0100
0010
1000
,
1000
0001
0100
0001
,
1000
0000
0010
0000
0100
0001
0100
0000
,
0001
1000
0100
1000
,
0001
0000
0010
0000
0100
1000
0100
0000
,
1000
0010
0001
0100
,
0001
0010
1000
0100
,
1000
0001
1000
0000
0001
0000
1000
0000
,
0001
0010
0001
0010
0001
0010
0001
0000
,
0001
0011
1000
1010
,
0001
0101
1000
1100
,
1001
0000
1001
0000
1000
0100
0010
0000
,
0001
0010
0001
0100
0002
0000
0103
0000
,
0010
1010
0001
0011
,
0100
0101
1000
1100
,
1000
0000
0100
0000
0010
0000
0000
0001
,
0000
0001
0100
0000
0010
0000
0100
0000
,
0100
0000
0000
0110
0000
0010
1000
0000
,
0100
0000
0000
0110
0000
0010
0001
0000
,
1001
0000
1001
0000
1010
0000
0000
0220
,
0000
0000
0000
0000
0000
0000
0330
2001
,
0000
0010
0001
3100
,
0012
0000
0000
0103
0000
0100
0010
0000
,
2010
0000
0000
3100
0000
0010
0001
0000
,
2010
0000
0000
0100
3000
0100
0010
0000
,
0012
0000
0000
0103
0000
0001
0010
0000
,
0001
0000
0010
0000
1000
0100
0000
2000
,
0000
3010
0000
0001
0000
0100
0000
0001
,
1000
0100
1000
0100
0000
0010
0000
0022
,
0000
0000
0033
2020
0000
0000
3030
0000
,
1020
0000
0000
0130
0000
0001
0010
0000
,
0021
0000
0000
0130
0000
1000
0010
0000
,
0210
0000
0000
0301
0000
0001
1000
0000
,
0001
0000
0100
0010
0000
1000
0000
0000
,
0002
0203
0320
2030
,
3002
0013
0010
1000
,
2000
3200
0320
0032
,
1003
0010
0010
0001
,
1001
0000
0110
0000
,
1001
0000
0000
1100
0000
0020
0000
0030
,
0001
0100
0010
1000
0001
0000
2002
0000
,
0000
0000
3003
1001
,
0001
0100
0001
0000
1000
0100
1000
0000
,
0001
0100
0001
0000
0010
0100
1000
0000
,
1000
0100
1000
0000
0001
0100
0001
0000
,
1000
0100
1000
0000
0001
0001
0000
2000
,
0000
0000
3001
0000
0010
1000
0000
2000
,
0000
0000
3010
0000
0001
0100
0010
2000
,
0000
3001
0100
0000
1000
0000
0100
0020
,
0000
1030
0100
0000
0010
0100
0010
0000
,
0001
0011
1000
1010
,
0001
0101
1000
1100
,
1000
0010
0100
0001
1000
0000
0011
0000
,
1010
0000
0000
0000
0000
0000
0010
0100
0010
0000
0000
0000
0000
0000
0000
0000
;

//---------------dance-single - ----------------
#NOTEDATA:;
#CHARTNAME:;
#STEPSTYPE:dance-single;
#DESCRIPTION:;
#CHARTSTYLE:;
#DIFFICULTY:Easy;
#METER:9;
#RADARVALUES:0.297068,0.431469,0.192375,0.293142,0.000000,227.000000,206.000000,21.000000,32.000000,0.000000,0.000000,0.000000,0.000000,0.000000,0.297068,0.431469,0.192375,0.293142,0.000000,227.000000,206.000000,21.000000,32.000000,0.000000,0.000000,0.000000,0.000000,0.000000;
#CREDIT:;
#NOTES:
0000
0000
0000
0000
,
0000
0000
0000
0000
,
0000
0000
0000
0000
,
0000
0000
0000
0000
,
0000
0000
0000
0000
,
0000
0000
0000
0000
,
1000
0000
0000
0001
0000
0000
0000
0000
,
1000
0000
0001
0001
,
0100
0000
0000
0010
0000
0000
0000
0000
,
0100
0000
0000
0000
0010
0000
0000
1000
,
0000
0000
0000
0000
0010
0000
0000
0100
,
0000
0000
0000
0000
0001
0000
0000
0100
,
0000
0000
0000
0000
0001
0000
0000
0010
,
0000
0000
0100
0100
,
0010
0010
0001
0001
,
1000
1000
0100
0100
,
0010
0001
0100
0010
,
1000
0100
0010
0001
,
0000
0000
0000
0000
,
0010
0000
0100
0000
,
0000
0000
0000
0000
,
0100
0000
0010
0000
,
0000
0001
0001
0000
,
0100
0100
0000
0000
,
0010
0000
1000
0000
,
0100
0000
0001
0100
,
1000
0010
1000
0000
,
0002
0003
0020
0030
,
0001
0100
0001
0000
,
2000
3000
0200
0300
,
1000
0000
0010
0000
,
0100
0001
0100
0001
,
0010
0000
0001
0000
,
1000
0100
0010
0100
,
0110
0010
2002
3003
,
0110
0100
2002
3003
,
1000
0010
0100
0001
,
0010
0100
0220
0330
,
1001
0001
0220
0330
,
1001
1000
0220
0330
,
1000
0100
0001
0100
,
1000
0010
0001
0010
,
1000
0000
0000
1001
0000
0000
1001
0000
,
0001
0000
0000
1001
0000
0000
1001
0000
,
1000
0000
0010
0000
1000
0000
0000
0002
,
0000
0000
0000
0000
0000
0000
0003
0200
,
0000
0000
0020
0330
,
2000
0000
0000
3100
0000
0000
0100
0000
,
0020
0000
0000
0130
0000
0000
1000
0000
,
0002
0000
0000
0103
0000
0000
0100
0000
,
0020
0000
0000
0130
0000
0000
0000
0000
,
1000
0000
0010
0000
0100
0000
0000
0002
,
0000
0013
1000
0100
,
0001
0000
0000
0100
0000
1000
0000
0020
,
0000
0000
0000
0032
0000
0000
1003
0000
,
1020
0000
0000
0130
0000
0000
0100
0000
,
0012
0000
0000
0103
0000
0000
1000
0000
,
0021
0000
0000
0130
0000
0000
0100
0000
,
2100
0000
0000
3010
0000
1000
0000
0000
,
1000
0010
0001
0010
,
2000
0001
0001
3001
,
0001
0010
1000
0010
,
0002
1000
1000
1003
,
1001
0000
0100
0000
,
0010
0000
0000
0001
0000
0000
0000
0000
,
0100
0001
0010
0220
,
0000
0000
0330
0110
,
0001
0000
0000
0100
0000
0000
0000
0000
,
1000
0000
0100
0100
,
0001
0000
0000
0010
0000
0000
0000
0000
,
1000
0000
0000
0000
0010
0000
0000
0001
,
0000
0000
0001
0000
0010
0000
0000
0100
,
0000
0000
0100
0000
1000
0000
0000
0001
,
0000
0000
0001
0000
0100
0000
0000
0010
,
0000
0010
1000
1000
,
0010
0010
1000
1000
,
0100
0100
0001
0100
,
1000
0000
0001
0100
0001
0000
0010
0000
,
0001
0000
1001
0000
;

//---------------dance-single - ----------------
#NOTEDATA:;
#CHARTNAME:;
#STEPSTYPE:dance-single;
#DESCRIPTION:;
#CHARTSTYLE:;
#DIFFICULTY:Beginner;
#METER:4;
#RADARVALUES:0.225091,0.503380,0.247339,0.000000,0.000000,172.000000,145.000000,27.000000,0.000000,0.000000,0.000000,0.000000,0.000000,0.000000,0.225091,0.503380,0.247339,0.000000,0.000000,172.000000,145.000000,27.000000,0.000000,0.000000,0.000000,0.000000,0.000000,0.000000;
#CREDIT:;
#NOTES:
0000
0000
0000
0000
,
0000
0000
0000
0000
,
0000
0000
0000
0000
,
0000
0000
0000
0000
,
0000
0000
0000
0000
,
0000
0000
0000
0000
,
1000
0000
0000
0000
,
0001
0000
0000
0000
,
0100
0000
0000
0000
,
0010
0000
0000
0000
,
1000
0000
0001
0000
,
1000
0000
0001
0000
,
0010
0000
0100
0000
,
0010
0000
0100
0000
,
0110
0000
0110
0000
,
0110
0000
0110
0000
,
1001
0000
0110
0000
,
1001
0000
0110
0110
,
0000
0000
0000
0000
,
0000
0000
0000
0000
,
0000
0000
0000
0000
,
0000
0000
0000
0000
,
0000
0000
0000
0000
,
0000
0000
0000
0000
,
0000
0000
0000
0000
,
0000
0000
0000
0000
,
1000
0000
1000
0000
,
0001
0001
0001
0001
,
0001
0000
0001
0000
,
1000
1000
1000
1000
,
1000
0000
0010
0000
,
0100
0000
0010
0000
,
0001
0000
0010
0000
,
0100
0000
0010
0010
,
0010
0000
0010
0000
,
0100
0000
0100
0000
,
1000
0000
0010
0000
,
0100
0100
0100
0000
,
0001
0000
1000
0000
,
0001
0000
1000
0000
,
1000
1000
1000
0000
,
0001
0001
0001
0000
,
0010
0000
0100
0000
,
0100
0000
0010
0000
,
0010
0010
0010
0000
,
1000
0000
0001
0000
,
1000
0000
0001
0000
,
1001
0000
1001
0000
,
0010
0000
0100
0000
,
0001
0000
1000
0000
,
0100
0000
0010
0000
,
0001
0001
0001
0000
,
0010
0000
1000
0000
,
0001
0000
0100
0000
,
1000
0000
0110
0000
,
1001
0000
1001
0000
,
0100
0000
0010
0000
,
1000
0000
0001
0000
,
0010
0000
0100
0000
,
1000
1000
1000
0000
,
0010
0010
0010
0000
,
0001
0001
0001
0000
,
1000
1000
1000
0000
,
0100
0000
0001
0000
,
0010
0000
0001
0000
,
1000
1000
1000
0000
,
0110
0110
0110
0000
,
0001
0000
0001
0000
,
1000
0000
1000
0000
,
0010
0000
0010
0000
,
0100
0000
0100
0000
,
0001
0000
0010
0000
,
1000
0000
0010
0000
,
0001
0000
0100
0000
,
1000
0000
0100
0000
,
0110
0000
0110
0000
,
0110
0000
0110
0000
,
1001
1001
1001
1001
,
1001
0000
1001
0000
;

//---------------dance-single - Sneak peak at a potential new school CSP Chart----------------
#NOTEDATA:;
#CHARTNAME:;
#STEPSTYPE:dance-single;
#DESCRIPTION:Sneak peak at a potential new school CSP Chart;
#CHARTSTYLE:;
#DIFFICULTY:Challenge;
#METER:17;
#RADARVALUES:0.777351,1.150584,0.613767,0.696213,0.316044,594.000000,527.000000,67.000000,76.000000,0.000000,1.000000,0.000000,0.000000,0.000000,0.777351,1.150584,0.613767,0.696213,0.316044,594.000000,527.000000,67.000000,76.000000,0.000000,1.000000,0.000000,0.000000,0.000000;
#CREDIT:;
#NOTES:
0000
0000
0000
0000
,
0000
0000
0000
0000
,
0000
0000
0000
0000
,
0000
0000
0000
0000
,
0000
0000
0000
0000
,
0000
0000
0000
0000
,
1000
0001
0100
0001
0100
0001
0010
0001
,
1000
0001
0100
0100
0010
2000
3010
0100
,
0001
1000
0100
1000
0100
1000
0010
1000
,
0001
1000
0100
0100
0001
2000
3001
1200
,
0000
1000
0010
0000
1000
1300
0010
0201
,
0000
0001
0010
0000
0001
0301
0100
1002
,
0000
0103
0010
1000
0100
0100
1000
0012
,
0000
0000
1000
0000
0100
0000
0000
0000
1003
0000
0010
0000
1000
0100
0010
0001
,
2000
3010
0012
0000
0023
0031
0201
0000
,
0302
0103
2100
0000
3200
1300
1020
0000
,
1030
0000
0001
0010
0001
0000
0010
0100
0010
0000
0100
1000
0100
0000
1000
0010
,
0100
0001
1000
0010
0100
0001
1000
0100
0010
0001
1000
0100
0010
0001
1000
0001
,
0000
0000
0000
0000
,
2000
3010
0002
0013
,
0000
0000
0000
0000
,
2000
3100
0002
0103
,
0000
1000
0100
0010
0001
0000
0000
0001
,
0100
0010
1000
0000
0000
0100
0010
0001
,
0002
0000
0003
1000
2000
0000
3000
0010
,
1000
0100
0010
0001
0012
0000
0013
0000
,
0100
0010
0001
0010
0100
0010
0001
0010
,
1100
0000
0000
0100
0001
0000
0100
0000
0010
0000
1000
0000
1000
0000
0010
0000
,
0100
0010
1000
0010
0100
0010
1000
0010
,
0101
0000
0000
0100
1000
0000
0100
0000
0010
0000
0001
0000
0100
0000
0001
0000
,
0001
0000
0010
0000
1000
0000
0010
0000
0001
1000
0100
1000
0100
1000
0100
0010
,
0001
0100
0010
1000
0010
1000
0010
0100
0001
0010
0100
1000
0100
0010
0001
1000
,
0100
0000
0100
1000
0001
1000
0100
1000
0001
0100
0010
1000
0001
1000
0010
1000
,
0100
1000
0100
1000
0010
1000
0010
1000
0001
0010
0100
1000
0100
0010
0001
1000
,
0001
0100
1020
0000
1030
0100
0021
0000
,
0031
0000
0010
0000
1200
0000
0000
0000
1300
0010
0100
0001
0101
0000
0000
0000
,
1000
0010
1000
0010
0001
0010
1000
0100
,
0010
0000
1000
0010
1000
0000
0001
0000
0100
0000
1000
0000
0010
1000
0010
1000
,
0010
0000
1000
0000
0201
0000
0000
0000
0301
0000
0010
0100
1200
0000
0000
0000
,
1300
0100
0012
0000
0103
0001
1020
0000
,
0130
0000
1000
0000
0001
0010
0000
2000
,
0000
3100
0001
1000
0010
0001
1000
0100
,
0011
0000
0010
0000
0010
0000
1010
0000
0000
0000
1000
0010
0100
0000
0000
0000
,
0101
0000
0100
0000
0100
0000
1100
0000
0000
0000
1000
0100
0010
0000
0000
0000
,
0011
0010
0110
0100
1100
0101
0001
0020
,
0000
0031
1000
0020
0000
1030
0001
0020
,
0000
0000
0100
0000
0001
0000
0031
1000
0010
1000
0001
0100
0001
1000
0001
0010
,
0120
0000
0031
0200
0000
0310
0100
1000
,
1200
0000
0310
2010
0000
3001
1001
0000
,
0120
0000
1030
0200
0000
0310
0100
0001
,
0201
0000
0310
0012
0000
1003
1001
0000
,
1100
0100
0010
0100
1000
0100
0001
0101
,
0000
1010
0010
0001
0001
1000
0001
0100
,
1000
0100
0001
0010
0000
1100
0000
0021
,
0000
0000
0001
0000
0031
0000
1010
0000
1000
0000
0100
0000
0010
0100
0001
0100
,
0120
0000
0031
0200
0000
0310
0001
1000
,
1200
0000
0310
2010
0000
3001
1001
0000
,
0120
0000
0031
0200
0000
0310
0001
1000
,
1100
0100
0010
2010
0000
3001
1001
0000
,
2000
3020
0032
0203
,
2300
0000
3010
0000
0100
1000
0001
0000
,
0002
0023
2030
3200
,
0302
0000
0103
0000
0100
1000
0001
0000
,
1001
1000
0100
0010
0110
0100
0010
0001
,
1001
0001
0100
0110
0000
2020
0000
3030
,
0001
0010
1000
0001
0100
0000
2100
0000
,
0000
0010
0001
0010
3001
0100
0110
1010
,
1000
0001
0010
0001
0010
0100
0001
0100
,
1000
0001
0010
0010
0100
0002
0203
0310
,
0001
1000
0010
1000
0010
0100
1000
0100
,
0001
1000
0010
0010
1000
0020
0031
0021
,
0000
1000
0100
0000
1000
1130
0100
0021
,
0000
0001
0100
0000
0001
0031
0010
1002
,
0000
0013
0100
1000
0010
0010
1000
0102
,
0000
0000
1000
0000
0010
0000
0000
0000
1003
0000
0100
0000
1000
0010
0100
0001
,
2000
3100
0102
0000
0203
0301
0021
0000
,
0032
0013
2010
0000
3020
1030
1200
0000
,
0310
0001
1000
0100
0010
0001
1000
0010
0100
0001
1000
0010
0100
0001
1000
0001
,
0100
0000
0000
0000
0000
0000
0010
0100
0110
0000
0000
0000
0000
0000
0000
0000
;
