#VERSION:0.83;
#TITLE:Wii Shop Channel WITH LYRICS;
#SUBTITLE:;
#ARTIST:brentalfloss;
#TITLETRANSLIT:;
#SUBTITLETRANSLIT:;
#ARTISTTRANSLIT:;
#GENRE:;
#ORIGIN:;
#CREDIT:Karl with a K;
#BANNER:Wii Shop Channel WITH LYRICS-banner.png;
#BACKGROUND:Wii Shop Channel WITH LYRICS-bg.png;
#PREVIEWVID:;
#JACKET:;
#CDIMAGE:;
#DISCIMAGE:;
#LYRICSPATH:;
#CDTITLE:;
#MUSIC:Wii Shop Channel WITH LYRICS.ogg;
#OFFSET:-0.025000;
#SAMPLESTART:6.746286;
#SAMPLELENGTH:13.426573;
#SELECTABLE:YES;
#BPMS:0.000=143.000;
#STOPS:;
#DELAYS:;
#WARPS:;
#TIMESIGNATURES:0.000=4=4;
#TICKCOUNTS:0.000=4;
#COMBOS:0.000=1;
#SPEEDS:0.000=1.000=0.000=0;
#SCROLLS:0.000=1.000;
#FAKES:;
#LABELS:0.000=Song Start;
#BGCHANGES:;
#KEYSOUNDS:;
#ATTACKS:
;

//---------------dance-single - XO DS+ JA+ JU-----------------
#NOTEDATA:;
#CHARTNAME:;
#STEPSTYPE:dance-single;
#DESCRIPTION:XO DS+ JA+ JU-;
#CHARTSTYLE:;
#DIFFICULTY:Hard;
#METER:12;
#RADARVALUES:0.424487,0.439186,0.013385,0.334618,0.023423,444.000000,442.000000,2.000000,50.000000,0.000000,0.000000,0.000000,0.000000,0.000000,0.424487,0.439186,0.013385,0.334618,0.023423,444.000000,442.000000,2.000000,50.000000,0.000000,0.000000,0.000000,0.000000,0.000000;
#CREDIT:Karl with a K;
#NOTES:
// measure 0
0000
0000
0000
0000
,  // measure 1
0000
0000
0000
0000
,  // measure 2
0000
0000
0000
0000
,  // measure 3
0000
0000
0000
0000
,  // measure 4
1000
0100
0100
0000
0010
0010
0000
0001
,  // measure 5
0001
0000
1000
1000
0020
0000
0130
0100
,  // measure 6
0001
0100
0100
0000
0010
0010
0000
1000
,  // measure 7
1000
0000
0001
0001
0010
0100
0100
0000
,  // measure 8
0001
0100
0100
0000
1000
1000
0000
0010
,  // measure 9
0010
0000
0001
0001
0010
0000
0100
0100
,  // measure 10
1000
0100
0100
0000
0001
0001
0000
0010
,  // measure 11
0010
0000
1000
1000
0010
0100
0100
0000
,  // measure 12
2000
0000
0000
0001
3002
0000
0013
0200
,  // measure 13
0000
0000
0000
1300
0010
0000
0100
0000
,  // measure 14
0002
0000
0000
0103
0010
1000
0100
0010
,  // measure 15
0002
0000
0000
0000
0013
0001
1000
0000
,  // measure 16
0001
0000
0100
0100
0000
0010
0000
2000
,  // measure 17
0000
0000
3100
0100
0000
0010
0000
0002
,  // measure 18
0000
0000
0000
1000
0010
0000
0000
0013
,  // measure 19
0100
0000
1000
0010
0100
1000
0100
0000
,  // measure 20
0001
0100
0100
0000
0010
0010
0000
1000
,  // measure 21
1000
0000
0001
0001
0000
0020
0000
0130
,  // measure 22
1000
0100
0100
0000
0010
1000
0000
0010
,  // measure 23
0001
0000
1000
1000
0010
0100
1000
0000
,  // measure 24
1000
0100
0100
0000
0001
0001
0000
0010
,  // measure 25
0010
0000
1000
1000
0010
0000
0100
0001
,  // measure 26
0100
0001
0100
0000
1000
1000
0000
0010
,  // measure 27
0001
0000
1000
0100
0010
0010
0100
0000
,  // measure 28
0002
0000
1000
2000
0003
3020
0000
0230
,  // measure 29
0000
0000
0000
0301
0010
0000
0100
0000
,  // measure 30
2000
0001
0000
3100
0010
0001
0100
0010
,  // measure 31
0002
0000
0000
0000
0013
1000
0001
0000
,  // measure 32
1000
1000
1000
1000
1000
0000
0000
0000
,  // measure 33
0000
0000
0001
0001
0001
0001
0001
0000
,  // measure 34
1000
1000
1000
1000
1000
0000
0000
0000
,  // measure 35
0000
0000
0000
0000
0000
0000
0000
0000
0001
1000
0001
1000
0001
0000
0000
0000
,  // measure 36
2000
0100
0100
0000
0010
0010
0000
0001
,  // measure 37
0001
0000
0100
3100
0020
0000
0130
1000
,  // measure 38
0002
0100
0100
0000
0010
0010
0000
1000
,  // measure 39
1000
0000
0100
0103
0010
0100
0001
0000
,  // measure 40
0002
0010
0010
0000
1000
1000
0000
0100
,  // measure 41
0100
0000
0000
0000
0010
0000
0010
0000
0013
0000
0000
0000
0100
0000
1000
0100
,  // measure 42
2000
0100
0100
0000
0001
0001
0000
0010
,  // measure 43
0010
0000
0100
3100
0010
0001
1000
0000
,  // measure 44
0002
0000
0000
0000
2003
0000
3010
0200
,  // measure 45
0000
0000
0000
0310
1000
0000
0010
1000
,  // measure 46
2000
0000
0000
3001
0100
0010
1000
0010
,  // measure 47
2000
0000
0000
0000
3010
1000
0010
0000
,  // measure 48
1000
0000
0001
0100
0000
0010
0000
2000
,  // measure 49
0000
0000
3001
0100
0000
0010
0000
2000
,  // measure 50
0000
0000
0001
0000
0000
0001
0000
0000
,  // measure 51
3001
0000
0010
1000
0100
1000
0010
0000
,  // measure 52
0001
0100
1000
0000
0100
0010
0000
0100
,  // measure 53
1000
0000
0100
0001
0000
0020
0000
0130
,  // measure 54
1000
0100
0001
0000
0100
0010
0000
0100
,  // measure 55
0001
0000
0100
1000
0000
0020
0130
0000
,  // measure 56
1000
0100
1000
0000
0001
1000
0000
0100
,  // measure 57
0010
0000
0100
1000
0100
0010
1000
0100
,  // measure 58
0001
0100
0001
0000
1000
0001
0000
0100
,  // measure 59
0010
0000
0000
0000
0000
0000
0100
0000
0000
0001
0000
0000
0100
0000
0000
0000
1000
0000
0100
0000
0000
0010
0000
0000
,  // measure 60
0002
0000
1000
2003
0000
3020
0000
0032
,  // measure 61
0000
0000
0000
1003
0001
0000
0010
0000
,  // measure 62
2000
0100
0000
3100
0010
0001
0100
0010
,  // measure 63
2000
0000
0000
0000
3010
1000
0001
0000
,  // measure 64
1000
0100
0001
0100
1000
0000
0001
1000
,  // measure 65
0001
0000
1000
0010
0001
0010
1000
0000
,  // measure 66
0001
0010
1000
0010
0001
0000
0100
1000
,  // measure 67
0100
0000
0000
0000
0002
0000
0000
0000
0013
0100
0010
0100
0010
0000
0000
0000
,  // measure 68
0020
0100
0100
0000
0001
0001
0000
0100
,  // measure 69
0100
0000
0000
0000
0000
0000
1000
0000
0000
1030
0000
0000
0010
0000
0000
0000
0001
0000
0100
0000
0000
0000
0000
0000
,  // measure 70
0020
0100
0100
0000
1000
1000
0000
0100
,  // measure 71
0100
0000
0001
0031
0010
1000
0100
0000
,  // measure 72
0200
0010
0010
0000
1000
1000
0000
0010
,  // measure 73
0010
0000
0001
0301
0101
0100
1000
0001
,  // measure 74
0200
0010
0010
0000
0001
0001
0000
0010
,  // measure 75
0010
0000
1000
1300
0100
0100
0010
0000
,  // measure 76
2000
0000
0000
0000
3002
0000
0013
0200
,  // measure 77
0000
0000
0000
0310
0001
0000
0010
0001
,  // measure 78
0002
0000
0000
1003
0010
1000
0010
0100
,  // measure 79
0020
0000
0000
0000
1030
0010
1000
0000
,  // measure 80
0001
0000
1000
0100
0000
0010
0000
0002
,  // measure 81
0000
0000
1003
0100
0000
0010
0001
0000
,  // measure 82
1000
0000
0001
0100
0000
0010
0000
0002
,  // measure 83
0000
0000
1003
0100
0000
0010
1000
0000
,  // measure 84
0001
0000
1000
0100
0000
0010
0000
0002
,  // measure 85
0000
0000
1003
0100
0000
0010
0000
0000
,  // measure 86
0000
2002
0000
0000
,  // measure 87
0000
0000
3003
0000
;

//---------------dance-single - ----------------
#NOTEDATA:;
#CHARTNAME:;
#STEPSTYPE:dance-single;
#DESCRIPTION:;
#CHARTSTYLE:;
#DIFFICULTY:Medium;
#METER:8;
#RADARVALUES:0.255266,0.292791,0.006692,0.354695,0.000000,267.000000,266.000000,1.000000,53.000000,0.000000,0.000000,0.000000,0.000000,0.000000,0.255266,0.292791,0.006692,0.354695,0.000000,267.000000,266.000000,1.000000,53.000000,0.000000,0.000000,0.000000,0.000000,0.000000;
#CREDIT:Karl with a K;
#NOTES:
// measure 0
0000
0000
0000
0000
,  // measure 1
0000
0000
0000
0000
,  // measure 2
0000
0000
0000
0000
,  // measure 3
0000
0000
0000
0000
,  // measure 4
1000
0000
0010
0000
0100
0000
0000
0001
,  // measure 5
1000
0000
1000
0100
0000
0000
0010
0000
,  // measure 6
0001
0000
0010
0000
0100
0000
0000
1000
,  // measure 7
0001
0000
0001
0100
0000
0000
0010
0000
,  // measure 8
1000
0000
0010
0000
0100
0000
0000
0001
,  // measure 9
1000
0000
1000
0100
0000
0000
0010
0000
,  // measure 10
0001
0000
0010
0000
0100
0000
0000
1000
,  // measure 11
0001
0000
0001
0100
0000
0020
0000
0000
,  // measure 12
0032
0000
0023
0000
,  // measure 13
2030
0000
3200
0000
,  // measure 14
1300
0000
0001
0100
,  // measure 15
0020
0000
1030
0000
,  // measure 16
1000
0000
0000
0100
0000
0010
0000
0002
,  // measure 17
0000
0000
0000
0103
0000
0010
0000
2000
,  // measure 18
0000
0000
3001
0000
,  // measure 19
1000
0100
0010
0001
,  // measure 20
0001
0000
0100
0000
1000
0000
0000
0100
,  // measure 21
0010
0000
0010
0100
0000
0002
0000
0000
,  // measure 22
1003
0000
0100
0000
0001
0000
0000
0100
,  // measure 23
0010
0000
0010
0100
0000
2000
0000
0000
,  // measure 24
3001
0010
0010
0000
1000
0000
0000
0010
,  // measure 25
0100
0000
1000
0001
0000
0002
0000
0000
,  // measure 26
1003
0000
0010
0000
0001
0000
0000
0010
,  // measure 27
0100
0000
0100
0010
0000
2000
0000
0000
,  // measure 28
3200
0000
0302
0000
,  // measure 29
2003
0000
3020
0000
,  // measure 30
0031
0001
0000
0000
0100
0000
0010
0000
,  // measure 31
0002
0000
0013
0000
,  // measure 32
1000
0001
1000
0000
,  // measure 33
0000
0001
1000
0001
,  // measure 34
1000
0001
1000
0000
,  // measure 35
0000
0000
0000
0000
0001
1000
0001
0000
,  // measure 36
0010
0000
0001
0000
1000
0000
0000
0100
,  // measure 37
0010
0000
0001
1000
0000
0000
0001
0000
,  // measure 38
0100
0000
0001
0000
1000
0000
0000
0010
,  // measure 39
0100
0000
0001
1000
0000
0000
0001
0000
,  // measure 40
0010
0000
0001
0000
1000
0000
0000
0100
,  // measure 41
0010
0000
0100
1000
0000
0000
0001
0000
,  // measure 42
0100
0000
0001
0000
1000
0000
0000
0010
,  // measure 43
0100
0000
0010
1000
0000
0000
0002
0000
,  // measure 44
0203
0000
0302
0000
,  // measure 45
2003
0000
3020
0000
,  // measure 46
1030
0000
0001
0100
,  // measure 47
0002
0000
1003
0000
,  // measure 48
0010
0000
0000
1000
0000
0001
0000
0200
,  // measure 49
0000
0000
0000
0301
0000
1000
0000
0020
,  // measure 50
0000
0000
0130
0000
,  // measure 51
0001
0010
1000
0100
,  // measure 52
0001
0000
1000
0000
0010
0000
0000
1000
,  // measure 53
0001
0000
0001
1000
0000
0200
0000
0000
,  // measure 54
0310
0000
0001
0000
0100
0000
0000
0001
,  // measure 55
1000
0000
1000
0001
0000
0200
0000
0000
,  // measure 56
0310
0000
1000
0000
0010
0000
0000
1000
,  // measure 57
0001
0000
0010
0100
0000
0200
0000
0000
,  // measure 58
0310
0000
0001
0000
0100
0000
0000
0001
,  // measure 59
1000
0000
1000
0001
0000
0200
0000
0000
,  // measure 60
2300
0000
3200
0000
,  // measure 61
0320
0000
2030
0000
,  // measure 62
3100
0100
0000
0000
1000
0000
0001
0000
,  // measure 63
0200
0000
0301
0000
,  // measure 64
0010
1000
0010
0000
,  // measure 65
0000
0001
0100
1000
,  // measure 66
0001
0010
1000
0000
,  // measure 67
0000
0000
0000
0000
0010
0100
0010
0000
,  // measure 68
0020
0000
0000
0000
,  // measure 69
0000
0000
2030
3200
,  // measure 70
0320
0000
0000
0000
,  // measure 71
0031
1000
0100
0010
,  // measure 72
0002
0000
0103
0100
,  // measure 73
2000
0000
3100
0100
,  // measure 74
0002
0000
0013
0010
,  // measure 75
2000
0000
0000
0000
3010
0000
0010
0001
,  // measure 76
0020
0000
0032
0000
,  // measure 77
2003
0000
3200
0000
,  // measure 78
1300
0000
0001
0010
,  // measure 79
2000
0000
3010
0001
,  // measure 80
1000
0000
0000
0010
0000
0001
0000
1000
,  // measure 81
0000
0000
0000
0100
0000
0001
0000
0000
,  // measure 82
1000
0000
0000
0100
0000
0001
0000
1000
,  // measure 83
0000
0000
0000
0010
0000
0001
0000
0000
,  // measure 84
0001
0000
0000
0100
0000
2000
0000
3002
,  // measure 85
0000
0000
0013
2000
0000
3200
0300
0000
,  // measure 86
0000
0220
0000
0000
,  // measure 87
0000
0000
0330
0000
;

//---------------dance-single - ----------------
#NOTEDATA:;
#CHARTNAME:;
#STEPSTYPE:dance-single;
#DESCRIPTION:;
#CHARTSTYLE:;
#DIFFICULTY:Easy;
#METER:4;
#RADARVALUES:0.158705,0.202026,0.006692,0.160617,0.000000,166.000000,165.000000,1.000000,24.000000,0.000000,0.000000,0.000000,0.000000,0.000000,0.158705,0.202026,0.006692,0.160617,0.000000,166.000000,165.000000,1.000000,24.000000,0.000000,0.000000,0.000000,0.000000,0.000000;
#CREDIT:Karl with a K;
#NOTES:
// measure 0
0000
0000
0000
0000
,  // measure 1
0000
0000
0000
0000
,  // measure 2
0000
0000
0000
0000
,  // measure 3
0000
0000
0000
0000
,  // measure 4
1000
0000
0001
0000
,  // measure 5
1000
0000
0010
0100
,  // measure 6
0001
0000
1000
0000
,  // measure 7
0001
0000
0010
0100
,  // measure 8
1000
0000
0001
0000
,  // measure 9
1000
0000
0100
0010
,  // measure 10
0001
0000
1000
0000
,  // measure 11
0001
0000
0100
0010
,  // measure 12
2000
0000
3002
0000
,  // measure 13
0203
0000
0000
0000
,  // measure 14
0300
0000
0001
0010
,  // measure 15
0002
0000
0013
0000
,  // measure 16
0001
0000
1000
0000
,  // measure 17
0100
0000
1000
0000
,  // measure 18
2000
0000
0000
3000
,  // measure 19
0000
0000
0000
0000
0000
0001
0001
0000
,  // measure 20
1000
0000
0100
0000
,  // measure 21
0010
0000
0001
2000
,  // measure 22
3001
0000
0100
0000
,  // measure 23
0010
0000
1000
0002
,  // measure 24
1003
0000
0010
0000
,  // measure 25
0100
0000
0001
2000
,  // measure 26
3001
0000
0010
0000
,  // measure 27
0100
0000
1000
0001
,  // measure 28
2000
0000
3020
0000
,  // measure 29
0230
0000
0000
0000
,  // measure 30
0300
0000
0001
0100
,  // measure 31
0020
0000
0130
0000
,  // measure 32
0001
0001
0001
0000
,  // measure 33
0000
1000
1000
1000
,  // measure 34
1000
1000
1000
0000
,  // measure 35
0000
0000
0001
0001
,  // measure 36
1000
0000
0001
0000
,  // measure 37
0100
0000
0001
1000
,  // measure 38
0001
0000
1000
0000
,  // measure 39
0100
0000
1000
1000
,  // measure 40
0010
0000
1000
0000
,  // measure 41
0001
0000
1000
1000
,  // measure 42
0001
0000
0010
0000
,  // measure 43
0001
0000
1000
1000
,  // measure 44
0001
0000
0100
0000
,  // measure 45
0010
0000
1000
0000
,  // measure 46
0001
0000
0100
0000
,  // measure 47
0010
0000
1000
0000
,  // measure 48
1000
0000
0010
0000
,  // measure 49
0100
0000
0001
0000
,  // measure 50
0002
0000
0000
0000
,  // measure 51
0003
0010
1000
0001
,  // measure 52
0100
0000
0010
0000
,  // measure 53
0001
0000
0100
0010
,  // measure 54
0100
0000
0010
0000
,  // measure 55
1000
0000
0100
0010
,  // measure 56
0100
0000
0001
0000
,  // measure 57
0010
0000
0100
1000
,  // measure 58
0100
0000
1000
0000
,  // measure 59
0010
0000
0100
0001
,  // measure 60
0002
0000
0000
0000
,  // measure 61
2003
0000
0000
0000
,  // measure 62
3001
0000
1000
0000
,  // measure 63
0020
0000
1030
0000
,  // measure 64
0001
0000
0100
0000
,  // measure 65
1000
0000
0100
0000
,  // measure 66
0001
0000
1000
0000
,  // measure 67
0100
0000
0001
0100
,  // measure 68
2000
0000
0000
0000
,  // measure 69
0000
0000
0000
0000
,  // measure 70
3002
0000
0000
0000
,  // measure 71
0000
0000
0000
0000
,  // measure 72
0023
0000
0000
0000
,  // measure 73
0230
0000
0000
0000
,  // measure 74
2300
0000
0000
0000
,  // measure 75
3020
0000
0000
0000
,  // measure 76
0130
0000
0010
0000
,  // measure 77
2000
0000
0000
0000
,  // measure 78
3100
0000
0010
0000
,  // measure 79
0002
0000
0000
0000
,  // measure 80
1003
0000
0100
0000
,  // measure 81
1000
0000
0000
0000
,  // measure 82
0001
0000
0100
0000
,  // measure 83
0001
0000
0000
0000
,  // measure 84
1000
0000
0100
0000
,  // measure 85
1000
0000
0000
0000
,  // measure 86
0000
1001
0000
0000
;

//---------------dance-single - ----------------
#NOTEDATA:;
#CHARTNAME:;
#STEPSTYPE:dance-single;
#DESCRIPTION:;
#CHARTSTYLE:;
#DIFFICULTY:Beginner;
#METER:1;
#RADARVALUES:0.059275,0.144304,0.040154,0.000000,0.000000,62.000000,56.000000,6.000000,0.000000,0.000000,0.000000,0.000000,0.000000,0.000000,0.059275,0.144304,0.040154,0.000000,0.000000,62.000000,56.000000,6.000000,0.000000,0.000000,0.000000,0.000000,0.000000,0.000000;
#CREDIT:Karl with a K;
#NOTES:
// measure 0
0000
0000
0000
0000
,  // measure 1
0000
0000
0000
0000
,  // measure 2
0000
0000
0000
0000
,  // measure 3
0000
0000
0000
0000
,  // measure 4
1000
0000
0000
0000
,  // measure 5
0000
0000
0000
0000
,  // measure 6
1000
0000
0000
0000
,  // measure 7
0000
0000
0000
0000
,  // measure 8
0001
0000
0000
0000
,  // measure 9
0000
0000
0000
0000
,  // measure 10
0001
0000
0000
0000
,  // measure 11
0000
0000
0000
0000
,  // measure 12
0100
0000
0000
0000
,  // measure 13
0000
0000
0000
0000
,  // measure 14
0100
0000
0000
0000
,  // measure 15
0010
0000
0000
0000
,  // measure 16
1000
0000
0000
0000
,  // measure 17
0010
0000
0000
0000
,  // measure 18
0100
0000
0000
0000
,  // measure 19
0000
0000
0000
0000
,  // measure 20
0001
0000
0000
0000
,  // measure 21
0000
0000
0000
0000
,  // measure 22
0001
0000
0000
0000
,  // measure 23
0000
0000
0000
0000
,  // measure 24
1000
0000
0000
0000
,  // measure 25
0000
0000
0000
0000
,  // measure 26
1000
0000
0000
0000
,  // measure 27
0000
0000
0000
0000
,  // measure 28
0100
0000
0000
0000
,  // measure 29
0000
0000
0000
0000
,  // measure 30
0100
0000
0000
0000
,  // measure 31
0010
0000
0000
0000
,  // measure 32
0001
0000
0000
0000
,  // measure 33
0000
1000
0000
0000
,  // measure 34
0001
0000
0000
0000
,  // measure 35
0000
0000
1001
0000
,  // measure 36
1000
0000
0000
0000
,  // measure 37
0000
0000
0000
0000
,  // measure 38
0010
0000
0000
0000
,  // measure 39
0000
0000
0000
0000
,  // measure 40
0001
0000
0000
0000
,  // measure 41
0000
0000
0000
0000
,  // measure 42
0100
0000
0000
0000
,  // measure 43
0000
0000
0000
0000
,  // measure 44
1000
0000
0000
0000
,  // measure 45
0000
0000
0000
0000
,  // measure 46
1000
0000
0000
0000
,  // measure 47
0010
0000
0000
0000
,  // measure 48
0100
0000
0000
0000
,  // measure 49
0001
0000
0000
0000
,  // measure 50
1000
0000
0000
0000
,  // measure 51
0000
0100
0100
0100
,  // measure 52
0100
0000
0000
0000
,  // measure 53
0000
0000
0000
0000
,  // measure 54
0010
0000
0000
0000
,  // measure 55
0000
0000
0000
0000
,  // measure 56
0001
0000
0000
0000
,  // measure 57
0000
0000
0000
0000
,  // measure 58
0100
0000
0000
0000
,  // measure 59
0000
0000
0000
0000
,  // measure 60
0100
0000
0000
0000
,  // measure 61
0000
0000
0000
0000
,  // measure 62
0100
0000
0000
0000
,  // measure 63
0010
0000
0000
0000
,  // measure 64
1000
0000
0000
0000
,  // measure 65
0100
0000
0000
0000
,  // measure 66
0001
0000
0000
0000
,  // measure 67
0100
0000
0000
0000
,  // measure 68
1001
0000
0000
0000
,  // measure 69
0000
0000
0000
0000
,  // measure 70
1001
0000
0000
0000
,  // measure 71
0000
0000
0000
0000
,  // measure 72
0110
0000
0000
0000
,  // measure 73
0000
0000
0000
0000
,  // measure 74
0110
0000
0000
0000
,  // measure 75
0000
0000
0000
0000
,  // measure 76
1000
0000
0000
0000
,  // measure 77
0000
0000
0000
0000
,  // measure 78
0100
0000
0000
0000
,  // measure 79
0010
0000
0000
0000
,  // measure 80
0001
0000
0000
0000
,  // measure 81
0000
0000
0000
0000
,  // measure 82
1000
0000
0000
0000
,  // measure 83
0000
0000
0000
0000
,  // measure 84
0001
0000
0000
0000
,  // measure 85
0000
0000
0000
0000
,  // measure 86
0000
0110
0000
0000
;
